<?xml version="1.0" standalone="no"?>
<!DOCTYPE svg PUBLIC "-//W3C//DTD SVG 1.1//EN" "http://www.w3.org/Graphics/SVG/1.1/DTD/svg11.dtd" >
<svg>
<metadata>
Created by FontForge 20120731 at Fri Dec 23 08:25:05 2022
 By fw_worker
Copyright (c) 2016 by Mostardesign Type Foundry. All rights reserved.
</metadata>
<defs>
<font id="UniviaPro-Ultra" horiz-adv-x="627" >
  <font-face 
    font-family="Univia Pro Ultra"
    font-weight="900"
    font-stretch="normal"
    units-per-em="1000"
    panose-1="0 0 10 0 0 0 0 0 0 0"
    ascent="800"
    descent="-200"
    x-height="573"
    cap-height="791"
    bbox="-162.115 -319 1487.79 1228"
    underline-thickness="0"
    underline-position="0"
    unicode-range="U+0020-1F603"
  />
<missing-glyph horiz-adv-x="455" 
d="M75 791h515q15 0 15 -16v-759q0 -16 -15 -16h-515q-15 0 -15 16v759q0 16 15 16zM321 629q-72 0 -120 -9q-13 -3 -13 -15v-45q0 -10 10 -10h123q49 0 66 -8.5t21 -41.5v-24q0 -23 -8.5 -36t-27.5 -23l-81 -39q-29 -17 -37 -30t-5 -38l4 -37q0 -6 7 -6h57q7 0 7 7l1 13
q1 12 7.5 19t27.5 17l67 32q40 19 55.5 44t15.5 75v37q0 75 -54 98q-45 20 -123 20zM288 218q-51 0 -51 -48q0 -47 51 -47q50 0 50 47q0 48 -50 48z" />
    <glyph glyph-name="f_f" unicode="ff" horiz-adv-x="858" 
d="M856 784q18 -3 18 -22v-120q0 -16 -18 -16h-101q-17 0 -23.5 -5.5t-6.5 -20.5v-30h115q9 0 11.5 -3t0.5 -13l-22 -118q-3 -16 -18 -16h-87v-404q0 -16 -15 -16h-168q-15 0 -15 16v404h-237v-404q0 -16 -15 -16h-168q-15 0 -15 16v404h-59q-18 0 -18 16v119q0 15 18 15h59
v62q0 97 50 130q49 34 152 34q62 0 127 -12q18 -3 18 -22v-120q0 -16 -18 -16h-101q-17 0 -23.5 -5.5t-6.5 -20.5v-30h237v62q0 97 50 130q49 34 152 34q63 0 127 -12z" />
    <glyph glyph-name="fi.001" unicode="fi" horiz-adv-x="741" 
d="M594 826q53 0 83 -27t30 -74q0 -48 -30 -75t-83 -27q-54 0 -84 27t-30 75q0 47 30 74t84 27zM294 796q34 0 95 -12q18 -3 18 -22v-120q0 -16 -18 -16h-69q-17 0 -23.5 -5.5t-6.5 -20.5v-30h387q15 0 15 -16v-538q0 -16 -15 -16h-168q-15 0 -15 16v404h-204v-404
q0 -16 -15 -16h-168q-15 0 -15 16v404h-59q-18 0 -18 16v119q0 15 18 15h59v62q0 97 50 130q49 34 152 34z" />
    <glyph glyph-name="fl" unicode="fl" horiz-adv-x="730" 
d="M666 780q15 -2 15 -16v-748q0 -16 -15 -16h-168q-15 0 -15 16v610h-163q-17 0 -23.5 -5.5t-6.5 -20.5v-30h102q9 0 11.5 -3t0.5 -13l-22 -118q-3 -16 -18 -16h-74v-404q0 -16 -15 -16h-168q-15 0 -15 16v404h-59q-18 0 -18 16v119q0 15 18 15h59v62q0 102 55 133t214 31
q136 0 305 -16z" />
    <glyph glyph-name="f_f_i" unicode="ffi" horiz-adv-x="1176" 
d="M1029 826q53 0 83 -27t30 -74q0 -48 -30 -75t-83 -27q-54 0 -84 27t-30 75q0 47 30 74t84 27zM729 796q43 0 107 -12q18 -3 18 -22v-120q0 -16 -18 -16h-81q-17 0 -23.5 -5.5t-6.5 -20.5v-30h387q15 0 15 -16v-538q0 -16 -15 -16h-168q-15 0 -15 16v404h-204v-404
q0 -16 -15 -16h-168q-15 0 -15 16v404h-237v-404q0 -16 -15 -16h-168q-15 0 -15 16v404h-59q-18 0 -18 16v119q0 15 18 15h59v62q0 97 50 130q49 34 152 34q45 0 109 -12q18 -3 18 -22v-120q0 -16 -18 -16h-83q-17 0 -23.5 -5.5t-6.5 -20.5v-30h237v62q0 97 50 130
q49 34 152 34z" />
    <glyph glyph-name="f_f_l" unicode="ffl" horiz-adv-x="1165" 
d="M1101 780q15 -2 15 -16v-748q0 -16 -15 -16h-168q-15 0 -15 16v610h-163q-17 0 -23.5 -5.5t-6.5 -20.5v-30h90q9 0 11.5 -3t0.5 -13l-22 -118q-3 -16 -18 -16h-62v-404q0 -16 -15 -16h-168q-15 0 -15 16v404h-237v-404q0 -16 -15 -16h-168q-15 0 -15 16v404h-59
q-18 0 -18 16v119q0 15 18 15h59v62q0 97 50 130q49 34 152 34q50 0 114 -12q18 -3 18 -22v-120q0 -16 -18 -16h-88q-17 0 -23.5 -5.5t-6.5 -20.5v-30h237v62q0 102 55 133t214 31q136 0 305 -16z" />
    <glyph glyph-name="f_b" unicode="fb" horiz-adv-x="1057" 
d="M795 578q131 0 180 -63q50 -62 50 -229q0 -172 -57 -232q-57 -59 -227 -59q-106 0 -232 22q-26 5 -26 33v576h-163q-17 0 -23.5 -5.5t-6.5 -20.5v-30h102q9 0 11.5 -3t0.5 -13l-22 -118q-3 -16 -18 -16h-74v-404q0 -16 -15 -16h-168q-15 0 -15 16v404h-59q-18 0 -18 16
v119q0 15 18 15h59v62q0 102 55 133t214 31q136 0 305 -16q15 -2 15 -15v-193q65 6 114 6zM746 165q55 0 68 25t13 96q0 79 -16 99q-16 22 -75 22h-55v-236q26 -6 65 -6z" />
    <glyph glyph-name="f_f_b" unicode="ffb" horiz-adv-x="1493" 
d="M1230 578q130 0 180 -63q50 -62 50 -229q0 -172 -57 -232q-57 -59 -227 -59q-106 0 -232 22q-26 5 -26 33v576h-163q-17 0 -23.5 -5.5t-6.5 -20.5v-30h102q9 0 11.5 -3t0.5 -13l-22 -118q-3 -16 -18 -16h-74v-404q0 -16 -15 -16h-168q-15 0 -15 16v404h-237v-404
q0 -16 -15 -16h-168q-15 0 -15 16v404h-59q-18 0 -18 16v119q0 15 18 15h59v62q0 97 50 130q49 34 152 34q62 0 127 -12q18 -3 18 -22v-120q0 -16 -18 -16h-101q-17 0 -23.5 -5.5t-6.5 -20.5v-30h237v62q0 102 55 133t214 31q136 0 305 -16q15 -2 15 -15v-193q64 6 114 6z
M1181 165q55 0 68 25t13 96q0 79 -16 99q-16 22 -75 22h-55v-236q26 -6 65 -6z" />
    <glyph glyph-name="f_f_j" unicode="ffj" horiz-adv-x="1181" 
d="M1034 826q53 0 83 -27t30 -74q0 -48 -30 -75t-83 -27q-54 0 -84 27t-30 75q0 47 30 74t84 27zM729 796q39 0 107 -12q18 -3 18 -22v-120q0 -16 -18 -16h-81q-17 0 -23.5 -5.5t-6.5 -20.5v-30h392q15 0 15 -16v-601q0 -99 -39 -131q-39 -33 -132 -33q-71 0 -108 12
q-18 6 -18 22v120q0 16 18 16h27q34 0 44 8.5t10 39.5v413h-209v-404q0 -16 -15 -16h-168q-15 0 -15 16v404h-237v-404q0 -16 -15 -16h-168q-15 0 -15 16v404h-59q-18 0 -18 16v119q0 15 18 15h59v62q0 97 50 130q49 34 152 34q40 0 107 -12q18 -3 18 -22v-120
q0 -16 -18 -16h-81q-17 0 -23.5 -5.5t-6.5 -20.5v-30h237v62q0 97 50 130q49 34 152 34z" />
    <glyph glyph-name="f_f_k" unicode="ffk" horiz-adv-x="1478" 
d="M1453 554l-145 -207l175 -320q15 -27 -17 -27h-178q-16 0 -22 11l-150 292v-287q0 -16 -15 -16h-168q-15 0 -15 16v610h-163q-17 0 -23.5 -5.5t-6.5 -20.5v-30h102q9 0 11.5 -3t0.5 -13l-22 -118q-3 -16 -18 -16h-74v-404q0 -16 -15 -16h-168q-15 0 -15 16v404h-237v-404
q0 -16 -15 -16h-168q-15 0 -15 16v404h-59q-18 0 -18 16v119q0 15 18 15h59v62q0 97 50 130q49 34 152 34q62 0 127 -12q18 -3 18 -22v-120q0 -16 -18 -16h-101q-17 0 -23.5 -5.5t-6.5 -20.5v-30h237v62q0 102 55 133t214 31q136 0 305 -16q15 -2 15 -16v-382l124 181
q7 10 21 10h183q22 0 9 -19z" />
    <glyph glyph-name="f_j" unicode="fj" horiz-adv-x="746" 
d="M599 826q53 0 83 -27t30 -74q0 -48 -30 -75t-83 -27q-54 0 -84 27t-30 75q0 47 30 74t84 27zM294 796q40 0 107 -12q18 -3 18 -22v-120q0 -16 -18 -16h-81q-17 0 -23.5 -5.5t-6.5 -20.5v-30h392q15 0 15 -16v-601q0 -99 -39 -131q-39 -33 -132 -33q-70 0 -108 12
q-18 6 -18 22v120q0 16 18 16h27q34 0 44 8.5t10 39.5v413h-209v-404q0 -16 -15 -16h-168q-15 0 -15 16v404h-59q-18 0 -18 16v119q0 15 18 15h59v62q0 97 50 130q49 34 152 34z" />
    <glyph glyph-name="f_k" unicode="fk" horiz-adv-x="1043" 
d="M1018 554l-145 -207l175 -320q15 -27 -17 -27h-178q-16 0 -22 11l-150 292v-287q0 -16 -15 -16h-168q-15 0 -15 16v610h-163q-17 0 -23.5 -5.5t-6.5 -20.5v-30h102q9 0 11.5 -3t0.5 -13l-22 -118q-3 -16 -18 -16h-74v-404q0 -16 -15 -16h-168q-15 0 -15 16v404h-59
q-18 0 -18 16v119q0 15 18 15h59v62q0 102 55 133t214 31q136 0 305 -16q15 -2 15 -16v-382l124 181q7 10 21 10h183q22 0 9 -19z" />
    <glyph glyph-name=".notdef" horiz-adv-x="455" 
d="M75 791h515q15 0 15 -16v-759q0 -16 -15 -16h-515q-15 0 -15 16v759q0 16 15 16zM321 629q-72 0 -120 -9q-13 -3 -13 -15v-45q0 -10 10 -10h123q49 0 66 -8.5t21 -41.5v-24q0 -23 -8.5 -36t-27.5 -23l-81 -39q-29 -17 -37 -30t-5 -38l4 -37q0 -6 7 -6h57q7 0 7 7l1 13
q1 12 7.5 19t27.5 17l67 32q40 19 55.5 44t15.5 75v37q0 75 -54 98q-45 20 -123 20zM288 218q-51 0 -51 -48q0 -47 51 -47q50 0 50 47q0 48 -50 48z" />
    <glyph glyph-name=".null" horiz-adv-x="0" 
 />
    <glyph glyph-name="nonmarkingreturn" horiz-adv-x="333" 
 />
    <glyph glyph-name="space" unicode=" " horiz-adv-x="186" 
 />
    <glyph glyph-name="exclam" unicode="!" horiz-adv-x="316" 
d="M63 791h190q15 0 15 -17v-321l-2 -18l-44 -169q-5 -17 -15 -17h-98q-10 0 -15 17l-44 169l-2 18v321q0 17 15 17zM158 198q53 0 83 -27t30 -74q0 -48 -30 -75t-83 -27q-54 0 -84 27t-30 75q0 47 30 74t84 27z" />
    <glyph glyph-name="quotedbl" unicode="&#x22;" horiz-adv-x="603" 
d="M48 791h190q15 0 15 -17v-138l-2 -18l-44 -169q-5 -17 -15 -17h-98q-10 0 -15 17l-44 169l-2 18v138q0 17 15 17zM365 791h190q15 0 15 -17v-138l-2 -18l-44 -169q-5 -17 -15 -17h-98q-10 0 -15 17l-44 169l-2 18v138q0 17 15 17z" />
    <glyph glyph-name="numbersign" unicode="#" horiz-adv-x="752" 
d="M696 441h-79v-95h79q16 0 16 -15v-150q0 -15 -16 -15h-79v-150q0 -16 -15 -16h-168q-15 0 -15 16v150h-97v-150q0 -16 -15 -16h-168q-15 0 -15 16v150h-66q-16 0 -16 15v150q0 15 16 15h66v95h-66q-16 0 -16 15v150q0 15 16 15h66v154q0 16 15 16h168q15 0 15 -16v-154
h97v154q0 16 15 16h168q15 0 15 -16v-154h79q16 0 16 -15v-150q0 -15 -16 -15zM322 346h97v95h-97v-95z" />
    <glyph glyph-name="dollar" unicode="$" horiz-adv-x="643" 
d="M297 500l159 -51q46 -15 70.5 -28t46.5 -35q44 -44 44 -142v-22q0 -168 -240 -187v-63q0 -16 -15 -16h-70q-15 0 -15 16v60q-90 3 -221 26q-22 4 -22 25v109q0 21 24 21h305q42 0 42 27v6q0 19 -19 27q-20 10 -49 19l-154 48q-73 23 -107 67q-35 47 -35 145v19
q0 90 56.5 135t179.5 52v62q0 16 15 16h70q15 0 15 -16v-61q81 -3 182 -23q22 -6 22 -20v-118q0 -20 -23 -20h-264q-24 0 -32.5 -7t-8.5 -25v-4q0 -28 44 -42z" />
    <glyph glyph-name="percent" unicode="%" horiz-adv-x="957" 
d="M419 588q0 -126 -40 -166q-39 -41 -158 -41q-117 0 -158 41q-39 40 -39 166t39 167q39 42 158 42t158 -42q40 -40 40 -167zM653 792h64q13 0 6 -15l-400 -762q-7 -15 -23 -15h-64q-14 0 -7 15l400 762q7 15 24 15zM221 676q-33 0 -44 -17.5t-11 -70.5q0 -52 11 -69
t44 -17q34 0 45 17t11 69q0 53 -11 70.5t-45 17.5zM933 202q0 -126 -40 -166q-39 -41 -158 -41q-117 0 -158 41q-39 40 -39 166t39 167q39 42 158 42t158 -42q40 -40 40 -167zM735 290q-33 0 -44 -17.5t-11 -70.5q0 -52 11 -69t44 -17q34 0 45 17t11 69q0 53 -11 70.5
t-45 17.5z" />
    <glyph glyph-name="ampersand" unicode="&#x26;" horiz-adv-x="691" 
d="M321 797q111 0 190 -21q16 -5 22.5 -12t6.5 -22v-112q0 -16 -15 -16h-174q-57 0 -77 -12t-20 -48v-12q0 -37 21.5 -51t75.5 -14h283q18 0 18 -15v-100q0 -12 -18 -16l-66 -17v-126q0 -29 11.5 -38.5t42.5 -9.5h28q18 0 18 -16v-110q0 -17 -18 -22q-44 -12 -88 -12
q-34 0 -45 1q-53 3 -77 31q-59 -32 -153 -32q-33 0 -64 4.5t-64.5 17t-58 33t-40.5 56t-16 81.5v69q0 121 112 140q-112 19 -112 140v69q0 90 54 137q72 55 223 55zM399 188v134h-64q-45 0 -63 -14t-18 -51v-19q0 -35 17 -47.5t64 -12.5q35 0 64 10z" />
    <glyph glyph-name="quotesingle" unicode="'" horiz-adv-x="286" 
d="M48 791h190q15 0 15 -17v-138l-2 -18l-44 -169q-5 -17 -15 -17h-98q-10 0 -15 17l-44 169l-2 18v138q0 17 15 17z" />
    <glyph glyph-name="parenleft" unicode="(" horiz-adv-x="381" 
d="M216 835h152q10 0 10 -10v-10q0 -9 -4 -13q-61 -92 -87 -137q-29 -54 -45 -107t-19 -97q-3 -40 -3 -125q0 -105 8 -164q8 -55 39 -122q30 -65 107 -180q4 -4 4 -13v-10q0 -10 -10 -10h-152q-10 0 -18 9q-61 83 -90 134q-34 58 -49 112q-17 59 -21 107q-4 44 -4 138
q0 164 28 249q29 88 136 240q6 9 18 9z" />
    <glyph glyph-name="parenright" unicode=")" horiz-adv-x="381" 
d="M13 835h152q12 0 18 -9q107 -152 136 -240q28 -85 28 -249q0 -94 -4 -138q-4 -48 -21 -107q-15 -54 -49 -112q-29 -51 -90 -134q-7 -9 -18 -9h-152q-10 0 -10 10v10q0 9 4 13q73 110 106 180t40 122q8 59 8 164q0 84 -3 125q-3 44 -19 97q-16 55 -46 107q-23 43 -86 137
q-4 4 -4 13v10q0 10 10 10z" />
    <glyph glyph-name="asterisk" unicode="*" horiz-adv-x="443" 
d="M176 811h90q15 0 15 -16l-10 -103l100 38q16 6 19 -9l25 -85q5 -14 -11 -19l-98 -26l67 -86q11 -11 -3 -21l-69 -47q-14 -9 -21 4l-57 86l-64 -90q-9 -13 -21 -3l-67 53q-12 9 -2 21l66 80l-101 30q-14 3 -10 19l28 84q5 15 19 9l98 -40l-8 105q-1 16 15 16z" />
    <glyph glyph-name="plus" unicode="+" horiz-adv-x="578" 
d="M212 562h155q15 0 15 -15v-148h155q15 0 15 -15v-143q0 -15 -15 -15h-155v-147q0 -15 -15 -15h-155q-15 0 -15 15v147h-156q-15 0 -15 15v143q0 15 15 15h156v148q0 15 15 15z" />
    <glyph glyph-name="comma" unicode="," horiz-adv-x="317" 
d="M68 133h208q10 0 10 -10v-31q0 -7 -5 -15l-220 -275q-6 -8 -15 -3l-65 36q-6 4 -3 14l79 275q3 9 11 9z" />
    <glyph glyph-name="hyphen" unicode="-" horiz-adv-x="473" 
d="M64 409h345q16 0 16 -15v-153q0 -15 -16 -15h-345q-16 0 -16 15v153q0 15 16 15z" />
    <glyph glyph-name="period" unicode="." horiz-adv-x="281" 
d="M141 198q53 0 83 -27t30 -74q0 -48 -30 -75t-83 -27q-54 0 -84 27t-30 75q0 47 30 74t84 27z" />
    <glyph glyph-name="slash" unicode="/" horiz-adv-x="528" 
d="M420 834h78q16 0 8 -17l-377 -851q-9 -17 -22 -17h-79q-16 0 -8 17l378 851q8 17 22 17z" />
    <glyph glyph-name="zero" unicode="0" horiz-adv-x="706" 
d="M668 394q0 -123 -14 -195.5t-49 -119.5t-93.5 -65.5t-158.5 -18.5t-158.5 18.5t-93.5 65.5t-49 119.5t-14 195.5q0 124 14 196.5t49 120.5t94 67t158 19t158 -19t94 -67t49 -120.5t14 -196.5zM248 394q0 -126 21 -171q23 -45 84 -45q62 0 83 45q22 44 22 171
q0 129 -22 174q-21 46 -83 46t-84 -46q-21 -46 -21 -174z" />
    <glyph glyph-name="one" unicode="1" horiz-adv-x="525" 
d="M376 633v-450h123q16 0 16 -15v-153q0 -15 -16 -15h-445q-16 0 -16 15l-1 153q0 15 16 15h125v396q0 29 -11.5 38.5t-42.5 9.5h-74q-18 0 -18 16v120q0 19 18 22q65 12 124 12q103 0 152 -34q50 -33 50 -130z" />
    <glyph glyph-name="two" unicode="2" horiz-adv-x="646" 
d="M295 797q128 0 207 -36q91 -39 91 -156v-109q0 -55 -15 -95q-16 -43 -98 -105l-132 -97q-9 -6 -9 -12v-3h265q8 0 8 -6v-172q0 -6 -7 -6h-553q-28 0 -28 28v90q0 38 18 79q4 10 28 34q20 20 32 30l49 39l191 150q24 19 32.5 37t8.5 51v8q0 40 -22 53q-23 15 -95 15h-201
q-15 0 -15 16v112q0 15 6.5 22t22.5 12q79 21 216 21z" />
    <glyph glyph-name="three" unicode="3" horiz-adv-x="645" 
d="M303 797q128 0 207 -36q91 -39 91 -156v-69q0 -121 -112 -140q112 -19 112 -140v-69q0 -115 -91 -157q-83 -35 -207 -35q-157 0 -237 21q-16 5 -22.5 12t-6.5 22v112q0 16 15 16h222q70 0 94 11q23 12 23 49v12q0 38 -24 51q-23 14 -93 14h-166q-15 0 -15 16v130
q0 16 15 16h166q71 0 93 13q24 14 24 52v12q0 37 -23 48q-22 12 -94 12h-222q-15 0 -15 16v112q0 15 6.5 22t22.5 12q80 21 237 21z" />
    <glyph glyph-name="four" unicode="4" horiz-adv-x="709" 
d="M164 791h179q15 0 11 -18l-109 -404h125v145q0 15 16 19l178 57q16 4 16 -15v-206h98q16 0 16 -15v-153q0 -15 -16 -15h-98v-170q0 -16 -15 -16h-180q-15 0 -15 16v170h-336q-15 0 -15 16v113q0 12 7 36l120 430q3 10 18 10z" />
    <glyph glyph-name="five" unicode="5" horiz-adv-x="644" 
d="M88 791h486q16 0 16 -15v-153q0 -15 -16 -15h-332l-10 -113q45 8 110 8q266 0 266 -192v-124q0 -115 -91 -157q-83 -35 -207 -35q-158 0 -237 21q-16 5 -22.5 12t-6.5 22v112q0 16 15 16h222q72 0 95 14q22 15 22 54v6q0 40 -22 53q-23 15 -95 15h-202q-20 0 -27.5 7
t-7.5 22v125l28 302q2 15 16 15z" />
    <glyph glyph-name="six" unicode="6" horiz-adv-x="652" 
d="M259 790h187q19 0 10 -18l-142 -285q32 4 63 4q121 0 188 -45.5t67 -134.5v-124q0 -115 -89 -157q-74 -35 -207 -35q-107 0 -179 21q-128 41 -128 171v124q0 46 16 82l196 387q6 10 18 10zM336 320q-64 0 -81 -14q-16 -13 -16 -54v-6q0 -41 16 -54q17 -14 81 -14
q61 0 75 16q8 11 9.5 19t1.5 33v6q0 25 -1.5 33.5t-9.5 17.5q-12 17 -75 17z" />
    <glyph glyph-name="seven" unicode="7" horiz-adv-x="636" 
d="M35 791h573q15 0 15 -15v-117q0 -12 -7 -23l-337 -626q-6 -10 -18 -10h-211q-19 0 -10 18l326 590h-331q-16 0 -16 14v154q0 15 16 15z" />
    <glyph glyph-name="eight" unicode="8" horiz-adv-x="690" 
d="M338 796h18q144 0 212.5 -53t68.5 -164q0 -68 -27 -113t-85 -75q70 -28 101.5 -70.5t31.5 -111.5q0 -109 -75 -161.5t-229 -52.5h-19q-304 0 -304 215q0 71 32.5 116.5t105.5 78.5q-62 29 -87.5 70t-25.5 105q0 110 69 163t213 53zM351 613h-8q-76 0 -76 -56
q0 -51 63 -70l50 -14q47 23 47 76q0 64 -76 64zM385 302l-74 22q-70 -22 -70 -71q0 -36 26.5 -55.5t72.5 -19.5h9q99 0 99 55q0 51 -63 69z" />
    <glyph glyph-name="nine" unicode="9" horiz-adv-x="652" 
d="M316 795q108 0 179 -22q128 -38 128 -170v-124q0 -46 -16 -82l-196 -387q-6 -10 -18 -10h-187q-19 0 -10 18l142 285q-32 -4 -63 -4q-121 0 -188 45.5t-67 134.5v124q0 115 89 157q74 35 207 35zM316 612q-63 0 -75 -17q-8 -9 -9.5 -17.5t-1.5 -33.5v-6q0 -25 1.5 -33
t9.5 -19q14 -16 75 -16q64 0 81 14q16 13 16 54v6q0 41 -16 54q-17 14 -81 14z" />
    <glyph glyph-name="colon" unicode=":" horiz-adv-x="310" 
d="M155 579q53 0 83 -27t30 -74q0 -48 -30 -75t-83 -27q-54 0 -84 27t-30 75q0 47 30 74t84 27zM155 198q53 0 83 -27t30 -74q0 -48 -30 -75t-83 -27q-54 0 -84 27t-30 75q0 47 30 74t84 27z" />
    <glyph glyph-name="semicolon" unicode=";" horiz-adv-x="337" 
d="M182 579q53 0 83 -27t30 -74q0 -48 -30 -75t-83 -27q-54 0 -84 27t-30 75q0 47 30 74t84 27zM68 133h208q10 0 10 -10v-31q0 -7 -5 -15l-220 -275q-6 -8 -15 -3l-65 36q-6 4 -3 14l79 275q3 9 11 9z" />
    <glyph glyph-name="less" unicode="&#x3c;" horiz-adv-x="604" 
d="M516 629h25q15 0 15 -15v-153q0 -12 -12 -18l-230 -90l230 -90q12 -6 12 -18v-153q0 -15 -15 -15h-25q-11 0 -19 4l-464 201q-11 5 -11 17v108q0 12 11 17l464 201q8 4 19 4z" />
    <glyph glyph-name="equal" unicode="=" horiz-adv-x="663" 
d="M65 540h533q15 0 15 -15v-150q0 -15 -15 -15h-533q-15 0 -15 15v150q0 15 15 15zM65 261h533q15 0 15 -15v-150q0 -15 -15 -15h-533q-15 0 -15 15v150q0 15 15 15z" />
    <glyph glyph-name="greater" unicode="&#x3e;" horiz-adv-x="604" 
d="M63 629h25q11 0 19 -4l464 -201q11 -5 11 -17v-108q0 -12 -11 -17l-464 -201q-8 -4 -19 -4h-25q-15 0 -15 15v153q0 12 12 18l230 90l-230 90q-12 6 -12 18v153q0 15 15 15z" />
    <glyph glyph-name="question" unicode="?" horiz-adv-x="573" 
d="M251 797q128 0 207 -36q91 -39 91 -156v-55q0 -80 -24 -117q-22 -37 -86 -66l-102 -49q-49 -22 -54 -46l-2 -9q-2 -14 -16 -14h-125q-13 0 -16 14l-8 45q-9 53 9 83t85 67l77 41q30 16 41 27.5t11 29.5v8q0 30 -18 40t-73 10h-208q-15 0 -15 16v112q0 15 6.5 22t22.5 12
q79 21 197 21zM202 198q53 0 83 -27t30 -74q0 -48 -30 -75t-83 -27q-54 0 -84 27t-30 75q0 47 30 74t84 27z" />
    <glyph glyph-name="at" unicode="@" horiz-adv-x="1008" 
d="M508 791q240 0 353.5 -101t113.5 -314q0 -153 -70 -227q-70 -75 -181 -79h-219q-52 0 -68 1q-74 2 -99 16q-64 35 -59 117v26q2 86 46 114q46 29 150 29h81v5q0 42 -51 42h-179q-12 0 -12 13v103q0 11 12 14q73 15 179 15q146 0 187 -47q20 -23 27 -47t7 -65v-281
q86 -1 136.5 64.5t50.5 186.5q0 183 -98.5 270t-306.5 87q-214 0 -314.5 -103.5t-100.5 -321.5q0 -214 94 -317t293 -105q10 0 10 -10v-39q0 -10 -10 -10q-230 2 -339 119t-109 362q0 248 115.5 365.5t360.5 117.5zM556 202v74h-63q-28 0 -38 -7t-10 -24v-11q0 -18 10 -25
t39 -7h62z" />
    <glyph glyph-name="A" unicode="A" horiz-adv-x="742" 
d="M564 675l180 -659q3 -16 -13 -16h-175q-6 0 -8.5 3t-5.5 13l-53 196h-236l-53 -196q-2 -10 -4.5 -13t-9.5 -3h-175q-16 0 -13 16l180 659q22 83 55 103q31 19 138 19q106 0 138 -20q33 -20 55 -102zM362 618l-63 -236h144l-65 236q-2 6 -8 6t-8 -6z" />
    <glyph glyph-name="B" unicode="B" horiz-adv-x="715" 
d="M376 797q161 0 226 -50t65 -169q0 -90 -30 -131t-105 -51v-3q84 -6 117 -46q34 -38 34 -133q0 -120 -65 -170q-64 -49 -226 -49q-163 0 -317 14q-15 1 -15 13v748q0 12 15 13q154 14 301 14zM353 614h-83v-146h83q56 0 78.5 17t22.5 56t-22.5 56t-78.5 17zM369 325h-99
v-147h99q56 0 78.5 16t22.5 56t-22.5 57.5t-78.5 17.5z" />
    <glyph glyph-name="C" unicode="C" horiz-adv-x="640" 
d="M374 797q128 0 207 -21q16 -5 22.5 -12t6.5 -22v-112q0 -16 -15 -16h-221q-76 0 -100 -45t-24 -172t24 -174q24 -45 100 -45h221q15 0 15 -16v-112q0 -27 -29 -34q-73 -21 -207 -21q-198 0 -268 84q-69 84 -69 318q0 123 15.5 196t53.5 119q39 47 101 66t167 19z" />
    <glyph glyph-name="D" unicode="D" horiz-adv-x="751" 
d="M379 797q183 0 259 -94q78 -95 78 -309q0 -212 -78 -306q-76 -93 -259 -93q-150 0 -304 14q-14 7 -15 11v750q0 12 15 13q154 14 304 14zM379 614h-109v-436h109q68 0 96 50t28 166q0 118 -28 169t-96 51z" />
    <glyph glyph-name="E" unicode="E" horiz-adv-x="665" 
d="M75 791h533q16 0 16 -15v-153q0 -15 -16 -15h-338v-126h311q16 0 16 -15v-143q0 -15 -16 -15h-311v-126h338q16 0 16 -15v-153q0 -15 -16 -15h-533q-15 0 -15 16v759q0 16 15 16z" />
    <glyph glyph-name="F" unicode="F" horiz-adv-x="614" 
d="M75 791h499q16 0 16 -15v-153q0 -15 -16 -15h-304v-127h277q16 0 16 -15v-143q0 -15 -16 -15h-277v-292q0 -16 -15 -16h-180q-15 0 -15 16v759q0 16 15 16z" />
    <glyph glyph-name="G" unicode="G" horiz-adv-x="705" 
d="M374 797q160 0 234 -21q16 -4 22.5 -11.5t6.5 -22.5v-112q0 -16 -15 -16h-248q-77 0 -101 -45q-23 -44 -23 -173q0 -126 24 -173q24 -45 100 -45h99v193q0 17 15 17h166q15 0 15 -17v-270q0 -19 -6 -30q-21 -31 -101 -54q-78 -22 -188 -22q-197 0 -268 83q-69 84 -69 318
q0 123 15.5 196.5t53.5 120.5q39 47 101 65.5t167 18.5z" />
    <glyph glyph-name="H" unicode="H" horiz-adv-x="799" 
d="M544 791h180q15 0 15 -17v-757q0 -17 -15 -17h-180q-15 0 -15 17v281h-259v-281q0 -17 -15 -17h-180q-15 0 -15 17v757q0 17 15 17h180q15 0 15 -17v-291h259v291q0 17 15 17z" />
    <glyph glyph-name="I" unicode="I" horiz-adv-x="330" 
d="M75 791h180q15 0 15 -17v-757q0 -17 -15 -17h-180q-15 0 -15 17v757q0 17 15 17z" />
    <glyph glyph-name="J" unicode="J" horiz-adv-x="602" 
d="M174 791h360q15 0 15 -15v-399q0 -222 -71 -302t-268 -80q-92 0 -169 20q-16 4 -22.5 10.5t-6.5 21.5v116q0 15 15 15h183q78 0 103 40q26 41 26 159v231h-164q-17 0 -17 15v153q0 15 16 15z" />
    <glyph glyph-name="K" unicode="K" horiz-adv-x="733" 
d="M502 791h198q21 0 9 -19l-225 -343l257 -402q17 -27 -17 -27h-200q-16 0 -22 11l-232 371v-366q0 -16 -15 -16h-180q-15 0 -15 16v759q0 16 15 16h180q15 0 15 -16v-321l211 327q7 10 21 10z" />
    <glyph glyph-name="L" unicode="L" horiz-adv-x="597" 
d="M75 791h180q15 0 15 -16v-592h295q16 0 16 -15v-153q0 -15 -16 -15h-490q-15 0 -15 16v759q0 16 15 16z" />
    <glyph glyph-name="M" unicode="M" horiz-adv-x="1018" 
d="M735 792h162q10 0 12 -17l79 -758q2 -17 -15 -17h-180q-13 0 -15 17l-42 397l-145 -373q-8 -17 -23 -17h-118q-15 0 -23 17l-144 373l-43 -397q-2 -17 -15 -17h-180q-17 0 -15 17l79 757q2 17 12 17h162q32 0 47 -8.5t24 -32.5l155 -410l155 411q9 24 24 32.5t47 8.5z
" />
    <glyph glyph-name="N" unicode="N" horiz-adv-x="798" 
d="M543 791h180q15 0 15 -17v-757q0 -17 -15 -17h-123q-41 0 -64 32l-266 372v-387q0 -17 -15 -17h-180q-15 0 -15 17v757q0 17 15 17h128q20 0 33 -5q12 -5 16.5 -9.5t17.5 -22.5l258 -360v380q0 17 15 17z" />
    <glyph glyph-name="O" unicode="O" horiz-adv-x="758" 
d="M721 395q-2 -122 -17 -195t-55 -120t-102.5 -65t-167.5 -20q-105 2 -167.5 20t-102.5 65t-55 120t-17 195q0 121 16.5 195.5t55.5 121.5t102 66t168 19t168 -19t102 -66t55.5 -121.5t16.5 -195.5zM250 395q0 -124 26 -171q25 -46 103 -46t103 46q26 47 26 171
q0 125 -26 172t-103 47t-103 -47t-26 -172z" />
    <glyph glyph-name="P" unicode="P" horiz-adv-x="700" 
d="M392 797q159 0 223 -61t64 -208q0 -145 -62 -198q-61 -52 -225 -52h-122v-262q0 -10 -3 -13t-12 -3h-180q-9 0 -12 3t-3 13v754q0 12 15 13q154 14 317 14zM369 614h-99v-182h99q56 0 76.5 19t20.5 70t-21.5 72t-75.5 21z" />
    <glyph glyph-name="Q" unicode="Q" horiz-adv-x="758" 
d="M721 395q0 -200 -52 -288q-52 -87 -188 -106l37 -125q4 -16 -15 -16h-158q-11 0 -15 16l-36 123q-147 15 -202 102q-55 88 -55 294q0 121 16.5 195.5t55.5 121.5t102 66t168 19t168 -19t102 -66t55.5 -121.5t16.5 -195.5zM508 395q0 125 -26 172t-103 47t-103 -47
t-26 -172q0 -124 26 -171q25 -46 103 -46t103 46q26 47 26 171z" />
    <glyph glyph-name="R" unicode="R" horiz-adv-x="722" 
d="M392 797q159 0 223 -61t64 -208q0 -109 -32.5 -163t-110.5 -74l170 -271q6 -8 2.5 -14t-14.5 -6h-184q-25 0 -40 22l-162 256h-38v-262q0 -10 -3 -13t-12 -3h-180q-9 0 -12 3t-3 13v754q0 12 15 13q154 14 317 14zM369 614h-99v-182h99q56 0 76.5 19t20.5 70t-21.5 72
t-75.5 21z" />
    <glyph glyph-name="S" unicode="S" horiz-adv-x="642" 
d="M337 797q113 0 222 -26q22 -7 22 -22v-113q0 -22 -23 -22h-248q-57 0 -57 -41v-11q0 -34 44 -51l159 -57q56 -21 88 -42q73 -48 73 -184v-24q0 -209 -311 -209q-109 0 -250 28q-22 4 -22 28v104q0 23 24 23h293q54 0 54 37v7q0 23 -14 34.5t-54 24.5l-154 53
q-49 17 -77 39q-65 53 -65 195v21q0 109 70 158.5t226 49.5z" />
    <glyph glyph-name="T" unicode="T" horiz-adv-x="659" 
d="M32 791h595q16 0 16 -15v-153q0 -15 -16 -15h-193v-592q0 -16 -15 -16h-180q-15 0 -15 16v592h-192q-16 0 -16 15v153q0 15 16 15z" />
    <glyph glyph-name="U" unicode="U" horiz-adv-x="774" 
d="M526 791h180q15 0 15 -15v-381q0 -189 -41 -279q-34 -68 -100 -93.5t-193 -27.5q-156 0 -233 48q-57 42 -78.5 121.5t-22.5 230.5v381q0 15 15 15h180q15 0 15 -15v-381q0 -131 25 -174t99 -43t99 43t25 174v381q0 15 15 15z" />
    <glyph glyph-name="V" unicode="V" horiz-adv-x="726" 
d="M18 791h175q6 0 8.5 -3t5.5 -13l147 -605q2 -7 8 -7t8 7l149 605l1.5 6t1.5 4.5t2.5 3.5t3.5 1.5t5 0.5h175q16 0 13 -16l-164 -658q-21 -83 -55 -102q-34 -20 -139 -20q-106 0 -140 19q-33 20 -53 103l-165 658q-3 16 13 16z" />
    <glyph glyph-name="W" unicode="W" horiz-adv-x="1108" 
d="M897 791h183q18 0 15 -17l-114 -657q-13 -80 -43 -102q-29 -20 -125 -20q-74 0 -109 8q-32 9 -48 32t-30 82l-72 306l-72 -306q-14 -60 -30 -82q-17 -23 -49 -32q-34 -8 -108 -8q-96 0 -125 20q-30 22 -43 102l-114 657q-3 17 15 17h183q12 0 15 -17l89 -547q2 -8 9 -8
t9 8l121 523q5 17 23 17h154q18 0 23 -17l121 -523q2 -8 9 -8t9 8l89 547q3 17 15 17z" />
    <glyph glyph-name="X" unicode="X" horiz-adv-x="757" 
d="M528 791h202q24 0 11 -22l-240 -358l262 -389q15 -22 -11 -22h-202q-17 0 -27 16l-144 238l-145 -238q-12 -16 -27 -16h-202q-26 0 -11 22l263 389l-240 358q-13 22 11 22h202q17 0 27 -16l122 -207l122 207q10 16 27 16z" />
    <glyph glyph-name="Y" unicode="Y" horiz-adv-x="765" 
d="M554 791h202q23 0 11 -22l-280 -503v-249q0 -17 -15 -17h-180q-15 0 -15 17v252l-279 500q-12 22 11 22h202q15 0 27 -16l144 -306l145 306q7 16 27 16z" />
    <glyph glyph-name="Z" unicode="Z" horiz-adv-x="715" 
d="M54 791h608q15 0 15 -16v-142q0 -13 -7 -20l-363 -430h363q16 0 16 -16v-151q0 -16 -16 -16h-627q-15 0 -15 16l-1 140q0 13 7 20l361 432h-340q-16 0 -16 15l-1 152q0 16 16 16z" />
    <glyph glyph-name="bracketleft" unicode="[" horiz-adv-x="454" 
d="M79 835h340q15 0 15 -15v-107q0 -15 -15 -15h-169v-724h169q15 0 15 -15v-107q0 -15 -15 -15h-340q-15 0 -15 15v968q0 15 15 15z" />
    <glyph glyph-name="backslash" unicode="\" horiz-adv-x="527" 
d="M29 834h77q16 0 22 -17l379 -851q8 -17 -8 -17h-79q-14 0 -22 17l-377 851q-8 17 8 17z" />
    <glyph glyph-name="bracketright" unicode="]" horiz-adv-x="454" 
d="M35 835h340q15 0 15 -15v-968q0 -15 -15 -15h-340q-15 0 -15 15v107q0 15 15 15h169v724h-169q-15 0 -15 15v107q0 15 15 15z" />
    <glyph glyph-name="asciicircum" unicode="^" horiz-adv-x="617" 
d="M227 753h165q12 0 17 -11l183 -367q8 -18 -11 -18h-167q-12 0 -17 11l-88 194l-90 -194q-5 -11 -17 -11h-166q-18 0 -11 18l185 367q5 11 17 11z" />
    <glyph glyph-name="underscore" unicode="_" horiz-adv-x="730" 
d="M15 -49h700q15 0 15 -15v-72q0 -15 -15 -15h-700q-15 0 -15 15v72q0 15 15 15z" />
    <glyph glyph-name="grave" unicode="`" horiz-adv-x="536" 
d="M130 824h199q9 0 12 -6l73 -139q5 -9 -3 -14l-65 -36q-9 -5 -14 0l-207 166q-5 5 -5 12v7q0 10 10 10z" />
    <glyph glyph-name="a" unicode="a" horiz-adv-x="591" 
d="M287 578q130 0 193 -35q27 -15 42 -41q23 -40 23 -111v-342q0 -29 -26 -33q-108 -21 -232 -21q-41 0 -79 2q-82 2 -117 23q-74 46 -69 159q1 108 60 142q51 31 170 31l95 1v5q0 50 -60 50h-210q-13 0 -13 15v121q0 13 13 16q89 18 210 18zM347 159v80h-74
q-33 0 -44.5 -10t-11.5 -35q0 -24 12 -33t45 -9q46 0 73 7z" />
    <glyph glyph-name="b" unicode="b" horiz-adv-x="624" 
d="M64 791h168q15 0 15 -16v-203q65 6 114 6q131 0 180 -63q50 -62 50 -229q0 -172 -57 -232q-57 -59 -227 -59q-106 0 -232 22q-26 5 -26 33v725q0 16 15 16zM302 407h-55v-236q26 -6 65 -6q55 0 68 25t13 96q0 79 -16 99q-16 22 -75 22z" />
    <glyph glyph-name="c" unicode="c" horiz-adv-x="532" 
d="M309 578q110 0 175 -18q18 -4 18 -22v-114q0 -16 -18 -16h-175q-47 0 -62 -24t-15 -97t15 -98q15 -24 62 -24h175q18 0 18 -16v-114q0 -17 -18 -22q-65 -18 -175 -18q-93 0 -143.5 12.5t-80.5 46.5q-30 35 -41 88q-10 50 -10 145q0 96 10.5 147t40.5 85t80.5 46.5
t143.5 12.5z" />
    <glyph glyph-name="d" unicode="d" horiz-adv-x="624" 
d="M392 791h168q15 0 15 -16v-725q0 -28 -26 -33q-126 -22 -232 -22q-170 0 -227 59q-57 60 -57 232q0 168 49 229q50 63 181 63q49 0 114 -6v203q0 16 15 16zM377 171v236h-55q-59 0 -75 -22q-16 -20 -16 -99q0 -71 13 -96t68 -25q40 0 65 6z" />
    <glyph glyph-name="e" unicode="e" horiz-adv-x="599" 
d="M306 578q162 0 214 -58q54 -58 54 -234v-32q0 -27 -28 -27h-310q0 -41 18 -52q19 -10 76 -10h190q15 0 15 -15v-120q0 -14 -14 -17q-73 -18 -215 -18q-163 0 -218 58t-55 233t55 233q56 59 218 59zM306 408q-72 0 -72 -67h141q0 36 -16.5 51.5t-52.5 15.5z" />
    <glyph glyph-name="f" unicode="f" horiz-adv-x="423" 
d="M294 796q62 0 127 -12q18 -3 18 -22v-120q0 -16 -18 -16h-101q-17 0 -23.5 -5.5t-6.5 -20.5v-30h115q9 0 11.5 -3t0.5 -13l-22 -118q-3 -16 -18 -16h-87v-404q0 -16 -15 -16h-168q-15 0 -15 16v404h-59q-18 0 -18 16v119q0 15 18 15h59v62q0 97 50 130q49 34 152 34z" />
    <glyph glyph-name="g" unicode="g" 
d="M320 578q106 0 232 -22q26 -5 26 -33v-547q0 -71 -23 -111q-21 -37 -76 -55.5t-159 -20.5q-136 0 -224 18q-13 3 -13 16v108q0 15 13 15h201q48 0 65.5 12t17.5 44v7q-62 -14 -114 -14q-132 0 -183 65q-50 65 -50 241q0 162 58 219q58 58 229 58zM380 172v236h-72
q-50 0 -64 -26q-13 -25 -13 -95q0 -76 17 -99q18 -22 77 -22q33 0 55 6z" />
    <glyph glyph-name="h" unicode="h" 
d="M64 791h168q15 0 15 -16v-202q47 5 85 5q152 0 201 -49q49 -48 49 -197v-316q0 -16 -15 -16h-169q-14 0 -14 16v249q0 45 -1 57q0 52 -11 65q-8 13 -25 17t-53 4h-46v-392q0 -16 -15 -16h-170q-14 0 -14 16v759q0 16 15 16z" />
    <glyph glyph-name="i" unicode="i" horiz-adv-x="296" 
d="M149 826q53 0 83 -27t30 -74q0 -48 -30 -75t-83 -27q-54 0 -84 27t-30 75q0 47 30 74t84 27zM64 573h168q15 0 15 -16v-541q0 -16 -15 -16h-168q-15 0 -15 16v541q0 16 15 16z" />
    <glyph glyph-name="j" unicode="j" horiz-adv-x="304" 
d="M157 826q53 0 83 -27t30 -74q0 -48 -30 -75t-83 -27q-54 0 -84 27t-30 75q0 47 30 74t84 27zM72 573h168q15 0 15 -16v-604q0 -99 -39 -131q-39 -33 -132 -33q-70 0 -108 12q-18 6 -18 22v120q0 16 18 16h27q34 0 44 8.5t10 39.5v550q0 16 15 16z" />
    <glyph glyph-name="k" unicode="k" horiz-adv-x="609" 
d="M64 791h168q15 0 15 -16v-393l124 181q7 10 21 10h183q22 0 9 -19l-145 -207l175 -320q15 -27 -17 -27h-178q-16 0 -22 11l-150 292v-287q0 -16 -15 -16h-168q-15 0 -15 16v759q0 16 15 16z" />
    <glyph glyph-name="l" unicode="l" horiz-adv-x="296" 
d="M64 791h168q15 0 15 -16v-759q0 -16 -15 -16h-168q-15 0 -15 16v759q0 16 15 16z" />
    <glyph glyph-name="m" unicode="m" horiz-adv-x="900" 
d="M654 578q105 0 153 -47t48 -149v-366q0 -16 -14 -16h-170q-14 0 -14 16v249q0 103 -10 122q-9 21 -58 21q-28 0 -47 -4q9 -32 9 -72v-316q0 -16 -14 -16h-170q-14 0 -14 16v310q-1 56 -12 69q-10 13 -56 13h-38v-392q0 -16 -15 -16h-168q-14 0 -15 16v528q0 13 13 16
q73 18 214 18q125 0 192 -34q84 34 186 34z" />
    <glyph glyph-name="n" unicode="n" 
d="M332 578q152 0 201 -49q49 -48 49 -197v-316q0 -16 -15 -16h-169q-14 0 -14 16v249q0 45 -1 57q0 52 -11 65q-8 13 -25 17t-53 4h-46v-392q0 -16 -15 -16h-170q-14 0 -14 16v528q0 6 2 9.5t4 4.5t8 2q74 18 269 18z" />
    <glyph glyph-name="o" unicode="o" horiz-adv-x="619" 
d="M586 286q0 -174 -56 -233q-55 -58 -221 -58t-221 58t-55 233t55 233q56 59 221 59q166 0 221 -58q56 -59 56 -234zM309 408q-45 0 -62 -24q-15 -24 -15 -98q0 -73 15 -97q17 -24 62 -24q47 0 62 24q16 23 16 97q0 75 -16 98q-15 24 -62 24z" />
    <glyph glyph-name="p" unicode="p" 
d="M307 578q170 0 228 -58q59 -57 59 -219q0 -177 -51 -241q-50 -65 -182 -65q-61 0 -114 6v-190q0 -16 -15 -16h-168q-15 0 -15 16v712q0 28 26 33q126 22 232 22zM319 408h-72v-238q21 -4 55 -4q60 0 76 22q18 22 18 99q0 49 -6 77q-7 44 -71 44z" />
    <glyph glyph-name="q" unicode="q" 
d="M320 578q106 0 232 -22q26 -5 26 -33v-712q0 -16 -15 -16h-168q-15 0 -15 16v190q-52 -6 -114 -6q-132 0 -183 65q-50 65 -50 241q0 162 58 219q58 58 229 58zM380 170v238h-72q-52 0 -65 -25q-12 -25 -12 -96q0 -76 17 -99q18 -22 77 -22q34 0 55 4z" />
    <glyph glyph-name="r" unicode="r" horiz-adv-x="429" 
d="M249 578q88 0 152 -12q18 -3 18 -22v-120q0 -16 -18 -16h-102q-31 0 -42.5 -9.5t-11.5 -38.5v-344q0 -16 -15 -16h-168q-15 0 -15 16v398q0 97 50 130q49 34 152 34z" />
    <glyph glyph-name="s" unicode="s" horiz-adv-x="523" 
d="M291 578q87 0 164 -18q17 -5 17 -16v-107q0 -16 -18 -16h-177q-44 0 -44 -21v-7q0 -14 34 -24l123 -38q109 -34 109 -159v-19q0 -81 -59 -119.5t-163 -38.5q-137 0 -231 10q-10 0 -13.5 3t-3.5 12v117q0 16 18 16h225q20 0 27 3.5t7 12.5v5q0 14 -52 30l-106 33
q-108 35 -108 161v17q0 82 60.5 122.5t190.5 40.5z" />
    <glyph glyph-name="t" unicode="t" horiz-adv-x="412" 
d="M106 686l168 44q7 2 11 -2t4 -14v-146h80q18 0 18 -15v-112q0 -16 -18 -16h-80v-212q0 -29 11.5 -38.5t42.5 -9.5h35q18 0 18 -16v-120q0 -19 -18 -22q-64 -12 -112 -12q-65 0 -104 10q-36 11 -52 41t-19 93v286h-60q-18 0 -18 16v112q0 15 18 15h60v102q0 8 2.5 10.5
t12.5 5.5z" />
    <glyph glyph-name="u" unicode="u" 
d="M394 573h170q14 0 14 -16v-526q0 -9 -2.5 -12.5t-11.5 -5.5q-95 -18 -269 -18q-151 0 -201 48q-49 49 -49 198v316q0 16 16 16h168q14 0 14 -16v-249v-58q2 -49 11 -65q22 -24 79 -20h46v392q0 16 15 16z" />
    <glyph glyph-name="v" unicode="v" horiz-adv-x="624" 
d="M425 573h178q16 0 13 -16l-114 -440q-21 -83 -53 -103q-31 -19 -137 -19q-105 0 -136 19q-30 19 -53 103l-116 440q-3 16 13 16h178q6 0 8.5 -3t5.5 -13l91 -402q1 -4 8 -4t8 4l92 402q1 5 2 7.5t2.5 5t3.5 3t6 0.5z" />
    <glyph glyph-name="w" unicode="w" horiz-adv-x="928" 
d="M723 573h179q13 0 12 -13l-84 -477q-10 -55 -42 -72q-31 -16 -115 -16q-105 0 -135 14q-28 13 -40 74l-34 166l-34 -166q-12 -60 -41 -74q-30 -14 -134 -14q-84 0 -115 16q-32 17 -42 72l-84 477q-1 13 12 13h179q9 0 10 -13l56 -404q1 -2 7 -2t6 2l89 387q3 12 17 12
h148q14 0 17 -12l89 -387q0 -2 6 -2t7 2l56 404q1 13 10 13z" />
    <glyph glyph-name="x" unicode="x" horiz-adv-x="623" 
d="M399 573h202q10 0 12.5 -5.5t-4.5 -13.5l-173 -257l187 -278q6 -7 3 -13t-12 -6h-203q-10 0 -17 10l-83 134l-83 -134q-7 -10 -17 -10h-202q-9 0 -12 6t3 13l187 277l-174 258q-7 8 -4.5 13.5t12.5 5.5h203q12 0 19 -10l69 -113l68 113q7 10 19 10z" />
    <glyph glyph-name="y" unicode="y" horiz-adv-x="647" 
d="M414 573h168q15 0 15 -15v-582q0 -71 -23 -111q-21 -37 -76 -55.5t-159 -20.5q-136 0 -224 18q-13 3 -13 16v108q0 15 13 15h201q48 0 65.5 12t17.5 44v7q-62 -14 -114 -14q-127 0 -184 59t-57 184v320q0 15 15 15h168q15 0 15 -15v-271q0 -75 20 -98q21 -23 82 -23
q32 0 55 6v386q0 15 15 15z" />
    <glyph glyph-name="z" unicode="z" horiz-adv-x="562" 
d="M55 573h447q18 0 18 -16v-110q0 -8 -8 -19l-199 -258h205q18 0 18 -16v-138q0 -16 -18 -16h-473q-18 0 -18 16v102q0 12 7 19l218 271h-197q-18 0 -18 16v133q0 16 18 16z" />
    <glyph glyph-name="braceleft" unicode="{" horiz-adv-x="388" 
d="M230 840q66 0 114 -15q12 -4 15.5 -9t3.5 -19v-98q0 -15 -15 -15h-37q-28 0 -39.5 -10.5t-8.5 -34.5l25 -201q3 -26 -2.5 -38.5t-23.5 -20.5l-77 -39v-8l77 -39q18 -8 23.5 -20.5t2.5 -38.5l-25 -201q-3 -24 8.5 -34.5t39.5 -10.5h37q15 0 15 -15v-98q0 -14 -3.5 -19
t-15.5 -9q-48 -15 -114 -15q-84 0 -123 29.5t-33 94.5l28 276q2 10 -9 18l-78 51q-8 5 -8 18v34q0 13 8 18l78 51q11 8 9 18l-28 276q-6 65 33 94.5t123 29.5z" />
    <glyph glyph-name="bar" unicode="|" horiz-adv-x="326" 
d="M79 829h168q15 0 15 -16v-909q0 -16 -15 -16h-168q-15 0 -15 16v909q0 16 15 16z" />
    <glyph glyph-name="braceright" unicode="}" horiz-adv-x="388" 
d="M158 840q84 0 123 -29.5t33 -94.5l-28 -276q-2 -10 9 -18l78 -51q8 -5 8 -18v-34q0 -13 -8 -18l-78 -51q-11 -8 -9 -18l28 -276q6 -65 -33 -94.5t-123 -29.5q-66 0 -114 15q-12 4 -15.5 9t-3.5 19v98q0 15 15 15h37q28 0 39.5 10.5t8.5 34.5l-25 201q-3 26 2.5 38.5
t23.5 20.5l77 39v8l-77 39q-18 8 -23.5 20.5t-2.5 38.5l25 201q3 24 -8.5 34.5t-39.5 10.5h-37q-15 0 -15 15v98q0 14 3.5 19t15.5 9q48 15 114 15z" />
    <glyph glyph-name="asciitilde" unicode="~" horiz-adv-x="655" 
d="M223 447q48 0 115 -32t89 -32q51 0 83 50q7 10 21 1l95 -61q9 -5 3 -19q-26 -67 -78 -103.5t-120 -36.5q-48 0 -114.5 32t-88.5 32q-51 0 -83 -50q-7 -10 -18 -3l-96 62q-11 6 -5 20q26 68 78 104t119 36z" />
    <glyph glyph-name="Adieresis" unicode="&#xa1;" horiz-adv-x="308" 
d="M154 578q53 0 83 -27t30 -75q0 -47 -30 -74t-83 -27q-54 0 -84 27t-30 74q0 48 30 75t84 27zM105 337h98q10 0 15 -17l44 -169q2 -10 2 -18v-321q0 -17 -15 -17h-190q-15 0 -15 17v321q0 8 2 18l44 169q5 17 15 17z" />
    <glyph glyph-name="Aring" unicode="&#xa2;" horiz-adv-x="541" 
d="M484 408h-175q-47 0 -62 -24t-15 -97t15 -98q15 -24 62 -24h175q18 0 18 -16v-114q0 -17 -18 -22q-65 -18 -175 -18h-17l-14 -82q-3 -16 -18 -16h-70q-15 0 -12 16l15 90q-96 17 -127 77q-32 62 -32 207q0 90 9.5 140t34.5 84q26 35 70.5 49.5t122.5 16.5l14 83
q3 16 18 16h70q15 0 12 -16l-14 -84q69 -5 113 -16q18 -4 18 -22v-114q0 -16 -18 -16z" />
    <glyph glyph-name="Ccedilla" unicode="&#xa3;" horiz-adv-x="676" 
d="M431 797q87 0 167 -21q16 -5 22.5 -12t6.5 -22v-112q0 -16 -15 -16h-152q-72 0 -95 -15q-22 -13 -22 -53v-120h190q16 0 16 -15v-78q0 -15 -16 -15h-190v-135h281q16 0 16 -15v-153q0 -15 -16 -15h-588q-16 0 -14 15l27 153q3 15 19 15h65v135h-61q-16 0 -16 15v78
q0 15 16 15h61v179q0 117 91 156q79 36 207 36z" />
    <glyph glyph-name="Eacute" unicode="&#xa4;" horiz-adv-x="644" 
d="M40 545l50 49q11 11 22 0l53 -53q63 30 156 30t156 -30l53 53q11 11 22 0l50 -49q10 -11 -1 -22l-47 -47q39 -58 39 -150t-39 -150l47 -47q11 -11 1 -22l-50 -49q-11 -11 -22 0l-53 53q-63 -30 -156 -30t-156 30l-53 -53q-11 -11 -22 0l-50 49q-10 11 1 22l47 47
q-39 58 -39 150t39 150l-47 47q-11 11 -1 22zM420 326q0 101 -99 101t-99 -101t99 -101t99 101z" />
    <glyph glyph-name="Ntilde" unicode="&#xa5;" horiz-adv-x="809" 
d="M576 791h202q23 0 11 -22l-254 -431h129q16 0 16 -15v-43q0 -15 -16 -15h-155v-75h155q16 0 16 -15v-43q0 -15 -16 -15h-155v-100q0 -17 -15 -17h-180q-15 0 -15 17v100h-154q-16 0 -16 15v43q0 15 16 15h154v75h-154q-16 0 -16 15v43q0 15 16 15h130l-255 431
q-12 22 11 22h202q15 0 27 -16l144 -278l145 278q9 16 27 16z" />
    <glyph glyph-name="Odieresis" unicode="&#xa6;" horiz-adv-x="324" 
d="M78 829h168q15 0 15 -16v-348q0 -10 -10 -10h-178q-10 0 -10 10v348q0 16 15 16zM73 270h178q10 0 10 -10v-356q0 -16 -15 -16h-168q-15 0 -15 16v356q0 10 10 10z" />
    <glyph glyph-name="Udieresis" unicode="&#xa7;" horiz-adv-x="485" 
d="M249 787q73 0 124 -13q8 -1 8.5 -1.5t0.5 -4.5v-102q0 -4 -1 -5t-7 -1h-147q-26 0 -37 -10.5t-11 -36.5v-44l169 -60q61 -22 81 -53t20 -99v-294q0 -93 -42 -123t-171 -30q-73 0 -124 13q-8 1 -8.5 1.5t-0.5 4.5v102q0 5 1 5.5t7 0.5h147q26 0 37 10.5t11 36.5v40
l-169 60q-61 22 -81 53t-20 99v298q0 93 42 123t171 30zM265 402l-86 32v-94q0 -22 9 -33.5t32 -19.5l86 -30v92q0 23 -8.5 34t-32.5 19z" />
    <glyph glyph-name="aacute" unicode="&#xa8;" horiz-adv-x="679" 
d="M305 725q0 -41 -23.5 -63.5t-68.5 -22.5t-69 22.5t-24 63.5q0 40 24 62.5t69 22.5t68.5 -22.5t23.5 -62.5zM559 725q0 -41 -23.5 -63.5t-68.5 -22.5t-69 22.5t-24 63.5q0 40 24 62.5t69 22.5t68.5 -22.5t23.5 -62.5z" />
    <glyph glyph-name="agrave" unicode="&#xa9;" horiz-adv-x="828" 
d="M702 85q-92 -93 -288 -93t-288 93q-92 94 -92 290t92 290q92 93 288 93t288 -93q92 -94 92 -290t-92 -290zM173 132q77 -77 241 -77t241 77q77 79 77 243q0 165 -77 242q-77 78 -241 78t-241 -78q-77 -77 -77 -242q0 -164 77 -243zM414 575q74 0 108 -10q15 -3 15 -18
v-49q0 -14 -13 -14h-110q-44 0 -54 -21q-11 -20 -11 -89q0 -68 11 -90q11 -20 54 -20h110q13 0 13 -13v-49q0 -14 -15 -19q-40 -10 -108 -10q-100 0 -135 41q-35 43 -35 160q0 118 35 159q35 42 135 42z" />
    <glyph glyph-name="acircumflex" unicode="&#xaa;" horiz-adv-x="369" 
d="M177 797q80 0 112 -23t32 -70v-208q0 -16 -12 -22q-36 -18 -150 -18q-69 0 -96.5 18t-27.5 75v14q0 53 28.5 73.5t89.5 20.5h80v29q0 13 -2.5 19t-15 11t-38.5 5h-107q-9 0 -11.5 2.5t-2.5 10.5v37q0 13 13 16q44 10 108 10zM233 536v51h-59q-51 0 -51 -26v-5
q0 -26 44 -26q37 0 66 6zM76 397h222q15 0 15 -15v-29q0 -15 -15 -15h-222q-15 0 -15 15v29q0 15 15 15z" />
    <glyph glyph-name="adieresis" unicode="&#xab;" horiz-adv-x="666" 
d="M161 494h167q15 0 15 -15v-7q0 -11 -7 -18l-138 -173l138 -173q7 -7 7 -18v-7q0 -15 -15 -15h-167q-11 0 -18 9l-106 139q-11 14 -11 31v68q0 17 11 31l106 139q7 9 18 9zM452 494h167q15 0 15 -15v-7q0 -11 -7 -18l-138 -173l138 -173q7 -7 7 -18v-7q0 -15 -15 -15h-167
q-10 0 -18 9l-106 139q-11 14 -11 31v68q0 17 11 31l106 139q8 9 18 9z" />
    <glyph glyph-name="atilde" unicode="&#xac;" horiz-adv-x="631" 
d="M51 503h514q15 0 15 -15l-1 -310q0 -15 -15 -15h-163q-15 0 -15 15v128h-335q-15 0 -15 15v167q0 15 15 15z" />
    <glyph glyph-name="aring" unicode="&#xae;" horiz-adv-x="828" 
d="M702 85q-92 -93 -288 -93t-288 93q-92 94 -92 290t92 290q92 93 288 93t288 -93q92 -94 92 -290t-92 -290zM173 132q77 -77 241 -77t241 77q77 79 77 243q0 165 -77 242q-77 78 -241 78t-241 -78q-77 -77 -77 -242q0 -164 77 -243zM439 578q80 0 112 -31t32 -104
q0 -55 -16.5 -82.5t-54.5 -36.5l78 -127q6 -7 3 -12.5t-14 -5.5h-70q-24 0 -38 20l-76 120l-20 -1v-125q0 -9 -2.5 -11.5t-11.5 -2.5h-78q-8 0 -10.5 2.5t-2.5 11.5v365q0 8 2 10t11 3q69 7 156 7zM428 487h-53v-84h53q34 0 42 6t8 32q0 27 -9.5 36.5t-40.5 9.5z" />
    <glyph glyph-name="ccedilla" unicode="&#xaf;" horiz-adv-x="590" 
d="M135 771h320q15 0 15 -15v-80q0 -15 -15 -15h-320q-15 0 -15 15v80q0 15 15 15z" />
    <glyph glyph-name="eacute" unicode="&#xb0;" horiz-adv-x="346" 
d="M322 654q0 -70 -38 -106.5t-111 -36.5t-111 36.5t-38 106.5q0 143 149 143t149 -143zM232 654q0 59 -59 59t-59 -59t59 -59t59 59z" />
    <glyph glyph-name="egrave" unicode="&#xb1;" horiz-adv-x="622" 
d="M238 630h147q15 0 15 -15v-113h154q15 0 15 -15v-109q0 -15 -15 -15h-154v-114q0 -15 -15 -15h-147q-15 0 -15 15v114h-155q-15 0 -15 15v109q0 15 15 15h155v113q0 15 15 15zM63 179h496q15 0 15 -15v-105q0 -15 -15 -15h-496q-15 0 -15 15v105q0 15 15 15z" />
    <glyph glyph-name="ecircumflex" unicode="&#xb2;" horiz-adv-x="360" 
d="M184 947q64 0 98 -14q44 -17 44 -75v-54q0 -70 -49 -92l-116 -56q-22 -10 -28 -16.5t-6 -20.5v-7h192q7 0 7 -6v-70q0 -6 -6 -6h-284q-14 0 -14 15v55q0 43 18.5 69.5t67.5 53.5l101 51q23 11 23 38v28q0 15 -8 20.5t-30 5.5h-131q-8 0 -8 8v52q0 8 6 10q64 11 123 11z
" />
    <glyph glyph-name="edieresis" unicode="&#xb3;" horiz-adv-x="338" 
d="M160 947q86 0 114 -24q30 -24 30 -94v-2q0 -73 -48 -89q48 -10 48 -87v-6q0 -70 -30 -94q-28 -24 -114 -24q-57 0 -121 11q-8 2 -8 10v51q0 9 13 9h63q70 0 85 7q18 7 18 33v11q0 11 -2 18t-15.5 15t-39.5 8h-89q-10 0 -10 10v55q0 4 0.5 5.5t2.5 2.5t7 1h88q37 0 47.5 9
t10.5 35v8q0 24 -18 32t-85 8h-63q-13 0 -13 9v51q0 8 8 10q64 11 121 11z" />
    <glyph glyph-name="iacute" unicode="&#xb4;" horiz-adv-x="536" 
d="M207 824h199q10 0 10 -10v-7q0 -7 -5 -12l-207 -166q-5 -5 -14 0l-65 36q-8 5 -3 14l73 139q3 6 12 6z" />
    <glyph glyph-name="igrave" unicode="&#xb5;" horiz-adv-x="631" 
d="M398 573h170q14 0 14 -16v-526q0 -9 -2.5 -12.5t-11.5 -5.5q-94 -18 -269 -18q-41 0 -52 1v-137q0 -16 -15 -16h-168q-15 0 -15 16v698q0 16 16 16h168q14 0 14 -16v-249v-58q2 -49 11 -65q22 -24 79 -20h46v392q0 16 15 16z" />
    <glyph glyph-name="icircumflex" unicode="&#xb6;" horiz-adv-x="685" 
d="M311 797q155 0 226 -51q36 -25 56 -75q35 -91 35 -274v-397h-125v471q0 119 -41 160q-40 42 -124 42v-405h-15q-109 0 -172 17q-62 15 -92.5 56.5t-33.5 119.5v129q0 124 80 168q71 39 206 39z" />
    <glyph glyph-name="idieresis" unicode="&#xb7;" horiz-adv-x="289" 
d="M145 388q53 0 83 -27t30 -74q0 -48 -30 -75t-83 -27q-54 0 -84 27t-30 75q0 47 30 74t84 27z" />
    <glyph glyph-name="ntilde" unicode="&#xb8;" horiz-adv-x="468" 
d="M239 28h65q14 0 18 -12q26 -72 26 -124q0 -79 -118 -79q-77 0 -98 8q-12 5 -12 18v86q0 13 13 13h35q49 0 57 8q6 4 6 14q0 19 -5 52q-3 16 13 16z" />
    <glyph glyph-name="oacute" unicode="&#xb9;" horiz-adv-x="302" 
d="M210 868v-256h65q14 0 14 -14v-55q0 -13 -14 -13h-230q-14 0 -14 13v55q0 14 14 14h72v221q0 20 -9 27t-39 7h-28q-15 0 -15 13v42q0 9 13 16q16 9 56 9q22 0 38 -2t36 -9.5t30.5 -24.5t10.5 -43z" />
    <glyph glyph-name="ograve" unicode="&#xba;" horiz-adv-x="382" 
d="M67 764q28 33 124 33q95 0 123 -33q29 -34 29 -138q0 -106 -28 -138q-29 -32 -124 -32t-124 32q-28 32 -28 138t28 138zM191 721q-44 0 -55 -17q-9 -16 -9 -78q0 -60 9 -77q9 -16 55 -16t55 15q9 16 9 78t-9 79q-9 16 -55 16zM80 397h222q15 0 15 -15v-29q0 -15 -15 -15
h-222q-15 0 -15 15v29q0 15 15 15z" />
    <glyph glyph-name="ocircumflex" unicode="&#xbb;" horiz-adv-x="666" 
d="M47 494h167q10 0 18 -9l106 -139q11 -14 11 -31v-68q0 -17 -11 -31l-106 -139q-8 -9 -18 -9h-167q-15 0 -15 15v7q0 11 7 18l138 173l-138 173q-7 7 -7 18v7q0 15 15 15zM338 494h167q11 0 18 -9l106 -139q11 -14 11 -31v-68q0 -17 -11 -31l-106 -139q-7 -9 -18 -9h-167
q-15 0 -15 15v7q0 11 7 18l138 173l-138 173q-7 7 -7 18v7q0 15 15 15z" />
    <glyph glyph-name="odieresis" unicode="&#xbc;" horiz-adv-x="919" 
d="M612 834h47q16 0 8 -17l-377 -851q-8 -17 -22 -17h-48q-16 0 -8 17l378 851q8 17 22 17zM293 444v-55q0 -13 -14 -13h-230q-14 0 -14 13v55q0 14 14 14h72v221q0 20 -9 27t-39 7h-28q-15 0 -15 13v42q0 9 13 16q17 9 56 9q22 0 38 -2t36 -9.5t30.5 -24.5t10.5 -43v-256
h65q14 0 14 -14zM824 306v-135h61q15 0 15 -13v-56q0 -13 -15 -13h-61v-75q0 -14 -13 -14h-68q-13 0 -13 14v75h-179q-13 0 -13 14v29q0 8 4 21l66 253q4 9 17 9h67q13 0 9 -16l-60 -228h89v101q0 12 9 17l68 26q17 8 17 -9z" />
    <glyph glyph-name="otilde" unicode="&#xbd;" horiz-adv-x="887" 
d="M609 834h47q16 0 8 -17l-377 -851q-9 -17 -22 -17h-48q-17 0 -8 17l378 851q8 17 22 17zM287 444v-55q0 -13 -14 -13h-230q-14 0 -14 13v55q0 14 14 14h72v221q0 20 -9 27t-39 7h-28q-15 0 -15 13v42q0 9 13 16q16 9 56 9q22 0 38 -2t36 -9.5t30.5 -24.5t10.5 -43v-256
h65q14 0 14 -14zM811 182l-116 -56q-22 -10 -28 -16.5t-6 -20.5v-7h192q7 0 7 -6v-70q0 -6 -6 -6h-284q-14 0 -14 15v55q0 43 18.5 69.5t67.5 53.5l101 51q23 11 23 38v28q0 15 -8 20.5t-30 5.5h-131q-8 0 -8 8v52q0 8 6 10q64 11 123 11q64 0 98 -14q44 -17 44 -75v-54
q0 -70 -49 -92z" />
    <glyph glyph-name="uacute" unicode="&#xbe;" horiz-adv-x="942" 
d="M629 834h47q16 0 8 -17l-377 -851q-9 -17 -22 -17h-48q-17 0 -8 17l378 851q8 17 22 17zM162 793q86 0 114 -24q30 -24 30 -94v-2q0 -73 -48 -89q48 -10 48 -87v-6q0 -70 -30 -94q-28 -24 -114 -24q-57 0 -121 11q-8 2 -8 10v51q0 9 13 9h63q70 0 85 7q18 7 18 33v11
q0 11 -2 18t-15.5 15t-39.5 8h-89q-10 0 -10 10v55q0 4 0.5 5.5t2.5 2.5t7 1h88q37 0 47.5 9t10.5 35v8q0 24 -18 32t-85 8h-63q-13 0 -13 9v51q0 8 8 10q64 11 121 11zM648 415h67q13 0 9 -16l-60 -228h89v101q0 12 9 17l68 26q17 8 17 -9v-135h61q15 0 15 -13v-56
q0 -13 -15 -13h-61v-75q0 -14 -13 -14h-68q-13 0 -13 14v75h-179q-13 0 -13 14v29q0 8 4 21l66 253q5 9 17 9z" />
    <glyph glyph-name="ugrave" unicode="&#xbf;" horiz-adv-x="568" 
d="M370 578q53 0 83 -27t30 -75q0 -47 -30 -74t-83 -27q-54 0 -84 27t-30 74q0 48 30 75t84 27zM306 337h125q13 0 16 -14l8 -45q9 -53 -9 -83t-85 -67l-77 -41q-30 -16 -41 -27.5t-11 -29.5v-8q0 -30 18 -40t73 -10h208q15 0 15 -16v-112q0 -15 -6.5 -22t-22.5 -12
q-80 -21 -197 -21q-128 0 -207 36q-91 39 -91 156v55q0 79 23 117q24 37 87 66l102 49q49 22 54 46l2 9q2 14 16 14z" />
    <glyph glyph-name="ucircumflex" unicode="&#xc0;" horiz-adv-x="742" 
d="M147 1024h199q9 0 12 -6l73 -139q5 -9 -3 -14l-65 -36q-9 -5 -14 0l-207 166q-5 5 -5 12v7q0 10 10 10zM564 675l180 -659q3 -16 -13 -16h-175q-6 0 -8.5 3t-5.5 13l-53 196h-236l-53 -196q-2 -10 -4.5 -13t-9.5 -3h-175q-16 0 -13 16l180 659q22 83 55 103q31 19 138 19
q106 0 138 -20q33 -20 55 -102zM362 618l-63 -236h144l-65 236q-2 6 -8 6t-8 -6z" />
    <glyph glyph-name="udieresis" unicode="&#xc1;" horiz-adv-x="742" 
d="M368 1024h199q10 0 10 -10v-7q0 -7 -5 -12l-207 -166q-5 -5 -14 0l-65 36q-8 5 -3 14l73 139q3 6 12 6zM564 675l180 -659q3 -16 -13 -16h-175q-6 0 -8.5 3t-5.5 13l-53 196h-236l-53 -196q-2 -10 -4.5 -13t-9.5 -3h-175q-16 0 -13 16l180 659q22 83 55 103q31 19 138 19
q106 0 138 -20q33 -20 55 -102zM362 618l-63 -236h144l-65 236q-2 6 -8 6t-8 -6z" />
    <glyph glyph-name="dagger" unicode="&#xc2;" horiz-adv-x="742" 
d="M308 1024h125q16 0 23 -10l103 -145q10 -12 -4 -18l-44 -21q-11 -6 -20 0l-120 77l-121 -77q-9 -6 -20 0l-44 21q-14 6 -4 18l103 145q7 10 23 10zM564 675l180 -659q3 -16 -13 -16h-175q-6 0 -8.5 3t-5.5 13l-53 196h-236l-53 -196q-2 -10 -4.5 -13t-9.5 -3h-175
q-16 0 -13 16l180 659q22 83 55 103q31 19 138 19q106 0 138 -20q33 -20 55 -102zM362 618l-63 -236h144l-65 236q-2 6 -8 6t-8 -6z" />
    <glyph glyph-name="degree" unicode="&#xc3;" horiz-adv-x="742" 
d="M287 1010q31 0 85 -20q51 -19 65 -19q28 0 43 33q6 14 18 9l62 -17q13 -4 10 -19q-17 -78 -42 -106t-74 -28q-34 0 -85 19q-54 20 -65 20q-28 0 -43 -33q-6 -13 -18 -9l-62 17q-13 4 -10 19q17 76 42 105q26 29 74 29zM564 675l180 -659q3 -16 -13 -16h-175q-6 0 -8.5 3
t-5.5 13l-53 196h-236l-53 -196q-2 -10 -4.5 -13t-9.5 -3h-175q-16 0 -13 16l180 659q22 83 55 103q31 19 138 19q106 0 138 -20q33 -20 55 -102zM362 618l-63 -236h144l-65 236q-2 6 -8 6t-8 -6z" />
    <glyph glyph-name="cent" unicode="&#xc4;" horiz-adv-x="742" 
d="M336 925q0 -41 -23.5 -63.5t-68.5 -22.5t-69 22.5t-24 63.5q0 40 24 62.5t69 22.5t68.5 -22.5t23.5 -62.5zM590 925q0 -41 -23.5 -63.5t-68.5 -22.5t-69 22.5t-24 63.5q0 40 24 62.5t69 22.5t68.5 -22.5t23.5 -62.5zM564 675l180 -659q3 -16 -13 -16h-175q-6 0 -8.5 3
t-5.5 13l-53 196h-236l-53 -196q-2 -10 -4.5 -13t-9.5 -3h-175q-16 0 -13 16l180 659q22 83 55 103q31 19 138 19q106 0 138 -20q33 -20 55 -102zM362 618l-63 -236h144l-65 236q-2 6 -8 6t-8 -6z" />
    <glyph glyph-name="sterling" unicode="&#xc5;" horiz-adv-x="742" 
d="M244 942q0 122 127 122t127 -122t-127 -122t-127 122zM433 942q0 62 -62 62t-62 -62t62 -62t62 62zM564 675l180 -659q3 -16 -13 -16h-175q-6 0 -8.5 3t-5.5 13l-53 196h-236l-53 -196q-2 -10 -4.5 -13t-9.5 -3h-175q-16 0 -13 16l180 659q22 83 55 103q31 19 138 19
q106 0 138 -20q33 -20 55 -102zM362 618l-63 -236h144l-65 236q-2 6 -8 6t-8 -6z" />
    <glyph glyph-name="section" unicode="&#xc6;" horiz-adv-x="1075" 
d="M371 797l320 -6h327q16 0 16 -15v-153q0 -15 -16 -15h-338v-126h311q16 0 16 -15v-143q0 -15 -16 -15h-311v-126h338q16 0 16 -15v-153q0 -15 -16 -15h-533q-15 0 -15 16v196h-217l-53 -196q-2 -10 -4.5 -13t-9.5 -3h-175q-16 0 -13 16l180 659q22 83 55 103
q31 19 138 19zM470 382v242h-70q-39 0 -46 -31l-55 -211h171z" />
    <glyph glyph-name="bullet.001" unicode="&#xc7;" horiz-adv-x="641" 
d="M596 614h-221q-76 0 -100 -45t-24 -172t24 -174q24 -45 100 -45h221q15 0 15 -16v-112q0 -27 -29 -34q-67 -19 -173 -21q19 -56 19 -103q0 -79 -118 -79q-77 0 -98 8q-12 5 -12 18v86q0 13 13 13h35q49 0 57 8q6 4 6 14q0 16 -3 37q-156 12 -213 99t-57 301
q0 123 15.5 196t53.5 119q39 47 101 66t167 19q127 0 207 -21q16 -5 22.5 -12t6.5 -22v-112q0 -16 -15 -16z" />
    <glyph glyph-name="paragraph" unicode="&#xc8;" horiz-adv-x="665" 
d="M165 1024h199q9 0 12 -6l73 -139q5 -9 -3 -14l-65 -36q-9 -5 -14 0l-207 166q-5 5 -5 12v7q0 10 10 10zM75 791h533q16 0 16 -15v-153q0 -15 -16 -15h-338v-126h311q16 0 16 -15v-143q0 -15 -16 -15h-311v-126h338q16 0 16 -15v-153q0 -15 -16 -15h-533q-15 0 -15 16v759
q0 16 15 16z" />
    <glyph glyph-name="germandbls" unicode="&#xc9;" horiz-adv-x="665" 
d="M331 1024h199q10 0 10 -10v-7q0 -7 -5 -12l-207 -166q-5 -5 -14 0l-65 36q-8 5 -3 14l73 139q3 6 12 6zM75 791h533q16 0 16 -15v-153q0 -15 -16 -15h-338v-126h311q16 0 16 -15v-143q0 -15 -16 -15h-311v-126h338q16 0 16 -15v-153q0 -15 -16 -15h-533q-15 0 -15 16v759
q0 16 15 16z" />
    <glyph glyph-name="registered" unicode="&#xca;" horiz-adv-x="665" 
d="M264 1024h125q16 0 23 -10l103 -145q10 -12 -4 -18l-44 -21q-11 -6 -20 0l-120 77l-121 -77q-9 -6 -20 0l-44 21q-14 6 -4 18l103 145q7 10 23 10zM75 791h533q16 0 16 -15v-153q0 -15 -16 -15h-338v-126h311q16 0 16 -15v-143q0 -15 -16 -15h-311v-126h338q16 0 16 -15
v-153q0 -15 -16 -15h-533q-15 0 -15 16v759q0 16 15 16z" />
    <glyph glyph-name="copyright" unicode="&#xcb;" horiz-adv-x="665" 
d="M292 925q0 -41 -23.5 -63.5t-68.5 -22.5t-69 22.5t-24 63.5q0 40 24 62.5t69 22.5t68.5 -22.5t23.5 -62.5zM546 925q0 -41 -23.5 -63.5t-68.5 -22.5t-69 22.5t-24 63.5q0 40 24 62.5t69 22.5t68.5 -22.5t23.5 -62.5zM75 791h533q16 0 16 -15v-153q0 -15 -16 -15h-338
v-126h311q16 0 16 -15v-143q0 -15 -16 -15h-311v-126h338q16 0 16 -15v-153q0 -15 -16 -15h-533q-15 0 -15 16v759q0 16 15 16z" />
    <glyph glyph-name="trademark" unicode="&#xcc;" horiz-adv-x="330" 
d="M-26 1024h199q9 0 12 -6l73 -139q5 -9 -3 -14l-65 -36q-9 -5 -14 0l-207 166q-5 5 -5 12v7q0 10 10 10zM75 791h180q15 0 15 -17v-757q0 -17 -15 -17h-180q-15 0 -15 17v757q0 17 15 17z" />
    <glyph glyph-name="acute" unicode="&#xcd;" horiz-adv-x="330" 
d="M157 1024h199q10 0 10 -10v-7q0 -7 -5 -12l-207 -166q-5 -5 -14 0l-65 36q-8 5 -3 14l73 139q3 6 12 6zM75 791h180q15 0 15 -17v-757q0 -17 -15 -17h-180q-15 0 -15 17v757q0 17 15 17z" />
    <glyph glyph-name="dieresis" unicode="&#xce;" horiz-adv-x="330" 
d="M102 1024h125q16 0 23 -10l103 -145q10 -12 -4 -18l-44 -21q-11 -6 -20 0l-120 77l-121 -77q-9 -6 -20 0l-44 21q-14 6 -4 18l103 145q7 10 23 10zM75 791h180q15 0 15 -17v-757q0 -17 -15 -17h-180q-15 0 -15 17v757q0 17 15 17z" />
    <glyph glyph-name="notequal" unicode="&#xcf;" horiz-adv-x="330" 
d="M130 925q0 -41 -23.5 -63.5t-68.5 -22.5t-69 22.5t-24 63.5q0 40 24 62.5t69 22.5t68.5 -22.5t23.5 -62.5zM384 925q0 -41 -23.5 -63.5t-68.5 -22.5t-69 22.5t-24 63.5q0 40 24 62.5t69 22.5t68.5 -22.5t23.5 -62.5zM75 791h180q15 0 15 -17v-757q0 -17 -15 -17h-180
q-15 0 -15 17v757q0 17 15 17z" />
    <glyph glyph-name="AE" unicode="&#xd0;" horiz-adv-x="770" 
d="M398 797q183 0 259 -94q78 -95 78 -309q0 -212 -78 -306q-77 -93 -259 -93q-150 0 -304 14q-14 7 -15 11v308h-62q-15 0 -15 15v80q0 15 15 15h62v332q0 12 15 13q154 14 304 14zM289 328v-150h109q68 0 96 50t28 166q0 118 -28 169t-96 51h-109v-176h102q15 0 15 -15
v-80q0 -15 -15 -15h-102z" />
    <glyph glyph-name="Oslash" unicode="&#xd1;" horiz-adv-x="798" 
d="M315 1010q31 0 85 -20q51 -19 65 -19q28 0 43 33q6 14 18 9l62 -17q13 -4 10 -19q-17 -78 -42 -106t-74 -28q-34 0 -85 19q-54 20 -65 20q-28 0 -43 -33q-6 -13 -18 -9l-62 17q-13 4 -10 19q17 76 42 105q26 29 74 29zM543 791h180q15 0 15 -17v-757q0 -17 -15 -17h-123
q-41 0 -64 32l-266 372v-387q0 -17 -15 -17h-180q-15 0 -15 17v757q0 17 15 17h128q20 0 33 -5q12 -5 16.5 -9.5t17.5 -22.5l258 -360v380q0 17 15 17z" />
    <glyph glyph-name="infinity" unicode="&#xd2;" horiz-adv-x="758" 
d="M143 1024h199q9 0 12 -6l73 -139q5 -9 -3 -14l-65 -36q-9 -5 -14 0l-207 166q-5 5 -5 12v7q0 10 10 10zM721 395q-2 -122 -17 -195t-55 -120t-102.5 -65t-167.5 -20q-105 2 -167.5 20t-102.5 65t-55 120t-17 195q0 121 16.5 195.5t55.5 121.5t102 66t168 19t168 -19
t102 -66t55.5 -121.5t16.5 -195.5zM250 395q0 -124 26 -171q25 -46 103 -46t103 46q26 47 26 171q0 125 -26 172t-103 47t-103 -47t-26 -172z" />
    <glyph glyph-name="plusminus" unicode="&#xd3;" horiz-adv-x="758" 
d="M389 1024h199q10 0 10 -10v-7q0 -7 -5 -12l-207 -166q-5 -5 -14 0l-65 36q-8 5 -3 14l73 139q3 6 12 6zM721 395q-2 -122 -17 -195t-55 -120t-102.5 -65t-167.5 -20q-105 2 -167.5 20t-102.5 65t-55 120t-17 195q0 121 16.5 195.5t55.5 121.5t102 66t168 19t168 -19
t102 -66t55.5 -121.5t16.5 -195.5zM250 395q0 -124 26 -171q25 -46 103 -46t103 46q26 47 26 171q0 125 -26 172t-103 47t-103 -47t-26 -172z" />
    <glyph glyph-name="lessequal.001" unicode="&#xd4;" horiz-adv-x="758" 
d="M316 1024h125q16 0 23 -10l103 -145q10 -12 -4 -18l-44 -21q-11 -6 -20 0l-120 77l-121 -77q-9 -6 -20 0l-44 21q-14 6 -4 18l103 145q7 10 23 10zM721 395q-2 -122 -17 -195t-55 -120t-102.5 -65t-167.5 -20q-105 2 -167.5 20t-102.5 65t-55 120t-17 195
q0 121 16.5 195.5t55.5 121.5t102 66t168 19t168 -19t102 -66t55.5 -121.5t16.5 -195.5zM250 395q0 -124 26 -171q25 -46 103 -46t103 46q26 47 26 171q0 125 -26 172t-103 47t-103 -47t-26 -172z" />
    <glyph glyph-name="greaterequal.001" unicode="&#xd5;" horiz-adv-x="758" 
d="M295 1010q31 0 85 -20q51 -19 65 -19q28 0 43 33q6 14 18 9l62 -17q13 -4 10 -19q-17 -78 -42 -106t-74 -28q-34 0 -85 19q-54 20 -65 20q-28 0 -43 -33q-6 -13 -18 -9l-62 17q-13 4 -10 19q17 76 42 105q26 29 74 29zM721 395q-2 -122 -17 -195t-55 -120t-102.5 -65
t-167.5 -20q-105 2 -167.5 20t-102.5 65t-55 120t-17 195q0 121 16.5 195.5t55.5 121.5t102 66t168 19t168 -19t102 -66t55.5 -121.5t16.5 -195.5zM250 395q0 -124 26 -171q25 -46 103 -46t103 46q26 47 26 171q0 125 -26 172t-103 47t-103 -47t-26 -172z" />
    <glyph glyph-name="yen" unicode="&#xd6;" horiz-adv-x="758" 
d="M344 925q0 -41 -23.5 -63.5t-68.5 -22.5t-69 22.5t-24 63.5q0 40 24 62.5t69 22.5t68.5 -22.5t23.5 -62.5zM598 925q0 -41 -23.5 -63.5t-68.5 -22.5t-69 22.5t-24 63.5q0 40 24 62.5t69 22.5t68.5 -22.5t23.5 -62.5zM721 395q-2 -122 -17 -195t-55 -120t-102.5 -65
t-167.5 -20q-105 2 -167.5 20t-102.5 65t-55 120t-17 195q0 121 16.5 195.5t55.5 121.5t102 66t168 19t168 -19t102 -66t55.5 -121.5t16.5 -195.5zM250 395q0 -124 26 -171q25 -46 103 -46t103 46q26 47 26 171q0 125 -26 172t-103 47t-103 -47t-26 -172z" />
    <glyph glyph-name="mu" unicode="&#xd7;" horiz-adv-x="594" 
d="M461 625l104 -105q11 -10 -1 -22l-135 -134l133 -131q11 -11 0 -22l-118 -117q-11 -9 -22 0l-133 130l-133 -134q-12 -12 -22 -1l-105 105q-11 10 1 22l136 133l-132 134q-9 11 0 22l117 118q11 9 22 0l132 -134l134 136q11 11 22 0z" />
    <glyph glyph-name="partialdiff.001" unicode="&#xd8;" horiz-adv-x="758" 
d="M379 797q138 0 211 -38l31 44q11 14 21 4l34 -23q12 -8 3 -21l-33 -47q75 -82 75 -321q-2 -122 -17 -195t-55 -120t-102.5 -65t-167.5 -20q-138 0 -212 38l-31 -45q-9 -14 -20 -3l-34 24q-11 7 -4 20l33 47q-74 86 -74 319q0 121 16.5 195.5t55.5 121.5t102 66t168 19z
M379 614q-77 0 -103 -47t-26 -172q0 -73 7 -111l211 302q-27 28 -89 28zM501 509l-212 -302q29 -29 90 -29q78 0 103 46q26 47 26 171q0 75 -7 114z" />
    <glyph glyph-name="summation" unicode="&#xd9;" horiz-adv-x="774" 
d="M178 1024h199q9 0 12 -6l73 -139q5 -9 -3 -14l-65 -36q-9 -5 -14 0l-207 166q-5 5 -5 12v7q0 10 10 10zM526 791h180q15 0 15 -15v-381q0 -189 -41 -279q-34 -68 -100 -93.5t-193 -27.5q-156 0 -233 48q-57 42 -78.5 121.5t-22.5 230.5v381q0 15 15 15h180q15 0 15 -15
v-381q0 -131 25 -174t99 -43t99 43t25 174v381q0 15 15 15z" />
    <glyph glyph-name="product" unicode="&#xda;" horiz-adv-x="774" 
d="M364 1024h199q10 0 10 -10v-7q0 -7 -5 -12l-207 -166q-5 -5 -14 0l-65 36q-8 5 -3 14l73 139q3 6 12 6zM526 791h180q15 0 15 -15v-381q0 -189 -41 -279q-34 -68 -100 -93.5t-193 -27.5q-156 0 -233 48q-57 42 -78.5 121.5t-22.5 230.5v381q0 15 15 15h180q15 0 15 -15
v-381q0 -131 25 -174t99 -43t99 43t25 174v381q0 15 15 15z" />
    <glyph glyph-name="pi.001" unicode="&#xdb;" horiz-adv-x="774" 
d="M324 1024h125q16 0 23 -10l103 -145q10 -12 -4 -18l-44 -21q-11 -6 -20 0l-120 77l-121 -77q-9 -6 -20 0l-44 21q-14 6 -4 18l103 145q7 10 23 10zM526 791h180q15 0 15 -15v-381q0 -189 -41 -279q-34 -68 -100 -93.5t-193 -27.5q-156 0 -233 48q-57 42 -78.5 121.5
t-22.5 230.5v381q0 15 15 15h180q15 0 15 -15v-381q0 -131 25 -174t99 -43t99 43t25 174v381q0 15 15 15z" />
    <glyph glyph-name="integral" unicode="&#xdc;" horiz-adv-x="774" 
d="M352 925q0 -41 -23.5 -63.5t-68.5 -22.5t-69 22.5t-24 63.5q0 40 24 62.5t69 22.5t68.5 -22.5t23.5 -62.5zM606 925q0 -41 -23.5 -63.5t-68.5 -22.5t-69 22.5t-24 63.5q0 40 24 62.5t69 22.5t68.5 -22.5t23.5 -62.5zM526 791h180q15 0 15 -15v-381q0 -189 -41 -279
q-34 -68 -100 -93.5t-193 -27.5q-156 0 -233 48q-57 42 -78.5 121.5t-22.5 230.5v381q0 15 15 15h180q15 0 15 -15v-381q0 -131 25 -174t99 -43t99 43t25 174v381q0 15 15 15z" />
    <glyph glyph-name="ordfeminine" unicode="&#xdd;" horiz-adv-x="765" 
d="M387 1024h199q10 0 10 -10v-7q0 -7 -5 -12l-207 -166q-5 -5 -14 0l-65 36q-8 5 -3 14l73 139q3 6 12 6zM554 791h202q23 0 11 -22l-280 -503v-249q0 -17 -15 -17h-180q-15 0 -15 17v252l-279 500q-12 22 11 22h202q15 0 27 -16l144 -306l145 306q7 16 27 16z" />
    <glyph glyph-name="ordmasculine" unicode="&#xde;" horiz-adv-x="699" 
d="M75 794h180q15 0 15 -17v-112q61 3 122 3q159 0 223 -61t64 -208t-64 -208t-223 -61q-60 0 -122 3v-113q0 -17 -15 -17h-180q-15 0 -15 17v757q0 17 15 17zM369 490h-99v-182h99q56 0 76.5 19t20.5 70t-21.5 72t-75.5 21z" />
    <glyph glyph-name="Omega.001" unicode="&#xdf;" horiz-adv-x="666" 
d="M333 797q151 0 218.5 -51t67.5 -168q0 -90 -30 -131t-105 -51v-3q84 -6 117 -46q34 -38 34 -133q0 -120 -65 -170q-64 -49 -226 -49q-23 0 -47 3q-16 1 -13 17l28 149q2 14 9 14h10q50 1 70.5 17.5t20.5 54.5q0 40 -22.5 57.5t-78.5 17.5h-10q-15 0 -15 15v113
q0 15 17 15h7q45 2 65.5 19t20.5 54q0 73 -74 73q-73 0 -73 -70v-529q0 -15 -15 -15h-180q-15 0 -15 15v558q0 107 63 166q62 58 221 58z" />
    <glyph glyph-name="ae" unicode="&#xe0;" horiz-adv-x="591" 
d="M87 824h199q9 0 12 -6l73 -139q5 -9 -3 -14l-65 -36q-9 -5 -14 0l-207 166q-5 5 -5 12v7q0 10 10 10zM287 578q130 0 193 -35q27 -15 42 -41q23 -40 23 -111v-342q0 -29 -26 -33q-108 -21 -232 -21q-41 0 -79 2q-82 2 -117 23q-74 46 -69 159q1 108 60 142q51 31 170 31
l95 1v5q0 50 -60 50h-210q-13 0 -13 15v121q0 13 13 16q89 18 210 18zM347 159v80h-74q-33 0 -44.5 -10t-11.5 -35q0 -24 12 -33t45 -9q46 0 73 7z" />
    <glyph glyph-name="oslash" unicode="&#xe1;" horiz-adv-x="591" 
d="M273 824h199q10 0 10 -10v-7q0 -7 -5 -12l-207 -166q-5 -5 -14 0l-65 36q-8 5 -3 14l73 139q3 6 12 6zM287 578q130 0 193 -35q27 -15 42 -41q23 -40 23 -111v-342q0 -29 -26 -33q-108 -21 -232 -21q-41 0 -79 2q-82 2 -117 23q-74 46 -69 159q1 108 60 142q51 31 170 31
l95 1v5q0 50 -60 50h-210q-13 0 -13 15v121q0 13 13 16q89 18 210 18zM347 159v80h-74q-33 0 -44.5 -10t-11.5 -35q0 -24 12 -33t45 -9q46 0 73 7z" />
    <glyph glyph-name="questiondown" unicode="&#xe2;" horiz-adv-x="591" 
d="M233 824h125q16 0 23 -10l103 -145q10 -12 -4 -18l-44 -21q-11 -6 -20 0l-120 77l-121 -77q-9 -6 -20 0l-44 21q-14 6 -4 18l103 145q7 10 23 10zM287 578q130 0 193 -35q27 -15 42 -41q23 -40 23 -111v-342q0 -29 -26 -33q-108 -21 -232 -21q-41 0 -79 2q-82 2 -117 23
q-74 46 -69 159q1 108 60 142q51 31 170 31l95 1v5q0 50 -60 50h-210q-13 0 -13 15v121q0 13 13 16q89 18 210 18zM347 159v80h-74q-33 0 -44.5 -10t-11.5 -35q0 -24 12 -33t45 -9q46 0 73 7z" />
    <glyph glyph-name="exclamdown" unicode="&#xe3;" horiz-adv-x="591" 
d="M212 810q31 0 85 -20q51 -19 65 -19q28 0 43 33q6 14 18 9l62 -17q13 -4 10 -19q-17 -78 -42 -106t-74 -28q-34 0 -85 19q-54 20 -65 20q-28 0 -43 -33q-6 -13 -18 -9l-62 17q-13 4 -10 19q16 76 42 105t74 29zM287 578q130 0 193 -35q27 -15 42 -41q23 -40 23 -111v-342
q0 -29 -26 -33q-108 -21 -232 -21q-41 0 -79 2q-82 2 -117 23q-74 46 -69 159q1 108 60 142q51 31 170 31l95 1v5q0 50 -60 50h-210q-13 0 -13 15v121q0 13 13 16q89 18 210 18zM347 159v80h-74q-33 0 -44.5 -10t-11.5 -35q0 -24 12 -33t45 -9q46 0 73 7z" />
    <glyph glyph-name="logicalnot" unicode="&#xe4;" horiz-adv-x="591" 
d="M261 725q0 -41 -23.5 -63.5t-68.5 -22.5t-69 22.5t-24 63.5q0 40 24 62.5t69 22.5t68.5 -22.5t23.5 -62.5zM515 725q0 -41 -23.5 -63.5t-68.5 -22.5t-69 22.5t-24 63.5q0 40 24 62.5t69 22.5t68.5 -22.5t23.5 -62.5zM287 578q130 0 193 -35q27 -15 42 -41q23 -40 23 -111
v-342q0 -29 -26 -33q-108 -21 -232 -21q-41 0 -79 2q-82 2 -117 23q-74 46 -69 159q1 108 60 142q51 31 170 31l95 1v5q0 50 -60 50h-210q-13 0 -13 15v121q0 13 13 16q89 18 210 18zM347 159v80h-74q-33 0 -44.5 -10t-11.5 -35q0 -24 12 -33t45 -9q46 0 73 7z" />
    <glyph glyph-name="radical.001" unicode="&#xe5;" horiz-adv-x="591" 
d="M169 742q0 122 127 122t127 -122t-127 -122t-127 122zM358 742q0 62 -62 62t-62 -62t62 -62t62 62zM287 578q130 0 193 -35q27 -15 42 -41q23 -40 23 -111v-342q0 -29 -26 -33q-108 -21 -232 -21q-41 0 -79 2q-82 2 -117 23q-74 46 -69 159q1 108 60 142q51 31 170 31
l95 1v5q0 50 -60 50h-210q-13 0 -13 15v121q0 13 13 16q89 18 210 18zM347 159v80h-74q-33 0 -44.5 -10t-11.5 -35q0 -24 12 -33t45 -9q46 0 73 7z" />
    <glyph glyph-name="florin.001" unicode="&#xe6;" horiz-adv-x="914" 
d="M621 578q162 0 214 -58q54 -58 54 -234v-32q0 -27 -28 -27h-310q0 -41 18 -52q19 -10 76 -10h190q15 0 15 -15v-120q0 -14 -14 -17q-74 -18 -215 -18q-46 0 -93 10q-48 10 -78 26q-68 -36 -163 -36q-41 0 -79 2q-82 2 -117 23q-74 46 -69 159q1 108 60 142q51 31 170 31
l95 1v5q0 50 -60 50h-210q-13 0 -13 15v121q0 13 13 16q89 18 210 18q106 0 168 -41q68 41 166 41zM621 408q-72 0 -72 -67h141q0 36 -16.5 51.5t-52.5 15.5zM355 239h-82q-33 0 -44.5 -10t-11.5 -35t12 -35t45 -10q61 0 94 16q-13 33 -13 74z" />
    <glyph glyph-name="approxequal" unicode="&#xe7;" horiz-adv-x="532" 
d="M484 408h-175q-47 0 -62 -24t-15 -97t15 -98q15 -24 62 -24h175q18 0 18 -16v-114q0 -17 -18 -22q-42 -12 -132 -17q19 -57 19 -104q0 -79 -118 -79q-77 0 -98 8q-12 5 -12 18v86q0 13 13 13h35q49 0 57 8q6 4 6 14q0 14 -3 37q-133 7 -175 67t-42 223q0 96 10.5 147
t40.5 85t80.5 46.5t143.5 12.5q110 0 175 -18q18 -4 18 -22v-114q0 -16 -18 -16z" />
    <glyph glyph-name="increment" unicode="&#xe8;" horiz-adv-x="599" 
d="M92 824h199q9 0 12 -6l73 -139q5 -9 -3 -14l-65 -36q-9 -5 -14 0l-207 166q-5 5 -5 12v7q0 10 10 10zM306 578q162 0 214 -58q54 -58 54 -234v-32q0 -27 -28 -27h-310q0 -41 18 -52q19 -10 76 -10h190q15 0 15 -15v-120q0 -14 -14 -17q-73 -18 -215 -18q-163 0 -218 58
t-55 233t55 233q56 59 218 59zM306 408q-72 0 -72 -67h141q0 36 -16.5 51.5t-52.5 15.5z" />
    <glyph glyph-name="guillemotleft" unicode="&#xe9;" horiz-adv-x="599" 
d="M293 824h199q10 0 10 -10v-7q0 -7 -5 -12l-207 -166q-5 -5 -14 0l-65 36q-8 5 -3 14l73 139q3 6 12 6zM306 578q162 0 214 -58q54 -58 54 -234v-32q0 -27 -28 -27h-310q0 -41 18 -52q19 -10 76 -10h190q15 0 15 -15v-120q0 -14 -14 -17q-73 -18 -215 -18q-163 0 -218 58
t-55 233t55 233q56 59 218 59zM306 408q-72 0 -72 -67h141q0 36 -16.5 51.5t-52.5 15.5z" />
    <glyph glyph-name="guillemotright" unicode="&#xea;" horiz-adv-x="599" 
d="M244 824h125q16 0 23 -10l103 -145q10 -12 -4 -18l-44 -21q-11 -6 -20 0l-120 77l-121 -77q-9 -6 -20 0l-44 21q-14 6 -4 18l103 145q7 10 23 10zM306 578q162 0 214 -58q54 -58 54 -234v-32q0 -27 -28 -27h-310q0 -41 18 -52q19 -10 76 -10h190q15 0 15 -15v-120
q0 -14 -14 -17q-73 -18 -215 -18q-163 0 -218 58t-55 233t55 233q56 59 218 59zM306 408q-72 0 -72 -67h141q0 36 -16.5 51.5t-52.5 15.5z" />
    <glyph glyph-name="ellipsis" unicode="&#xeb;" horiz-adv-x="599" 
d="M272 725q0 -41 -23.5 -63.5t-68.5 -22.5t-69 22.5t-24 63.5q0 40 24 62.5t69 22.5t68.5 -22.5t23.5 -62.5zM526 725q0 -41 -23.5 -63.5t-68.5 -22.5t-69 22.5t-24 63.5q0 40 24 62.5t69 22.5t68.5 -22.5t23.5 -62.5zM306 578q162 0 214 -58q54 -58 54 -234v-32
q0 -27 -28 -27h-310q0 -41 18 -52q19 -10 76 -10h190q15 0 15 -15v-120q0 -14 -14 -17q-73 -18 -215 -18q-163 0 -218 58t-55 233t55 233q56 59 218 59zM306 408q-72 0 -72 -67h141q0 36 -16.5 51.5t-52.5 15.5z" />
    <glyph glyph-name="nbspace" unicode="&#xec;" horiz-adv-x="296" 
d="M-39 824h199q9 0 12 -6l73 -139q5 -9 -3 -14l-65 -36q-9 -5 -14 0l-207 166q-5 5 -5 12v7q0 10 10 10zM64 573h168q15 0 15 -16v-541q0 -16 -15 -16h-168q-15 0 -15 16v541q0 16 15 16z" />
    <glyph glyph-name="Agrave" unicode="&#xed;" horiz-adv-x="296" 
d="M146 824h199q10 0 10 -10v-7q0 -7 -5 -12l-207 -166q-5 -5 -14 0l-65 36q-8 5 -3 14l73 139q3 6 12 6zM64 573h168q15 0 15 -16v-541q0 -16 -15 -16h-168q-15 0 -15 16v541q0 16 15 16z" />
    <glyph glyph-name="Atilde" unicode="&#xee;" horiz-adv-x="296" 
d="M86 824h125q16 0 23 -10l103 -145q10 -12 -4 -18l-44 -21q-11 -6 -20 0l-120 77l-121 -77q-9 -6 -20 0l-44 21q-14 6 -4 18l103 145q7 10 23 10zM232 0h-168q-15 0 -15 16v541q0 16 15 16h168q15 0 15 -16v-541q0 -16 -15 -16z" />
    <glyph glyph-name="Otilde" unicode="&#xef;" horiz-adv-x="296" 
d="M113 725q0 -41 -23.5 -63.5t-68.5 -22.5t-69 22.5t-24 63.5q0 40 24 62.5t69 22.5t68.5 -22.5t23.5 -62.5zM367 725q0 -41 -23.5 -63.5t-68.5 -22.5t-69 22.5t-24 63.5q0 40 24 62.5t69 22.5t68.5 -22.5t23.5 -62.5zM64 573h168q15 0 15 -16v-541q0 -16 -15 -16h-168
q-15 0 -15 16v541q0 16 15 16z" />
    <glyph glyph-name="OE" unicode="&#xf0;" horiz-adv-x="612" 
d="M146 790l179 1q12 0 18 -10l20 -33l69 25q15 6 19 -9l10 -26q5 -14 -9 -19l-59 -21l160 -272q27 -42 27 -167q0 -85 -12 -133t-44 -78q-31 -30 -81.5 -41.5t-139.5 -11.5q-165 0 -221 53q-55 52 -55 211q0 147 47 197t185 50q21 0 40 -3l-80 132l-82 -29q-15 -6 -19 9
l-10 26q-5 14 9 19l71 26l-52 86q-11 18 10 18zM303 353q-46 0 -61.5 -19.5t-15.5 -74.5t15.5 -74.5t61.5 -19.5q47 0 62.5 19.5t15.5 74.5t-15.5 74.5t-62.5 19.5z" />
    <glyph glyph-name="oe.001" unicode="&#xf1;" 
d="M228 810q31 0 85 -20q51 -19 65 -19q28 0 43 33q6 14 18 9l62 -17q13 -4 10 -19q-17 -78 -42 -106t-74 -28q-34 0 -85 19q-54 20 -65 20q-28 0 -43 -33q-6 -13 -18 -9l-62 17q-13 4 -10 19q16 76 42 105t74 29zM332 578q152 0 201 -49q49 -48 49 -197v-316q0 -16 -15 -16
h-169q-14 0 -14 16v249q0 45 -1 57q0 52 -11 65q-8 13 -25 17t-53 4h-46v-392q0 -16 -15 -16h-170q-14 0 -14 16v528q0 6 2 9.5t4 4.5t8 2q74 18 269 18z" />
    <glyph glyph-name="endash.001" unicode="&#xf2;" horiz-adv-x="619" 
d="M91 824h199q9 0 12 -6l73 -139q5 -9 -3 -14l-65 -36q-9 -5 -14 0l-207 166q-5 5 -5 12v7q0 10 10 10zM586 286q0 -174 -56 -233q-55 -58 -221 -58t-221 58t-55 233t55 233q56 59 221 59q166 0 221 -58q56 -59 56 -234zM309 408q-45 0 -62 -24q-15 -24 -15 -98
q0 -73 15 -97q17 -24 62 -24q47 0 62 24q16 23 16 97q0 75 -16 98q-15 24 -62 24z" />
    <glyph glyph-name="emdash.001" unicode="&#xf3;" horiz-adv-x="619" 
d="M309 824h199q10 0 10 -10v-7q0 -7 -5 -12l-207 -166q-5 -5 -14 0l-65 36q-8 5 -3 14l73 139q3 6 12 6zM586 286q0 -174 -56 -233q-55 -58 -221 -58t-221 58t-55 233t55 233q56 59 221 59q166 0 221 -58q56 -59 56 -234zM309 408q-45 0 -62 -24q-15 -24 -15 -98
q0 -73 15 -97q17 -24 62 -24q47 0 62 24q16 23 16 97q0 75 -16 98q-15 24 -62 24z" />
    <glyph glyph-name="quotedblleft" unicode="&#xf4;" horiz-adv-x="619" 
d="M247 824h125q16 0 23 -10l103 -145q10 -12 -4 -18l-44 -21q-11 -6 -20 0l-120 77l-121 -77q-9 -6 -20 0l-44 21q-14 6 -4 18l103 145q7 10 23 10zM586 286q0 -174 -56 -233q-55 -58 -221 -58t-221 58t-55 233t55 233q56 59 221 59q166 0 221 -58q56 -59 56 -234zM309 408
q-45 0 -62 -24q-15 -24 -15 -98q0 -73 15 -97q17 -24 62 -24q47 0 62 24q16 23 16 97q0 75 -16 98q-15 24 -62 24z" />
    <glyph glyph-name="quotedblright.001" unicode="&#xf5;" horiz-adv-x="619" 
d="M226 810q31 0 85 -20q51 -19 65 -19q28 0 43 33q6 14 18 9l62 -17q13 -4 10 -19q-17 -78 -42 -106t-74 -28q-34 0 -85 19q-54 20 -65 20q-28 0 -43 -33q-6 -13 -18 -9l-62 17q-13 4 -10 19q16 76 42 105t74 29zM586 286q0 -174 -56 -233q-55 -58 -221 -58t-221 58
t-55 233t55 233q56 59 221 59q166 0 221 -58q56 -59 56 -234zM309 408q-45 0 -62 -24q-15 -24 -15 -98q0 -73 15 -97q17 -24 62 -24q47 0 62 24q16 23 16 97q0 75 -16 98q-15 24 -62 24z" />
    <glyph glyph-name="quoteleft" unicode="&#xf6;" horiz-adv-x="619" 
d="M275 725q0 -41 -23.5 -63.5t-68.5 -22.5t-69 22.5t-24 63.5q0 40 24 62.5t69 22.5t68.5 -22.5t23.5 -62.5zM529 725q0 -41 -23.5 -63.5t-68.5 -22.5t-69 22.5t-24 63.5q0 40 24 62.5t69 22.5t68.5 -22.5t23.5 -62.5zM586 286q0 -174 -56 -233q-55 -58 -221 -58t-221 58
t-55 233t55 233q56 59 221 59q166 0 221 -58q56 -59 56 -234zM309 408q-45 0 -62 -24q-15 -24 -15 -98q0 -73 15 -97q17 -24 62 -24q47 0 62 24q16 23 16 97q0 75 -16 98q-15 24 -62 24z" />
    <glyph glyph-name="quoteright.001" unicode="&#xf7;" horiz-adv-x="586" 
d="M294 669q53 0 83 -27t30 -74q0 -48 -30 -75t-83 -27q-54 0 -84 27t-30 75q0 47 30 74t84 27zM41 424h504q16 0 16 -15v-153q0 -15 -16 -15h-504q-16 0 -16 15v153q0 15 16 15zM294 198q53 0 83 -27t30 -74q0 -48 -30 -75t-83 -27q-54 0 -84 27t-30 75q0 47 30 74t84 27z
" />
    <glyph glyph-name="divide" unicode="&#xf8;" horiz-adv-x="619" 
d="M309 578q94 0 151 -17l27 39q11 14 21 4l34 -23q12 -7 3 -21l-23 -32q35 -30 49.5 -87t14.5 -155q0 -174 -56 -233q-55 -58 -221 -58q-95 0 -149 16l-28 -39q-9 -14 -20 -3l-34 24q-11 7 -4 20l23 32q-35 30 -49.5 86.5t-14.5 154.5q0 175 55 233q56 59 221 59zM309 408
q-45 0 -62 -24q-15 -24 -15 -98q0 -28 2 -46l114 163q-18 5 -39 5zM385 333l-114 -163q13 -5 38 -5q47 0 62 24q16 23 16 97q0 9 -2 47z" />
    <glyph glyph-name="lozenge" unicode="&#xf9;" 
d="M109 824h199q9 0 12 -6l73 -139q5 -9 -3 -14l-65 -36q-9 -5 -14 0l-207 166q-5 5 -5 12v7q0 10 10 10zM394 573h170q14 0 14 -16v-526q0 -9 -2.5 -12.5t-11.5 -5.5q-95 -18 -269 -18q-151 0 -201 48q-49 49 -49 198v316q0 16 16 16h168q14 0 14 -16v-249v-58
q2 -49 11 -65q22 -24 79 -20h46v392q0 16 15 16z" />
    <glyph glyph-name="ydieresis" unicode="&#xfa;" 
d="M284 824h199q10 0 10 -10v-7q0 -7 -5 -12l-207 -166q-5 -5 -14 0l-65 36q-8 5 -3 14l73 139q3 6 12 6zM394 573h170q14 0 14 -16v-526q0 -9 -2.5 -12.5t-11.5 -5.5q-95 -18 -269 -18q-151 0 -201 48q-49 49 -49 198v316q0 16 16 16h168q14 0 14 -16v-249v-58
q2 -49 11 -65q22 -24 79 -20h46v392q0 16 15 16z" />
    <glyph glyph-name="Ydieresis.001" unicode="&#xfb;" 
d="M249 824h125q16 0 23 -10l103 -145q10 -12 -4 -18l-44 -21q-11 -6 -20 0l-120 77l-121 -77q-9 -6 -20 0l-44 21q-14 6 -4 18l103 145q7 10 23 10zM394 573h170q14 0 14 -16v-526q0 -9 -2.5 -12.5t-11.5 -5.5q-95 -18 -269 -18q-151 0 -201 48q-49 49 -49 198v316
q0 16 16 16h168q14 0 14 -16v-249v-58q2 -49 11 -65q22 -24 79 -20h46v392q0 16 15 16z" />
    <glyph glyph-name="fraction" unicode="&#xfc;" 
d="M262 725q0 -41 -23.5 -63.5t-68.5 -22.5t-69 22.5t-24 63.5q0 40 24 62.5t69 22.5t68.5 -22.5t23.5 -62.5zM516 725q0 -41 -23.5 -63.5t-68.5 -22.5t-69 22.5t-24 63.5q0 40 24 62.5t69 22.5t68.5 -22.5t23.5 -62.5zM394 573h170q14 0 14 -16v-526q0 -9 -2.5 -12.5
t-11.5 -5.5q-95 -18 -269 -18q-151 0 -201 48q-49 49 -49 198v316q0 16 16 16h168q14 0 14 -16v-249v-58q2 -49 11 -65q22 -24 79 -20h46v392q0 16 15 16z" />
    <glyph glyph-name="currency" unicode="&#xfd;" horiz-adv-x="647" 
d="M313 824h199q10 0 10 -10v-7q0 -7 -5 -12l-207 -166q-5 -5 -14 0l-65 36q-8 5 -3 14l73 139q3 6 12 6zM414 573h168q15 0 15 -15v-582q0 -71 -23 -111q-21 -37 -76 -55.5t-159 -20.5q-136 0 -224 18q-13 3 -13 16v108q0 15 13 15h201q48 0 65.5 12t17.5 44v7
q-62 -14 -114 -14q-127 0 -184 59t-57 184v320q0 15 15 15h168q15 0 15 -15v-271q0 -75 20 -98q21 -23 82 -23q32 0 55 6v386q0 15 15 15z" />
    <glyph glyph-name="guilsinglleft.001" unicode="&#xfe;" horiz-adv-x="624" 
d="M64 791h168q15 0 15 -16v-203q65 6 114 6q131 0 180 -63q50 -62 50 -229q0 -172 -57 -232q-57 -59 -227 -59q-2 0 -60 2v-186q0 -16 -15 -16h-168q-15 0 -15 16v964q0 16 15 16zM302 407h-55v-236q26 -6 65 -6q55 0 68 25t13 96q0 79 -16 99q-16 22 -75 22z" />
    <glyph glyph-name="guilsinglright.001" unicode="&#xff;" horiz-adv-x="647" 
d="M279 725q0 -41 -23.5 -63.5t-68.5 -22.5t-69 22.5t-24 63.5q0 40 24 62.5t69 22.5t68.5 -22.5t23.5 -62.5zM533 725q0 -41 -23.5 -63.5t-68.5 -22.5t-69 22.5t-24 63.5q0 40 24 62.5t69 22.5t68.5 -22.5t23.5 -62.5zM414 573h168q15 0 15 -15v-582q0 -71 -23 -111
q-21 -37 -76 -55.5t-159 -20.5q-136 0 -224 18q-13 3 -13 16v108q0 15 13 15h201q48 0 65.5 12t17.5 44v7q-62 -14 -114 -14q-127 0 -184 59t-57 184v320q0 15 15 15h168q15 0 15 -15v-271q0 -75 20 -98q21 -23 82 -23q32 0 55 6v386q0 15 15 15z" />
    <glyph glyph-name="fi" unicode="&#x100;" horiz-adv-x="742" 
d="M211 971h320q15 0 15 -15v-80q0 -15 -15 -15h-320q-15 0 -15 15v80q0 15 15 15zM564 675l180 -659q3 -16 -13 -16h-175q-6 0 -8.5 3t-5.5 13l-53 196h-236l-53 -196q-2 -10 -4.5 -13t-9.5 -3h-175q-16 0 -13 16l180 659q22 83 55 103q31 19 138 19q106 0 138 -20
q33 -20 55 -102zM362 618l-63 -236h144l-65 236q-2 6 -8 6t-8 -6z" />
    <glyph glyph-name="fl.001" unicode="&#x101;" horiz-adv-x="591" 
d="M136 771h320q15 0 15 -15v-80q0 -15 -15 -15h-320q-15 0 -15 15v80q0 15 15 15zM287 578q130 0 193 -35q27 -15 42 -41q23 -40 23 -111v-342q0 -29 -26 -33q-108 -21 -232 -21q-41 0 -79 2q-82 2 -117 23q-74 46 -69 159q1 108 60 142q51 31 170 31l95 1v5q0 50 -60 50
h-210q-13 0 -13 15v121q0 13 13 16q89 18 210 18zM347 159v80h-74q-33 0 -44.5 -10t-11.5 -35q0 -24 12 -33t45 -9q46 0 73 7z" />
    <glyph glyph-name="daggerdbl.001" unicode="&#x102;" horiz-adv-x="742" 
d="M469 1009h83q17 0 14 -15q-10 -83 -54 -118q-43 -34 -141 -34q-99 0 -142 33q-42 34 -53 118q-3 16 14 16h82q12 0 17 -12q19 -46 82 -46q33 0 51.5 10.5t29.5 35.5q6 12 17 12zM564 675l180 -659q3 -16 -13 -16h-175q-6 0 -8.5 3t-5.5 13l-53 196h-236l-53 -196
q-2 -10 -4.5 -13t-9.5 -3h-175q-16 0 -13 16l180 659q22 83 55 103q31 19 138 19q106 0 138 -20q33 -20 55 -102zM362 618l-63 -236h144l-65 236q-2 6 -8 6t-8 -6z" />
    <glyph glyph-name="middot" unicode="&#x103;" horiz-adv-x="591" 
d="M394 809h83q17 0 14 -15q-10 -83 -54 -118q-43 -34 -141 -34t-142 33q-42 34 -53 118q-3 16 14 16h82q13 0 17 -12q19 -46 82 -46q33 0 51.5 10.5t29.5 35.5q6 12 17 12zM287 578q130 0 193 -35q27 -15 42 -41q23 -40 23 -111v-342q0 -29 -26 -33q-108 -21 -232 -21
q-41 0 -79 2q-82 2 -117 23q-74 46 -69 159q1 108 60 142q51 31 170 31l95 1v5q0 50 -60 50h-210q-13 0 -13 15v121q0 13 13 16q89 18 210 18zM347 159v80h-74q-33 0 -44.5 -10t-11.5 -35q0 -24 12 -33t45 -9q46 0 73 7z" />
    <glyph glyph-name="quotesinglbase.001" unicode="&#x104;" horiz-adv-x="742" 
d="M564 675l180 -659q3 -16 -13 -16h-95q-3 -22 -3 -40t16 -19q13 -3 39 -3h8h35q13 0 13 -13v-86q0 -13 -12 -18q-21 -8 -98 -8q-118 0 -118 79q0 52 26 124l-53 196h-236l-53 -196q-2 -10 -4.5 -13t-9.5 -3h-175q-16 0 -13 16l180 659q22 83 55 103q31 19 138 19
q106 0 138 -20q33 -20 55 -102zM362 618l-63 -236h144l-65 236q-2 6 -8 6t-8 -6z" />
    <glyph glyph-name="quotedblbase.001" unicode="&#x105;" horiz-adv-x="591" 
d="M519 16q-51 -10 -82 -13q-4 -19 -4 -43q0 -18 16 -19q13 -3 39 -3h8h35q13 0 13 -13v-86q0 -13 -12 -18q-21 -8 -98 -8q-118 0 -118 79q0 47 19 104q-13 -1 -48 -1q-41 0 -79 2q-82 2 -117 23q-74 46 -69 159q1 108 60 142q51 31 170 31l95 1v5q0 50 -60 50h-210
q-13 0 -13 15v121q0 13 13 16q89 18 210 18q130 0 193 -35q27 -15 42 -41q23 -40 23 -111v-342q0 -29 -26 -33zM274 152q46 0 73 7v80h-74q-33 0 -44.5 -10t-11.5 -35q0 -24 12 -33t45 -9z" />
    <glyph glyph-name="perthousand" unicode="&#x106;" horiz-adv-x="640" 
d="M322 1024h199q10 0 10 -10v-7q0 -7 -5 -12l-207 -166q-5 -5 -14 0l-65 36q-8 5 -3 14l73 139q3 6 12 6zM374 797q128 0 207 -21q16 -5 22.5 -12t6.5 -22v-112q0 -16 -15 -16h-221q-76 0 -100 -45t-24 -172t24 -174q24 -45 100 -45h221q15 0 15 -16v-112q0 -27 -29 -34
q-73 -21 -207 -21q-198 0 -268 84q-69 84 -69 318q0 123 15.5 196t53.5 119q39 47 101 66t167 19z" />
    <glyph glyph-name="Acircumflex" unicode="&#x107;" horiz-adv-x="532" 
d="M259 824h199q10 0 10 -10v-7q0 -7 -5 -12l-207 -166q-5 -5 -14 0l-65 36q-8 5 -3 14l73 139q3 6 12 6zM309 578q110 0 175 -18q18 -4 18 -22v-114q0 -16 -18 -16h-175q-47 0 -62 -24t-15 -97t15 -98q15 -24 62 -24h175q18 0 18 -16v-114q0 -17 -18 -22q-65 -18 -175 -18
q-93 0 -143.5 12.5t-80.5 46.5q-30 35 -41 88q-10 50 -10 145q0 96 10.5 147t40.5 85t80.5 46.5t143.5 12.5z" />
    <glyph glyph-name="Ecircumflex" unicode="&#x108;" horiz-adv-x="640" 
d="M294 1024h125q16 0 23 -10l103 -145q10 -12 -4 -18l-44 -21q-11 -6 -20 0l-120 77l-121 -77q-9 -6 -20 0l-44 21q-14 6 -4 18l103 145q7 10 23 10zM374 797q128 0 207 -21q16 -5 22.5 -12t6.5 -22v-112q0 -16 -15 -16h-221q-76 0 -100 -45t-24 -172t24 -174
q24 -45 100 -45h221q15 0 15 -16v-112q0 -27 -29 -34q-73 -21 -207 -21q-198 0 -268 84q-69 84 -69 318q0 123 15.5 196t53.5 119q39 47 101 66t167 19z" />
    <glyph glyph-name="Aacute" unicode="&#x109;" horiz-adv-x="532" 
d="M226 824h125q16 0 23 -10l103 -145q10 -12 -4 -18l-44 -21q-11 -6 -20 0l-120 77l-121 -77q-9 -6 -20 0l-44 21q-14 6 -4 18l103 145q7 10 23 10zM309 578q110 0 175 -18q18 -4 18 -22v-114q0 -16 -18 -16h-175q-47 0 -62 -24t-15 -97t15 -98q15 -24 62 -24h175
q18 0 18 -16v-114q0 -17 -18 -22q-65 -18 -175 -18q-93 0 -143.5 12.5t-80.5 46.5q-30 35 -41 88q-10 50 -10 145q0 96 10.5 147t40.5 85t80.5 46.5t143.5 12.5z" />
    <glyph glyph-name="Edieresis" unicode="&#x10a;" horiz-adv-x="640" 
d="M368 1015q49 0 75.5 -23t26.5 -67q0 -91 -102 -91q-103 0 -103 91q0 90 103 90zM374 797q128 0 207 -21q16 -5 22.5 -12t6.5 -22v-112q0 -16 -15 -16h-221q-76 0 -100 -45t-24 -172t24 -174q24 -45 100 -45h221q15 0 15 -16v-112q0 -27 -29 -34q-73 -21 -207 -21
q-198 0 -268 84q-69 84 -69 318q0 123 15.5 196t53.5 119q39 47 101 66t167 19z" />
    <glyph glyph-name="Egrave" unicode="&#x10b;" horiz-adv-x="532" 
d="M286 815q49 0 75.5 -23t26.5 -67q0 -91 -102 -91q-103 0 -103 91q0 90 103 90zM309 578q110 0 175 -18q18 -4 18 -22v-114q0 -16 -18 -16h-175q-47 0 -62 -24t-15 -97t15 -98q15 -24 62 -24h175q18 0 18 -16v-114q0 -17 -18 -22q-65 -18 -175 -18q-93 0 -143.5 12.5
t-80.5 46.5q-30 35 -41 88q-10 50 -10 145q0 96 10.5 147t40.5 85t80.5 46.5t143.5 12.5z" />
    <glyph glyph-name="Iacute" unicode="&#x10c;" horiz-adv-x="640" 
d="M450 1021l44 -21q14 -6 4 -18l-103 -145q-7 -10 -23 -10h-125q-16 0 -23 10l-103 145q-10 12 4 18l44 21q11 6 20 0l121 -77l120 77q9 6 20 0zM374 797q128 0 207 -21q16 -5 22.5 -12t6.5 -22v-112q0 -16 -15 -16h-221q-76 0 -100 -45t-24 -172t24 -174q24 -45 100 -45
h221q15 0 15 -16v-112q0 -27 -29 -34q-73 -21 -207 -21q-198 0 -268 84q-69 84 -69 318q0 123 15.5 196t53.5 119q39 47 101 66t167 19z" />
    <glyph glyph-name="Icircumflex" unicode="&#x10d;" horiz-adv-x="532" 
d="M427 821l44 -21q14 -6 4 -18l-103 -145q-7 -10 -23 -10h-125q-16 0 -23 10l-103 145q-10 12 4 18l44 21q11 6 20 0l121 -77l120 77q9 6 20 0zM309 578q110 0 175 -18q18 -4 18 -22v-114q0 -16 -18 -16h-175q-47 0 -62 -24t-15 -97t15 -98q15 -24 62 -24h175q18 0 18 -16
v-114q0 -17 -18 -22q-65 -18 -175 -18q-93 0 -143.5 12.5t-80.5 46.5q-30 35 -41 88q-10 50 -10 145q0 96 10.5 147t40.5 85t80.5 46.5t143.5 12.5z" />
    <glyph glyph-name="Idieresis" unicode="&#x10e;" horiz-adv-x="751" 
d="M491 1021l44 -21q14 -6 4 -18l-103 -145q-7 -10 -23 -10h-125q-16 0 -23 10l-103 145q-10 12 4 18l44 21q11 6 20 0l121 -77l120 77q9 6 20 0zM379 797q183 0 259 -94q78 -95 78 -309q0 -212 -78 -306q-76 -93 -259 -93q-150 0 -304 14q-14 7 -15 11v750q0 12 15 13
q154 14 304 14zM379 614h-109v-436h109q68 0 96 50t28 166q0 118 -28 169t-96 51z" />
    <glyph glyph-name="Igrave" unicode="&#x10f;" horiz-adv-x="656" 
d="M664 797h180q10 0 10 -10v-7q0 -7 -5 -12l-158 -166q-5 -8 -14 0l-46 34q-7 4 -6 16l23 134q2 11 16 11zM392 791h168q15 0 15 -16v-725q0 -28 -26 -33q-126 -22 -232 -22q-170 0 -227 59q-57 60 -57 232q0 168 49 229q50 63 181 63q49 0 114 -6v203q0 16 15 16zM377 171
v236h-55q-59 0 -75 -22q-16 -20 -16 -99q0 -71 13 -96t68 -25q40 0 65 6z" />
    <glyph glyph-name="Oacute" unicode="&#x110;" horiz-adv-x="770" 
d="M398 797q183 0 259 -94q78 -95 78 -309q0 -212 -78 -306q-77 -93 -259 -93q-150 0 -304 14q-14 7 -15 11v308h-62q-15 0 -15 15v80q0 15 15 15h62v332q0 12 15 13q154 14 304 14zM289 328v-150h109q68 0 96 50t28 166q0 118 -28 169t-96 51h-109v-176h102q15 0 15 -15
v-80q0 -15 -15 -15h-102z" />
    <glyph glyph-name="Ocircumflex" unicode="&#x111;" horiz-adv-x="624" 
d="M575 775v-46h58q15 0 15 -15v-41q0 -15 -15 -15h-58v-608q0 -28 -26 -33q-126 -22 -232 -22q-170 0 -227 59q-57 60 -57 232q0 168 49 229q50 63 181 63q49 0 114 -6v86h-96q-15 0 -15 15v41q0 15 15 15h96v46q0 16 15 16h168q15 0 15 -16zM377 171v236h-55
q-59 0 -75 -22q-16 -20 -16 -99q0 -71 13 -96t68 -25q40 0 65 6z" />
    <glyph glyph-name="apple" unicode="&#x112;" horiz-adv-x="665" 
d="M167 971h320q15 0 15 -15v-80q0 -15 -15 -15h-320q-15 0 -15 15v80q0 15 15 15zM75 791h533q16 0 16 -15v-153q0 -15 -16 -15h-338v-126h311q16 0 16 -15v-143q0 -15 -16 -15h-311v-126h338q16 0 16 -15v-153q0 -15 -16 -15h-533q-15 0 -15 16v759q0 16 15 16z" />
    <glyph glyph-name="Ograve" unicode="&#x113;" horiz-adv-x="599" 
d="M147 771h320q15 0 15 -15v-80q0 -15 -15 -15h-320q-15 0 -15 15v80q0 15 15 15zM306 578q162 0 214 -58q54 -58 54 -234v-32q0 -27 -28 -27h-310q0 -41 18 -52q19 -10 76 -10h190q15 0 15 -15v-120q0 -14 -14 -17q-73 -18 -215 -18q-163 0 -218 58t-55 233t55 233
q56 59 218 59zM306 408q-72 0 -72 -67h141q0 36 -16.5 51.5t-52.5 15.5z" />
    <glyph glyph-name="Uacute" unicode="&#x114;" horiz-adv-x="665" 
d="M440 1009h83q17 0 14 -15q-10 -83 -54 -118q-43 -34 -141 -34t-142 33q-42 34 -53 118q-3 16 14 16h82q12 0 17 -12q19 -46 82 -46q33 0 51.5 10.5t29.5 35.5q6 12 17 12zM75 791h533q16 0 16 -15v-153q0 -15 -16 -15h-338v-126h311q16 0 16 -15v-143q0 -15 -16 -15h-311
v-126h338q16 0 16 -15v-153q0 -15 -16 -15h-533q-15 0 -15 16v759q0 16 15 16z" />
    <glyph glyph-name="Ucircumflex" unicode="&#x115;" horiz-adv-x="599" 
d="M405 809h83q17 0 14 -15q-10 -83 -54 -118q-43 -34 -141 -34q-99 0 -142 33q-42 34 -53 118q-3 16 14 16h82q12 0 17 -12q19 -46 82 -46q33 0 51.5 10.5t29.5 35.5q6 12 17 12zM306 578q162 0 214 -58q54 -58 54 -234v-32q0 -27 -28 -27h-310q0 -41 18 -52q19 -10 76 -10
h190q15 0 15 -15v-120q0 -14 -14 -17q-73 -18 -215 -18q-163 0 -218 58t-55 233t55 233q56 59 218 59zM306 408q-72 0 -72 -67h141q0 36 -16.5 51.5t-52.5 15.5z" />
    <glyph glyph-name="Ugrave" unicode="&#x116;" horiz-adv-x="665" 
d="M327 1015q49 0 75.5 -23t26.5 -67q0 -91 -102 -91q-103 0 -103 91q0 90 103 90zM75 791h533q16 0 16 -15v-153q0 -15 -16 -15h-338v-126h311q16 0 16 -15v-143q0 -15 -16 -15h-311v-126h338q16 0 16 -15v-153q0 -15 -16 -15h-533q-15 0 -15 16v759q0 16 15 16z" />
    <glyph glyph-name="dotlessi" unicode="&#x117;" horiz-adv-x="599" 
d="M307 815q49 0 75.5 -23t26.5 -67q0 -91 -102 -91q-103 0 -103 91q0 90 103 90zM306 578q162 0 214 -58q54 -58 54 -234v-32q0 -27 -28 -27h-310q0 -41 18 -52q19 -10 76 -10h190q15 0 15 -15v-120q0 -14 -14 -17q-73 -18 -215 -18q-163 0 -218 58t-55 233t55 233
q56 59 218 59zM306 408q-72 0 -72 -67h141q0 36 -16.5 51.5t-52.5 15.5z" />
    <glyph glyph-name="circumflex" unicode="&#x118;" horiz-adv-x="665" 
d="M75 791h533q16 0 16 -15v-153q0 -15 -16 -15h-338v-126h311q16 0 16 -15v-143q0 -15 -16 -15h-311v-126h338q16 0 16 -15v-153q0 -15 -16 -15h-102q-3 -22 -3 -40t16 -19q13 -3 39 -3h8h35q13 0 13 -13v-86q0 -13 -12 -18q-21 -8 -98 -8q-118 0 -118 79q0 42 20 108h-331
q-15 0 -15 16v759q0 16 15 16z" />
    <glyph glyph-name="tilde.001" unicode="&#x119;" horiz-adv-x="599" 
d="M306 578q162 0 214 -58q54 -58 54 -234v-32q0 -27 -28 -27h-310q0 -41 18 -52q19 -10 76 -10h190q15 0 15 -15v-120q0 -14 -14 -17q-39 -10 -90 -13q-3 -22 -3 -40t16 -19q13 -3 39 -3h8h35q13 0 13 -13v-86q0 -13 -12 -18q-21 -8 -98 -8q-118 0 -118 79q0 46 19 103h-24
q-163 0 -218 58t-55 233t55 233q56 59 218 59zM306 408q-72 0 -72 -67h141q0 36 -16.5 51.5t-52.5 15.5z" />
    <glyph glyph-name="overscore" unicode="&#x11a;" horiz-adv-x="665" 
d="M467 1021l44 -21q14 -6 4 -18l-103 -145q-7 -10 -23 -10h-125q-16 0 -23 10l-103 145q-10 12 4 18l44 21q11 6 20 0l121 -77l120 77q9 6 20 0zM75 791h533q16 0 16 -15v-153q0 -15 -16 -15h-338v-126h311q16 0 16 -15v-143q0 -15 -16 -15h-311v-126h338q16 0 16 -15v-153
q0 -15 -16 -15h-533q-15 0 -15 16v759q0 16 15 16z" />
    <glyph glyph-name="breve" unicode="&#x11b;" horiz-adv-x="599" 
d="M447 821l44 -21q14 -6 4 -18l-103 -145q-7 -10 -23 -10h-125q-16 0 -23 10l-103 145q-10 12 4 18l44 21q11 6 20 0l121 -77l120 77q9 6 20 0zM306 578q162 0 214 -58q54 -58 54 -234v-32q0 -27 -28 -27h-310q0 -41 18 -52q19 -10 76 -10h190q15 0 15 -15v-120
q0 -14 -14 -17q-73 -18 -215 -18q-163 0 -218 58t-55 233t55 233q56 59 218 59zM306 408q-72 0 -72 -67h141q0 36 -16.5 51.5t-52.5 15.5z" />
    <glyph glyph-name="dotaccent" unicode="&#x11c;" horiz-adv-x="705" 
d="M307 1024h125q16 0 23 -10l103 -145q10 -12 -4 -18l-44 -21q-11 -6 -20 0l-120 77l-121 -77q-9 -6 -20 0l-44 21q-14 6 -4 18l103 145q7 10 23 10zM374 797q160 0 234 -21q16 -4 22.5 -11.5t6.5 -22.5v-112q0 -16 -15 -16h-248q-77 0 -101 -45q-23 -44 -23 -173
q0 -126 24 -173q24 -45 100 -45h99v193q0 17 15 17h166q15 0 15 -17v-270q0 -19 -6 -30q-21 -31 -101 -54q-78 -22 -188 -22q-197 0 -268 83q-69 84 -69 318q0 123 15.5 196.5t53.5 120.5q39 47 101 65.5t167 18.5z" />
    <glyph glyph-name="ring.001" unicode="&#x11d;" 
d="M249 824h125q16 0 23 -10l103 -145q10 -12 -4 -18l-44 -21q-11 -6 -20 0l-120 77l-121 -77q-9 -6 -20 0l-44 21q-14 6 -4 18l103 145q7 10 23 10zM320 578q106 0 232 -22q26 -5 26 -33v-547q0 -71 -23 -111q-21 -37 -76 -55.5t-159 -20.5q-136 0 -224 18q-13 3 -13 16
v108q0 15 13 15h201q48 0 65.5 12t17.5 44v7q-62 -14 -114 -14q-132 0 -183 65q-50 65 -50 241q0 162 58 219q58 58 229 58zM380 172v236h-72q-50 0 -64 -26q-13 -25 -13 -95q0 -76 17 -99q18 -22 77 -22q33 0 55 6z" />
    <glyph glyph-name="cedilla" unicode="&#x11e;" horiz-adv-x="705" 
d="M438 1009h83q17 0 14 -15q-10 -83 -54 -118q-43 -34 -141 -34t-142 33q-42 34 -53 118q-3 16 14 16h82q13 0 17 -12q19 -46 82 -46q33 0 51.5 10.5t29.5 35.5q6 12 17 12zM374 797q160 0 234 -21q16 -4 22.5 -11.5t6.5 -22.5v-112q0 -16 -15 -16h-248q-77 0 -101 -45
q-23 -44 -23 -173q0 -126 24 -173q24 -45 100 -45h99v193q0 17 15 17h166q15 0 15 -17v-270q0 -19 -6 -30q-21 -31 -101 -54q-78 -22 -188 -22q-197 0 -268 83q-69 84 -69 318q0 123 15.5 196.5t53.5 120.5q39 47 101 65.5t167 18.5z" />
    <glyph glyph-name="hungarumlaut" unicode="&#x11f;" 
d="M410 809h83q17 0 14 -15q-10 -83 -54 -118q-43 -34 -141 -34t-142 33q-42 34 -53 118q-3 16 14 16h82q12 0 17 -12q19 -46 82 -46q33 0 51.5 10.5t29.5 35.5q6 12 17 12zM320 578q106 0 232 -22q26 -5 26 -33v-547q0 -71 -23 -111q-21 -37 -76 -55.5t-159 -20.5
q-136 0 -224 18q-13 3 -13 16v108q0 15 13 15h201q48 0 65.5 12t17.5 44v7q-62 -14 -114 -14q-132 0 -183 65q-50 65 -50 241q0 162 58 219q58 58 229 58zM380 172v236h-72q-50 0 -64 -26q-13 -25 -13 -95q0 -76 17 -99q18 -22 77 -22q33 0 55 6z" />
    <glyph glyph-name="ogonek.001" unicode="&#x120;" horiz-adv-x="705" 
d="M340 1015q49 0 75.5 -23t26.5 -67q0 -91 -102 -91q-103 0 -103 91q0 90 103 90zM374 797q160 0 234 -21q16 -4 22.5 -11.5t6.5 -22.5v-112q0 -16 -15 -16h-248q-77 0 -101 -45q-23 -44 -23 -173q0 -126 24 -173q24 -45 100 -45h99v193q0 17 15 17h166q15 0 15 -17v-270
q0 -19 -6 -30q-21 -31 -101 -54q-78 -22 -188 -22q-197 0 -268 83q-69 84 -69 318q0 123 15.5 196.5t53.5 120.5q39 47 101 65.5t167 18.5z" />
    <glyph glyph-name="caron" unicode="&#x121;" 
d="M312 815q49 0 75.5 -23t26.5 -67q0 -91 -102 -91q-103 0 -103 91q0 90 103 90zM320 578q106 0 232 -22q26 -5 26 -33v-547q0 -71 -23 -111q-21 -37 -76 -55.5t-159 -20.5q-136 0 -224 18q-13 3 -13 16v108q0 15 13 15h201q48 0 65.5 12t17.5 44v7q-62 -14 -114 -14
q-132 0 -183 65q-50 65 -50 241q0 162 58 219q58 58 229 58zM380 172v236h-72q-50 0 -64 -26q-13 -25 -13 -95q0 -76 17 -99q18 -22 77 -22q33 0 55 6z" />
    <glyph glyph-name="Lslash" unicode="&#x122;" horiz-adv-x="705" 
d="M374 797q160 0 234 -21q16 -4 22.5 -11.5t6.5 -22.5v-112q0 -16 -15 -16h-248q-77 0 -101 -45q-23 -44 -23 -173q0 -126 24 -173q24 -45 100 -45h99v193q0 17 15 17h166q15 0 15 -17v-270q0 -19 -6 -30q-21 -31 -101 -54q-78 -22 -188 -22q-197 0 -268 83q-69 84 -69 318
q0 123 15.5 196.5t53.5 120.5q39 47 101 65.5t167 18.5zM278 -40h170q10 0 10 -10v-7q0 -7 -5 -12l-179 -136q-5 -5 -14 0l-52 29q-8 5 -3 14l61 116q3 6 12 6z" />
    <glyph glyph-name="lslash" unicode="&#x123;" 
d="M421 801l52 -29q8 -5 3 -14l-61 -116q-3 -6 -12 -6h-170q-10 0 -10 10v7q0 7 5 12l179 136q5 5 14 0zM320 578q106 0 232 -22q26 -5 26 -33v-547q0 -71 -23 -111q-21 -37 -76 -55.5t-159 -20.5q-136 0 -224 18q-13 3 -13 16v108q0 15 13 15h201q48 0 65.5 12t17.5 44v7
q-62 -14 -114 -14q-132 0 -183 65q-50 65 -50 241q0 162 58 219q58 58 229 58zM380 172v236h-72q-50 0 -64 -26q-13 -25 -13 -95q0 -76 17 -99q18 -22 77 -22q33 0 55 6z" />
    <glyph glyph-name="Scaron.001" unicode="&#x124;" horiz-adv-x="799" 
d="M337 1024h125q16 0 23 -10l103 -145q10 -12 -4 -18l-44 -21q-11 -6 -20 0l-120 77l-121 -77q-9 -6 -20 0l-44 21q-14 6 -4 18l103 145q7 10 23 10zM544 791h180q15 0 15 -17v-757q0 -17 -15 -17h-180q-15 0 -15 17v281h-259v-281q0 -17 -15 -17h-180q-15 0 -15 17v757
q0 17 15 17h180q15 0 15 -17v-291h259v291q0 17 15 17z" />
    <glyph glyph-name="scaron.001" unicode="&#x125;" 
d="M84 1024h125q16 0 23 -10l103 -145q10 -12 -4 -18l-44 -21q-11 -6 -20 0l-120 77l-121 -77q-9 -6 -20 0l-44 21q-14 6 -4 18l103 145q7 10 23 10zM63 791h168q15 0 15 -16v-202q47 5 85 5q152 0 201 -49q49 -48 49 -197v-316q0 -16 -15 -16h-169q-14 0 -14 16v249
q0 45 -1 57q0 52 -11 65q-8 13 -25 17t-53 4h-46v-392q0 -16 -15 -16h-170q-14 0 -14 16v759q0 16 15 16z" />
    <glyph glyph-name="Zcaron" unicode="&#x126;" horiz-adv-x="829" 
d="M754 774v-86h57q15 0 15 -15v-41q0 -15 -15 -15h-57v-600q0 -17 -15 -17h-180q-15 0 -15 17v281h-259v-281q0 -17 -15 -17h-180q-15 0 -15 17v600h-58q-15 0 -15 15v41q0 15 15 15h58v86q0 17 15 17h180q15 0 15 -17v-86h259v86q0 17 15 17h180q15 0 15 -17zM285 483h259
v134h-259v-134z" />
    <glyph glyph-name="zcaron" unicode="&#x127;" 
d="M332 578q152 0 201 -49q49 -48 49 -197v-316q0 -16 -15 -16h-169q-14 0 -14 16v249q0 45 -1 57q0 52 -11 65q-8 13 -25 17t-53 4h-46v-392q0 -16 -15 -16h-170q-14 0 -14 16v642h-53q-15 0 -15 15v41q0 15 15 15h53v46q0 16 15 16h168q15 0 15 -16v-46h101q15 0 15 -15
v-41q0 -15 -15 -15h-101v-85q47 5 85 5z" />
    <glyph glyph-name="brokenbar" unicode="&#x128;" horiz-adv-x="330" 
d="M81 1010q31 0 85 -20q51 -19 65 -19q28 0 43 33q6 14 18 9l62 -17q13 -4 10 -19q-17 -78 -42 -106t-74 -28q-34 0 -85 19q-54 20 -65 20q-28 0 -43 -33q-6 -13 -18 -9l-62 17q-13 4 -10 19q17 76 42 105q26 29 74 29zM75 791h180q15 0 15 -17v-757q0 -17 -15 -17h-180
q-15 0 -15 17v757q0 17 15 17z" />
    <glyph glyph-name="Eth" unicode="&#x129;" horiz-adv-x="296" 
d="M65 810q31 0 85 -20q51 -19 65 -19q28 0 43 33q6 14 18 9l62 -17q13 -4 10 -19q-17 -78 -42 -106t-74 -28q-34 0 -85 19q-54 20 -65 20q-28 0 -43 -33q-6 -13 -18 -9l-62 17q-13 4 -10 19q17 76 42 105q26 29 74 29zM64 573h168q15 0 15 -16v-541q0 -16 -15 -16h-168
q-15 0 -15 16v541q0 16 15 16z" />
    <glyph glyph-name="eth" unicode="&#x12a;" horiz-adv-x="330" 
d="M5 971h320q15 0 15 -15v-80q0 -15 -15 -15h-320q-15 0 -15 15v80q0 15 15 15zM75 791h180q15 0 15 -17v-757q0 -17 -15 -17h-180q-15 0 -15 17v757q0 17 15 17z" />
    <glyph glyph-name="Yacute" unicode="&#x12b;" horiz-adv-x="296" 
d="M-12 771h320q15 0 15 -15v-80q0 -15 -15 -15h-320q-15 0 -15 15v80q0 15 15 15zM64 573h168q15 0 15 -16v-541q0 -16 -15 -16h-168q-15 0 -15 16v541q0 16 15 16z" />
    <glyph glyph-name="yacute" unicode="&#x12e;" horiz-adv-x="330" 
d="M75 791h180q15 0 15 -17v-757q0 -17 -15 -17h-99q-3 -22 -3 -40t16 -19q13 -3 39 -3h8h35q13 0 13 -13v-86q0 -13 -12 -18q-21 -8 -98 -8q-118 0 -118 79q0 45 24 125v757q0 17 15 17z" />
    <glyph glyph-name="Thorn" unicode="&#x12f;" horiz-adv-x="296" 
d="M148 815q49 0 75.5 -23t26.5 -67q0 -91 -102 -91q-103 0 -103 91q0 90 103 90zM64 573h168q15 0 15 -16v-541q0 -16 -15 -16h-89q-3 -22 -3 -40t16 -19q13 -3 39 -3h8h35q13 0 13 -13v-86q0 -13 -12 -18q-21 -8 -98 -8q-118 0 -118 79q0 52 26 124v541q0 16 15 16z" />
    <glyph glyph-name="thorn" unicode="&#x130;" horiz-adv-x="330" 
d="M165 1015q49 0 75.5 -23t26.5 -67q0 -91 -102 -91q-103 0 -103 91q0 90 103 90zM75 791h180q15 0 15 -17v-757q0 -17 -15 -17h-180q-15 0 -15 17v757q0 17 15 17z" />
    <glyph glyph-name="minus.001" unicode="&#x131;" horiz-adv-x="296" 
d="M64 573h168q15 0 15 -16v-541q0 -16 -15 -16h-168q-15 0 -15 16v541q0 16 15 16z" />
    <glyph glyph-name="multiply" unicode="&#x132;" horiz-adv-x="932" 
d="M75 791h180q15 0 15 -17v-757q0 -17 -15 -17h-180q-15 0 -15 17v757q0 17 15 17zM504 791h360q15 0 15 -15v-399q0 -222 -71 -302t-268 -80q-92 0 -169 20q-16 4 -22.5 10.5t-6.5 21.5v116q0 15 15 15h183q78 0 103 40q26 41 26 159v231h-164q-17 0 -17 15v153
q0 15 16 15z" />
    <glyph glyph-name="onesuperior" unicode="&#x133;" horiz-adv-x="600" 
d="M149 826q53 0 83 -27t30 -74q0 -48 -30 -75t-83 -27q-54 0 -84 27t-30 75q0 47 30 74t84 27zM64 573h168q15 0 15 -16v-541q0 -16 -15 -16h-168q-15 0 -15 16v541q0 16 15 16zM453 826q53 0 83 -27t30 -74q0 -48 -30 -75t-83 -27q-54 0 -84 27t-30 75q0 47 30 74t84 27z
M368 573h168q15 0 15 -16v-604q0 -99 -39 -131q-39 -33 -132 -33q-70 0 -108 12q-18 6 -18 22v120q0 16 18 16h27q34 0 44 8.5t10 39.5v550q0 16 15 16z" />
    <glyph glyph-name="twosuperior" unicode="&#x134;" horiz-adv-x="594" 
d="M283 1024h125q16 0 23 -10l103 -145q10 -12 -4 -18l-44 -21q-11 -6 -20 0l-120 77l-121 -77q-9 -6 -20 0l-44 21q-14 6 -4 18l103 145q7 10 23 10zM166 791h360q15 0 15 -15v-399q0 -222 -71 -302t-268 -80q-92 0 -169 20q-16 4 -22.5 10.5t-6.5 21.5v116q0 15 15 15h183
q78 0 103 40q26 41 26 159v231h-164q-17 0 -17 15v153q0 15 16 15z" />
    <glyph glyph-name="threesuperior" unicode="&#x135;" horiz-adv-x="304" 
d="M90 824h125q16 0 23 -10l103 -145q10 -12 -4 -18l-44 -21q-11 -6 -20 0l-120 77l-121 -77q-9 -6 -20 0l-44 21q-14 6 -4 18l103 145q7 10 23 10zM72 573h168q15 0 15 -16v-604q0 -99 -39 -131q-39 -33 -132 -33q-70 0 -108 12q-18 6 -18 22v120q0 16 18 16h27
q34 0 44 8.5t10 39.5v550q0 16 15 16z" />
    <glyph glyph-name="onehalf" unicode="&#x136;" horiz-adv-x="733" 
d="M502 791h198q21 0 9 -19l-225 -343l257 -402q17 -27 -17 -27h-200q-16 0 -22 11l-232 371v-366q0 -16 -15 -16h-180q-15 0 -15 16v759q0 16 15 16h180q15 0 15 -16v-321l211 327q7 10 21 10zM287 -40h170q10 0 10 -10v-7q0 -7 -5 -12l-179 -136q-5 -5 -14 0l-52 29
q-8 5 -3 14l61 116q3 6 12 6z" />
    <glyph glyph-name="onequarter" unicode="&#x137;" horiz-adv-x="609" 
d="M64 791h168q15 0 15 -16v-393l124 181q7 10 21 10h183q22 0 9 -19l-145 -207l175 -320q15 -27 -17 -27h-178q-16 0 -22 11l-150 292v-287q0 -16 -15 -16h-168q-15 0 -15 16v759q0 16 15 16zM240 -40h170q10 0 10 -10v-7q0 -7 -5 -12l-179 -136q-5 -5 -14 0l-52 29
q-8 5 -3 14l61 116q3 6 12 6z" />
    <glyph glyph-name="threequarters" unicode="&#x138;" horiz-adv-x="653" 
d="M438 573h196q23 0 11 -19l-172 -262l171 -265q17 -27 -17 -27h-200q-16 0 -22 11l-146 234v-229q0 -16 -15 -16h-180q-15 0 -15 16v541q0 16 15 16h180q15 0 15 -16v-240l158 246q7 10 21 10z" />
    <glyph glyph-name="franc" unicode="&#x139;" horiz-adv-x="597" 
d="M157 1024h199q10 0 10 -10v-7q0 -7 -5 -12l-207 -166q-5 -5 -14 0l-65 36q-8 5 -3 14l73 139q3 6 12 6zM75 791h180q15 0 15 -16v-592h295q16 0 16 -15v-153q0 -15 -16 -15h-490q-15 0 -15 16v759q0 16 15 16z" />
    <glyph glyph-name="Gbreve" unicode="&#x13a;" horiz-adv-x="296" 
d="M146 1021h199q10 0 10 -10v-7q0 -7 -5 -12l-207 -166q-5 -5 -14 0l-65 36q-8 5 -3 14l73 139q3 6 12 6zM64 791h168q15 0 15 -16v-759q0 -16 -15 -16h-168q-15 0 -15 16v759q0 16 15 16z" />
    <glyph glyph-name="gbreve" unicode="&#x13b;" horiz-adv-x="597" 
d="M75 791h180q15 0 15 -16v-592h295q16 0 16 -15v-153q0 -15 -16 -15h-490q-15 0 -15 16v759q0 16 15 16zM233 -40h170q10 0 10 -10v-7q0 -7 -5 -12l-179 -136q-5 -5 -14 0l-52 29q-8 5 -3 14l61 116q3 6 12 6z" />
    <glyph glyph-name="Idot" unicode="&#x13c;" horiz-adv-x="296" 
d="M64 791h168q15 0 15 -16v-759q0 -16 -15 -16h-168q-15 0 -15 16v759q0 16 15 16zM60 -40h170q10 0 10 -10v-7q0 -7 -5 -12l-179 -136q-5 -5 -14 0l-52 29q-8 5 -3 14l61 116q3 6 12 6z" />
    <glyph glyph-name="Scedilla.001" unicode="&#x13d;" horiz-adv-x="591" 
d="M387 797h180q10 0 10 -10v-7q0 -7 -5 -12l-158 -166q-5 -8 -14 0l-46 34q-7 4 -6 16l23 134q2 11 16 11zM75 791h180q15 0 15 -16v-592h295q16 0 16 -15v-153q0 -15 -16 -15h-490q-15 0 -15 16v759q0 16 15 16z" />
    <glyph glyph-name="scedilla.001" unicode="&#x13e;" horiz-adv-x="328" 
d="M340 797h180q10 0 10 -10v-7q0 -7 -5 -12l-158 -166q-5 -8 -14 0l-46 34q-7 4 -6 16l23 134q2 11 16 11zM64 791h168q15 0 15 -16v-759q0 -16 -15 -16h-168q-15 0 -15 16v759q0 16 15 16z" />
    <glyph glyph-name="Cacute" unicode="&#x13f;" horiz-adv-x="599" 
d="M75 791h180q15 0 15 -16v-592h295q16 0 16 -15v-153q0 -15 -16 -15h-490q-15 0 -15 16v759q0 16 15 16zM455 498q49 0 75.5 -23t26.5 -67q0 -91 -102 -91q-103 0 -103 91q0 90 103 90z" />
    <glyph glyph-name="cacute" unicode="&#x140;" horiz-adv-x="542" 
d="M64 791h168q15 0 15 -16v-759q0 -16 -15 -16h-168q-15 0 -15 16v759q0 16 15 16zM418 498q49 0 75.5 -23t26.5 -67q0 -91 -102 -91q-103 0 -103 91q0 90 103 90z" />
    <glyph glyph-name="Ccaron" unicode="&#x141;" horiz-adv-x="624" 
d="M297 433v-250h295q16 0 16 -15v-153q0 -15 -16 -15h-490q-15 0 -15 16v296l-62 -36q-14 -10 -19 6l-21 36q-8 13 5 20l97 56v381q0 16 15 16h180q15 0 15 -16v-260l112 64q15 8 21 -5l21 -36q8 -12 -6 -20z" />
    <glyph glyph-name="ccaron" unicode="&#x142;" horiz-adv-x="358" 
d="M79 791h168q15 0 15 -16v-282l56 32q15 8 21 -5l21 -36q8 -12 -6 -20l-92 -53v-395q0 -16 -15 -16h-168q-15 0 -15 16v281l-31 -18q-14 -10 -19 6l-21 36q-8 13 5 20l66 38v396q0 16 15 16z" />
    <glyph glyph-name="dslash" unicode="&#x143;" horiz-adv-x="798" 
d="M376 1024h199q10 0 10 -10v-7q0 -7 -5 -12l-207 -166q-5 -5 -14 0l-65 36q-8 5 -3 14l73 139q3 6 12 6zM543 791h180q15 0 15 -17v-757q0 -17 -15 -17h-123q-41 0 -64 32l-266 372v-387q0 -17 -15 -17h-180q-15 0 -15 17v757q0 17 15 17h128q20 0 33 -5q12 -5 16.5 -9.5
t17.5 -22.5l258 -360v380q0 17 15 17z" />
    <glyph glyph-name="nacute" unicode="&#x144;" 
d="M289 824h199q10 0 10 -10v-7q0 -7 -5 -12l-207 -166q-5 -5 -14 0l-65 36q-8 5 -3 14l73 139q3 6 12 6zM332 578q152 0 201 -49q49 -48 49 -197v-316q0 -16 -15 -16h-169q-14 0 -14 16v249q0 45 -1 57q0 52 -11 65q-8 13 -25 17t-53 4h-46v-392q0 -16 -15 -16h-170
q-14 0 -14 16v528q0 6 2 9.5t4 4.5t8 2q74 18 269 18z" />
    <glyph glyph-name="uni0145" unicode="&#x145;" horiz-adv-x="798" 
d="M543 791h180q15 0 15 -17v-757q0 -17 -15 -17h-123q-41 0 -64 32l-266 372v-387q0 -17 -15 -17h-180q-15 0 -15 17v757q0 17 15 17h128q20 0 33 -5q12 -5 16.5 -9.5t17.5 -22.5l258 -360v380q0 17 15 17zM337 -40h170q10 0 10 -10v-7q0 -7 -5 -12l-179 -136q-5 -5 -14 0
l-52 29q-8 5 -3 14l61 116q3 6 12 6z" />
    <glyph glyph-name="uni0146" unicode="&#x146;" 
d="M332 578q152 0 201 -49q49 -48 49 -197v-316q0 -16 -15 -16h-169q-14 0 -14 16v249q0 45 -1 57q0 52 -11 65q-8 13 -25 17t-53 4h-46v-392q0 -16 -15 -16h-170q-14 0 -14 16v528q0 6 2 9.5t4 4.5t8 2q74 18 269 18zM227 -40h170q10 0 10 -10v-7q0 -7 -5 -12l-179 -136
q-5 -5 -14 0l-52 29q-8 5 -3 14l61 116q3 6 12 6z" />
    <glyph glyph-name="Ncaron" unicode="&#x147;" horiz-adv-x="798" 
d="M539 1021l44 -21q14 -6 4 -18l-103 -145q-7 -10 -23 -10h-125q-16 0 -23 10l-103 145q-10 12 4 18l44 21q11 6 20 0l121 -77l120 77q9 6 20 0zM543 791h180q15 0 15 -17v-757q0 -17 -15 -17h-123q-41 0 -64 32l-266 372v-387q0 -17 -15 -17h-180q-15 0 -15 17v757
q0 17 15 17h128q20 0 33 -5q12 -5 16.5 -9.5t17.5 -22.5l258 -360v380q0 17 15 17z" />
    <glyph glyph-name="ncaron" unicode="&#x148;" 
d="M452 821l44 -21q14 -6 4 -18l-103 -145q-7 -10 -23 -10h-125q-16 0 -23 10l-103 145q-10 12 4 18l44 21q11 6 20 0l121 -77l120 77q9 6 20 0zM332 578q152 0 201 -49q49 -48 49 -197v-316q0 -16 -15 -16h-169q-14 0 -14 16v249q0 45 -1 57q0 52 -11 65q-8 13 -25 17
t-53 4h-46v-392q0 -16 -15 -16h-170q-14 0 -14 16v528q0 6 2 9.5t4 4.5t8 2q74 18 269 18z" />
    <glyph glyph-name="napostrophe" unicode="&#x149;" 
d="M-26 797h180q10 0 10 -10v-7q0 -7 -5 -12l-158 -166q-5 -8 -14 0l-46 34q-7 4 -6 16l23 134q2 11 16 11zM332 578q152 0 201 -49q49 -48 49 -197v-316q0 -16 -15 -16h-169q-14 0 -14 16v249q0 45 -1 57q0 52 -11 65q-8 13 -25 17t-53 4h-46v-392q0 -16 -15 -16h-170
q-14 0 -14 16v528q0 6 2 9.5t4 4.5t8 2q74 18 269 18z" />
    <glyph glyph-name="Eng" unicode="&#x14a;" horiz-adv-x="797" 
d="M543 791h180q15 0 15 -17v-597q0 -146 -34 -230q-32 -83 -92 -117.5t-164 -34.5q-46 0 -108 13q-29 6 -29 32v123q0 15 15 15h73q119 0 119 105l-248 321v-387q0 -17 -15 -17h-180q-15 0 -15 17v757q0 17 15 17h128q20 0 33 -5q12 -5 16.5 -9.5t17.5 -22.5l258 -360v380
q0 17 15 17z" />
    <glyph glyph-name="eng" unicode="&#x14b;" 
d="M332 578q152 0 201 -49q49 -48 49 -197v-379q0 -99 -39 -131q-39 -33 -132 -33q-71 0 -108 12q-18 6 -18 22v120q0 16 18 16h27q34 0 44 8.5t10 39.5v258q0 45 -1 57q0 52 -11 65q-8 13 -25 17t-53 4h-46v-392q0 -16 -15 -16h-170q-14 0 -14 16v528q0 6 2 9.5t4 4.5t8 2
q74 18 269 18z" />
    <glyph glyph-name="Omacron" unicode="&#x14c;" horiz-adv-x="758" 
d="M219 971h320q15 0 15 -15v-80q0 -15 -15 -15h-320q-15 0 -15 15v80q0 15 15 15zM721 395q-2 -122 -17 -195t-55 -120t-102.5 -65t-167.5 -20q-105 2 -167.5 20t-102.5 65t-55 120t-17 195q0 121 16.5 195.5t55.5 121.5t102 66t168 19t168 -19t102 -66t55.5 -121.5
t16.5 -195.5zM250 395q0 -124 26 -171q25 -46 103 -46t103 46q26 47 26 171q0 125 -26 172t-103 47t-103 -47t-26 -172z" />
    <glyph glyph-name="omacron" unicode="&#x14d;" horiz-adv-x="619" 
d="M150 771h320q15 0 15 -15v-80q0 -15 -15 -15h-320q-15 0 -15 15v80q0 15 15 15zM586 286q0 -174 -56 -233q-55 -58 -221 -58t-221 58t-55 233t55 233q56 59 221 59q166 0 221 -58q56 -59 56 -234zM309 408q-45 0 -62 -24q-15 -24 -15 -98q0 -73 15 -97q17 -24 62 -24
q47 0 62 24q16 23 16 97q0 75 -16 98q-15 24 -62 24z" />
    <glyph glyph-name="Obreve" unicode="&#x14e;" horiz-adv-x="758" 
d="M477 1009h83q17 0 14 -15q-10 -83 -54 -118q-43 -34 -141 -34q-99 0 -142 33q-42 34 -53 118q-3 16 14 16h82q12 0 17 -12q19 -46 82 -46q33 0 51.5 10.5t29.5 35.5q6 12 17 12zM721 395q-2 -122 -17 -195t-55 -120t-102.5 -65t-167.5 -20q-105 2 -167.5 20t-102.5 65
t-55 120t-17 195q0 121 16.5 195.5t55.5 121.5t102 66t168 19t168 -19t102 -66t55.5 -121.5t16.5 -195.5zM250 395q0 -124 26 -171q25 -46 103 -46t103 46q26 47 26 171q0 125 -26 172t-103 47t-103 -47t-26 -172z" />
    <glyph glyph-name="obreve" unicode="&#x14f;" horiz-adv-x="619" 
d="M408 809h83q17 0 14 -15q-10 -83 -54 -118q-43 -34 -141 -34t-142 33q-42 34 -53 118q-3 16 14 16h82q13 0 17 -12q19 -46 82 -46q33 0 51.5 10.5t29.5 35.5q6 12 17 12zM586 286q0 -174 -56 -233q-55 -58 -221 -58t-221 58t-55 233t55 233q56 59 221 59q166 0 221 -58
q56 -59 56 -234zM309 408q-45 0 -62 -24q-15 -24 -15 -98q0 -73 15 -97q17 -24 62 -24q47 0 62 24q16 23 16 97q0 75 -16 98q-15 24 -62 24z" />
    <glyph glyph-name="Ohungarumlaut" unicode="&#x150;" horiz-adv-x="758" 
d="M324 1024h112q10 0 10 -10v-7q0 -9 -5 -12l-156 -152q-6 -6 -14 0l-29 22q-8 6 -3 14l73 139q3 6 12 6zM520 1024h113q10 0 10 -10v-7q0 -7 -5 -12l-157 -152q-6 -6 -14 0l-29 22q-8 6 -3 14l73 139q3 6 12 6zM721 395q-2 -122 -17 -195t-55 -120t-102.5 -65t-167.5 -20
q-105 2 -167.5 20t-102.5 65t-55 120t-17 195q0 121 16.5 195.5t55.5 121.5t102 66t168 19t168 -19t102 -66t55.5 -121.5t16.5 -195.5zM250 395q0 -124 26 -171q25 -46 103 -46t103 46q26 47 26 171q0 125 -26 172t-103 47t-103 -47t-26 -172z" />
    <glyph glyph-name="ohungarumlaut" unicode="&#x151;" horiz-adv-x="619" 
d="M251 824h112q10 0 10 -10v-7q0 -9 -5 -12l-156 -152q-6 -6 -14 0l-29 22q-8 6 -3 14l73 139q3 6 12 6zM447 824h113q10 0 10 -10v-7q0 -7 -5 -12l-157 -152q-6 -6 -14 0l-29 22q-8 6 -3 14l73 139q3 6 12 6zM586 286q0 -174 -56 -233q-55 -58 -221 -58t-221 58t-55 233
t55 233q56 59 221 59q166 0 221 -58q56 -59 56 -234zM309 408q-45 0 -62 -24q-15 -24 -15 -98q0 -73 15 -97q17 -24 62 -24q47 0 62 24q16 23 16 97q0 75 -16 98q-15 24 -62 24z" />
    <glyph glyph-name="OE.001" unicode="&#x152;" horiz-adv-x="1086" 
d="M379 797l350 -6h300q16 0 16 -15v-153q0 -15 -16 -15h-324v-126h297q16 0 16 -15v-143q0 -15 -16 -15h-297v-126h324q16 0 16 -15v-153q0 -15 -16 -15l-650 -5q-199 -2 -270 83q-72 86 -72 317q0 233 72 319t270 83zM495 178v436h-116q-77 0 -103 -47t-26 -172
q0 -124 26 -171q25 -46 103 -46h116z" />
    <glyph glyph-name="oe" unicode="&#x153;" horiz-adv-x="956" 
d="M663 578q162 0 214 -58q54 -58 54 -234v-32q0 -27 -28 -27h-310q0 -41 18 -52q19 -10 76 -10h190q15 0 15 -15v-120q0 -14 -14 -17q-74 -18 -215 -18q-113 0 -175 44q-62 -44 -179 -44q-166 0 -221 58t-55 233t55 233q56 59 221 59q117 0 179 -44q62 44 175 44zM309 408
q-45 0 -62 -24q-15 -24 -15 -98q0 -73 15 -97q17 -24 62 -24q47 0 62 24q16 23 16 97q0 75 -16 98q-15 24 -62 24zM663 408q-72 0 -72 -67h141q0 36 -16.5 51.5t-52.5 15.5z" />
    <glyph glyph-name="Racute" unicode="&#x154;" horiz-adv-x="722" 
d="M346 1024h199q10 0 10 -10v-7q0 -7 -5 -12l-207 -166q-5 -5 -14 0l-65 36q-8 5 -3 14l73 139q3 6 12 6zM392 797q159 0 223 -61t64 -208q0 -109 -32.5 -163t-110.5 -74l170 -271q6 -8 2.5 -14t-14.5 -6h-184q-25 0 -40 22l-162 256h-38v-262q0 -10 -3 -13t-12 -3h-180
q-9 0 -12 3t-3 13v754q0 12 15 13q154 14 317 14zM369 614h-99v-182h99q56 0 76.5 19t20.5 70t-21.5 72t-75.5 21z" />
    <glyph glyph-name="racute" unicode="&#x155;" horiz-adv-x="429" 
d="M224 824h199q10 0 10 -10v-7q0 -7 -5 -12l-207 -166q-5 -5 -14 0l-65 36q-8 5 -3 14l73 139q3 6 12 6zM249 578q88 0 152 -12q18 -3 18 -22v-120q0 -16 -18 -16h-102q-31 0 -42.5 -9.5t-11.5 -38.5v-344q0 -16 -15 -16h-168q-15 0 -15 16v398q0 97 50 130q49 34 152 34z
" />
    <glyph glyph-name="uni0156" unicode="&#x156;" horiz-adv-x="722" 
d="M392 797q159 0 223 -61t64 -208q0 -109 -32.5 -163t-110.5 -74l170 -271q6 -8 2.5 -14t-14.5 -6h-184q-25 0 -40 22l-162 256h-38v-262q0 -10 -3 -13t-12 -3h-180q-9 0 -12 3t-3 13v754q0 12 15 13q154 14 317 14zM369 614h-99v-182h99q56 0 76.5 19t20.5 70t-21.5 72
t-75.5 21zM307 -40h170q10 0 10 -10v-7q0 -7 -5 -12l-179 -136q-5 -5 -14 0l-52 29q-8 5 -3 14l61 116q3 6 12 6z" />
    <glyph glyph-name="uni0157" unicode="&#x157;" horiz-adv-x="429" 
d="M249 578q88 0 152 -12q18 -3 18 -22v-120q0 -16 -18 -16h-102q-31 0 -42.5 -9.5t-11.5 -38.5v-344q0 -16 -15 -16h-168q-15 0 -15 16v398q0 97 50 130q49 34 152 34zM59 -40h170q10 0 10 -10v-7q0 -7 -5 -12l-179 -136q-5 -5 -14 0l-52 29q-8 5 -3 14l61 116q3 6 12 6z
" />
    <glyph glyph-name="Rcaron" unicode="&#x158;" horiz-adv-x="722" 
d="M495 1021l44 -21q14 -6 4 -18l-103 -145q-7 -10 -23 -10h-125q-16 0 -23 10l-103 145q-10 12 4 18l44 21q11 6 20 0l121 -77l120 77q9 6 20 0zM392 797q159 0 223 -61t64 -208q0 -109 -32.5 -163t-110.5 -74l170 -271q6 -8 2.5 -14t-14.5 -6h-184q-25 0 -40 22l-162 256
h-38v-262q0 -10 -3 -13t-12 -3h-180q-9 0 -12 3t-3 13v754q0 12 15 13q154 14 317 14zM369 614h-99v-182h99q56 0 76.5 19t20.5 70t-21.5 72t-75.5 21z" />
    <glyph glyph-name="rcaron" unicode="&#x159;" horiz-adv-x="429" 
d="M360 821l44 -21q14 -6 4 -18l-103 -145q-7 -10 -23 -10h-125q-16 0 -23 10l-103 145q-10 12 4 18l44 21q11 6 20 0l121 -77l120 77q9 6 20 0zM248 578q88 0 152 -12q18 -3 18 -22v-120q0 -16 -18 -16h-102q-31 0 -42.5 -9.5t-11.5 -38.5v-344q0 -16 -15 -16h-168
q-15 0 -15 16v398q0 97 50 130q49 34 152 34z" />
    <glyph glyph-name="Sacute" unicode="&#x15a;" horiz-adv-x="642" 
d="M296 1024h199q10 0 10 -10v-7q0 -7 -5 -12l-207 -166q-5 -5 -14 0l-65 36q-8 5 -3 14l73 139q3 6 12 6zM337 797q113 0 222 -26q22 -7 22 -22v-113q0 -22 -23 -22h-248q-57 0 -57 -41v-11q0 -34 44 -51l159 -57q56 -21 88 -42q73 -48 73 -184v-24q0 -209 -311 -209
q-109 0 -250 28q-22 4 -22 28v104q0 23 24 23h293q54 0 54 37v7q0 23 -14 34.5t-54 24.5l-154 53q-49 17 -77 39q-65 53 -65 195v21q0 109 70 158.5t226 49.5z" />
    <glyph glyph-name="sacute" unicode="&#x15b;" horiz-adv-x="523" 
d="M284 824h199q10 0 10 -10v-7q0 -7 -5 -12l-207 -166q-5 -5 -14 0l-65 36q-8 5 -3 14l73 139q3 6 12 6zM291 578q87 0 164 -18q17 -5 17 -16v-107q0 -16 -18 -16h-177q-44 0 -44 -21v-7q0 -14 34 -24l123 -38q109 -34 109 -159v-19q0 -81 -59 -119.5t-163 -38.5
q-137 0 -231 10q-10 0 -13.5 3t-3.5 12v117q0 16 18 16h225q20 0 27 3.5t7 12.5v5q0 14 -52 30l-106 33q-108 35 -108 161v17q0 82 60.5 122.5t190.5 40.5z" />
    <glyph glyph-name="Scircumflex" unicode="&#x15c;" horiz-adv-x="642" 
d="M256 1024h125q16 0 23 -10l103 -145q10 -12 -4 -18l-44 -21q-11 -6 -20 0l-120 77l-121 -77q-9 -6 -20 0l-44 21q-14 6 -4 18l103 145q7 10 23 10zM337 797q113 0 222 -26q22 -7 22 -22v-113q0 -22 -23 -22h-248q-57 0 -57 -41v-11q0 -34 44 -51l159 -57q56 -21 88 -42
q73 -48 73 -184v-24q0 -209 -311 -209q-109 0 -250 28q-22 4 -22 28v104q0 23 24 23h293q54 0 54 37v7q0 23 -14 34.5t-54 24.5l-154 53q-49 17 -77 39q-65 53 -65 195v21q0 109 70 158.5t226 49.5z" />
    <glyph glyph-name="scircumflex" unicode="&#x15d;" horiz-adv-x="523" 
d="M211 824h125q16 0 23 -10l103 -145q10 -12 -4 -18l-44 -21q-11 -6 -20 0l-120 77l-121 -77q-9 -6 -20 0l-44 21q-14 6 -4 18l103 145q7 10 23 10zM291 578q87 0 164 -18q17 -5 17 -16v-107q0 -16 -18 -16h-177q-44 0 -44 -21v-7q0 -14 34 -24l123 -38q109 -34 109 -159
v-19q0 -81 -59 -119.5t-163 -38.5q-137 0 -231 10q-10 0 -13.5 3t-3.5 12v117q0 16 18 16h225q20 0 27 3.5t7 12.5v5q0 14 -52 30l-106 33q-108 35 -108 161v17q0 82 60.5 122.5t190.5 40.5z" />
    <glyph glyph-name="Scedilla" unicode="&#x15e;" horiz-adv-x="642" 
d="M337 797q113 0 222 -26q22 -7 22 -22v-113q0 -22 -23 -22h-248q-57 0 -57 -41v-11q0 -34 44 -51l159 -57q56 -21 88 -42q73 -48 73 -184v-24q0 -170 -202 -201q21 -63 21 -111q0 -79 -118 -79q-77 0 -98 8q-12 5 -12 18v86q0 13 13 13h35q49 0 57 8q6 4 6 14q0 14 -3 35
h-10q-109 0 -250 28q-22 4 -22 28v104q0 23 24 23h293q54 0 54 37v7q0 23 -14 34.5t-54 24.5l-154 53q-49 17 -77 39q-65 53 -65 195v21q0 109 70 158.5t226 49.5z" />
    <glyph glyph-name="scedilla" unicode="&#x15f;" horiz-adv-x="523" 
d="M267 369l123 -38q109 -34 109 -159v-19q0 -118 -130 -149q22 -63 22 -112q0 -79 -118 -79q-77 0 -98 8q-12 5 -12 18v86q0 13 13 13h35q49 0 57 8q6 4 6 14q0 14 -3 35q-134 0 -225 10q-10 0 -13.5 3t-3.5 12v117q0 16 18 16h225q20 0 27 3.5t7 12.5v5q0 14 -52 30
l-106 33q-108 35 -108 161v17q0 82 60.5 122.5t190.5 40.5q87 0 164 -18q17 -5 17 -16v-107q0 -16 -18 -16h-177q-44 0 -44 -21v-7q0 -14 34 -24z" />
    <glyph glyph-name="Scaron" unicode="&#x160;" horiz-adv-x="642" 
d="M459 1021l44 -21q14 -6 4 -18l-103 -145q-7 -10 -23 -10h-125q-16 0 -23 10l-103 145q-10 12 4 18l44 21q11 6 20 0l121 -77l120 77q9 6 20 0zM337 797q113 0 222 -26q22 -7 22 -22v-113q0 -22 -23 -22h-248q-57 0 -57 -41v-11q0 -34 44 -51l159 -57q56 -21 88 -42
q73 -48 73 -184v-24q0 -209 -311 -209q-109 0 -250 28q-22 4 -22 28v104q0 23 24 23h293q54 0 54 37v7q0 23 -14 34.5t-54 24.5l-154 53q-49 17 -77 39q-65 53 -65 195v21q0 109 70 158.5t226 49.5z" />
    <glyph glyph-name="scaron" unicode="&#x161;" horiz-adv-x="523" 
d="M414 821l44 -21q14 -6 4 -18l-103 -145q-7 -10 -23 -10h-125q-16 0 -23 10l-103 145q-10 12 4 18l44 21q11 6 20 0l121 -77l120 77q9 6 20 0zM291 578q87 0 164 -18q17 -5 17 -16v-107q0 -16 -18 -16h-177q-44 0 -44 -21v-7q0 -14 34 -24l123 -38q109 -34 109 -159v-19
q0 -81 -59 -119.5t-163 -38.5q-137 0 -231 10q-10 0 -13.5 3t-3.5 12v117q0 16 18 16h225q20 0 27 3.5t7 12.5v5q0 14 -52 30l-106 33q-108 35 -108 161v17q0 82 60.5 122.5t190.5 40.5z" />
    <glyph glyph-name="uni0162" unicode="&#x162;" horiz-adv-x="659" 
d="M32 791h595q16 0 16 -15v-153q0 -15 -16 -15h-193v-592q26 -72 26 -124q0 -79 -118 -79q-77 0 -98 8q-12 5 -12 18v86q0 13 13 13h35q49 0 57 8q6 4 6 14q0 18 -3 40h-101q-15 0 -15 16v592h-192q-16 0 -16 15v153q0 15 16 15z" />
    <glyph glyph-name="uni0163" unicode="&#x163;" horiz-adv-x="412" 
d="M343 165h35q18 0 18 -16v-120q0 -19 -18 -22q-49 -8 -73 -10q19 -57 19 -105q0 -79 -118 -79q-77 0 -98 8q-12 5 -12 18v86q0 13 13 13h35q49 0 57 8q6 4 6 14q0 16 -3 37q-59 6 -86 37.5t-27 104.5v286h-60q-18 0 -18 16v112q0 15 18 15h60v102q0 8 2.5 10.5t12.5 5.5
l168 44q7 2 11 -2t4 -14v-146h80q18 0 18 -15v-112q0 -16 -18 -16h-80v-212q0 -29 11.5 -38.5t42.5 -9.5z" />
    <glyph glyph-name="Tcaron" unicode="&#x164;" horiz-adv-x="659" 
d="M469 1021l44 -21q14 -6 4 -18l-103 -145q-7 -10 -23 -10h-125q-16 0 -23 10l-103 145q-10 12 4 18l44 21q11 6 20 0l121 -77l120 77q9 6 20 0zM32 791h595q16 0 16 -15v-153q0 -15 -16 -15h-193v-592q0 -16 -15 -16h-180q-15 0 -15 16v592h-192q-16 0 -16 15v153
q0 15 16 15z" />
    <glyph glyph-name="tcaron" unicode="&#x165;" horiz-adv-x="436" 
d="M400 797h180q10 0 10 -10v-7q0 -7 -5 -12l-156 -150q-8 -6 -16 -2l-46 20q-7 3 -6 16l23 134q2 11 16 11zM106 686l168 44q7 2 11 -2t4 -14v-146h80q18 0 18 -15v-112q0 -16 -18 -16h-80v-212q0 -29 11.5 -38.5t42.5 -9.5h35q18 0 18 -16v-120q0 -19 -18 -22
q-64 -12 -112 -12q-65 0 -104 10q-36 11 -52 41t-19 93v286h-60q-18 0 -18 16v112q0 15 18 15h60v102q0 8 2.5 10.5t12.5 5.5z" />
    <glyph glyph-name="Tbar" unicode="&#x166;" horiz-adv-x="673" 
d="M39 791h595q16 0 16 -15v-153q0 -15 -16 -15h-193v-184h132q15 0 15 -15v-74q0 -15 -15 -15h-132v-304q0 -16 -15 -16h-180q-15 0 -15 16v304h-130q-15 0 -15 15v74q0 15 15 15h130v184h-192q-16 0 -16 15v153q0 15 16 15z" />
    <glyph glyph-name="tbar" unicode="&#x167;" horiz-adv-x="413" 
d="M343 165h35q18 0 18 -16v-120q0 -19 -18 -22q-64 -12 -112 -12q-65 0 -104 10q-36 11 -52 41t-19 93v119h-35q-15 0 -15 15v62q0 15 15 15h35v75h-60q-18 0 -18 16v112q0 15 18 15h60v102q0 8 2.5 10.5t12.5 5.5l168 44q7 2 11 -2t4 -14v-146h80q18 0 18 -15v-112
q0 -16 -18 -16h-80v-75h56q15 0 15 -15v-62q0 -15 -15 -15h-56v-45q0 -29 11.5 -38.5t42.5 -9.5z" />
    <glyph glyph-name="Utilde" unicode="&#x168;" horiz-adv-x="774" 
d="M303 1010q31 0 85 -20q51 -19 65 -19q28 0 43 33q6 14 18 9l62 -17q13 -4 10 -19q-17 -78 -42 -106t-74 -28q-34 0 -85 19q-54 20 -65 20q-28 0 -43 -33q-6 -13 -18 -9l-62 17q-13 4 -10 19q17 76 42 105q26 29 74 29zM526 791h180q15 0 15 -15v-381q0 -189 -41 -279
q-34 -68 -100 -93.5t-193 -27.5q-156 0 -233 48q-57 42 -78.5 121.5t-22.5 230.5v381q0 15 15 15h180q15 0 15 -15v-381q0 -131 25 -174t99 -43t99 43t25 174v381q0 15 15 15z" />
    <glyph glyph-name="utilde" unicode="&#x169;" 
d="M213 810q31 0 85 -20q51 -19 65 -19q28 0 43 33q6 14 18 9l62 -17q13 -4 10 -19q-17 -78 -42 -106t-74 -28q-34 0 -85 19q-54 20 -65 20q-28 0 -43 -33q-6 -13 -18 -9l-62 17q-13 4 -10 19q17 76 42 105q26 29 74 29zM394 573h170q14 0 14 -16v-526q0 -9 -2.5 -12.5
t-11.5 -5.5q-95 -18 -269 -18q-151 0 -201 48q-49 49 -49 198v316q0 16 16 16h168q14 0 14 -16v-249v-58q2 -49 11 -65q22 -24 79 -20h46v392q0 16 15 16z" />
    <glyph glyph-name="Umacron" unicode="&#x16a;" horiz-adv-x="774" 
d="M227 971h320q15 0 15 -15v-80q0 -15 -15 -15h-320q-15 0 -15 15v80q0 15 15 15zM526 791h180q15 0 15 -15v-381q0 -189 -41 -279q-34 -68 -100 -93.5t-193 -27.5q-156 0 -233 48q-57 42 -78.5 121.5t-22.5 230.5v381q0 15 15 15h180q15 0 15 -15v-381q0 -131 25 -174
t99 -43t99 43t25 174v381q0 15 15 15z" />
    <glyph glyph-name="umacron" unicode="&#x16b;" 
d="M137 771h320q15 0 15 -15v-80q0 -15 -15 -15h-320q-15 0 -15 15v80q0 15 15 15zM394 573h170q14 0 14 -16v-526q0 -9 -2.5 -12.5t-11.5 -5.5q-95 -18 -269 -18q-151 0 -201 48q-49 49 -49 198v316q0 16 16 16h168q14 0 14 -16v-249v-58q2 -49 11 -65q22 -24 79 -20h46
v392q0 16 15 16z" />
    <glyph glyph-name="Ubreve" unicode="&#x16c;" horiz-adv-x="774" 
d="M485 1009h83q17 0 14 -15q-10 -83 -54 -118q-43 -34 -141 -34q-99 0 -142 33q-42 34 -53 118q-3 16 14 16h82q12 0 17 -12q19 -46 82 -46q33 0 51.5 10.5t29.5 35.5q6 12 17 12zM526 791h180q15 0 15 -15v-381q0 -189 -41 -279q-34 -68 -100 -93.5t-193 -27.5
q-156 0 -233 48q-57 42 -78.5 121.5t-22.5 230.5v381q0 15 15 15h180q15 0 15 -15v-381q0 -131 25 -174t99 -43t99 43t25 174v381q0 15 15 15z" />
    <glyph glyph-name="ubreve" unicode="&#x16d;" 
d="M395 809h83q17 0 14 -15q-10 -83 -54 -118q-43 -34 -141 -34q-99 0 -142 33q-42 34 -53 118q-3 16 14 16h82q12 0 17 -12q19 -46 82 -46q33 0 51.5 10.5t29.5 35.5q6 12 17 12zM394 573h170q14 0 14 -16v-526q0 -9 -2.5 -12.5t-11.5 -5.5q-95 -18 -269 -18
q-151 0 -201 48q-49 49 -49 198v316q0 16 16 16h168q14 0 14 -16v-249v-58q2 -49 11 -65q22 -24 79 -20h46v392q0 16 15 16z" />
    <glyph glyph-name="Uring" unicode="&#x16e;" horiz-adv-x="774" 
d="M260 942q0 122 127 122t127 -122t-127 -122t-127 122zM449 942q0 62 -62 62t-62 -62t62 -62t62 62zM526 791h180q15 0 15 -15v-381q0 -189 -41 -279q-34 -68 -100 -93.5t-193 -27.5q-156 0 -233 48q-57 42 -78.5 121.5t-22.5 230.5v381q0 15 15 15h180q15 0 15 -15v-381
q0 -131 25 -174t99 -43t99 43t25 174v381q0 15 15 15z" />
    <glyph glyph-name="uring" unicode="&#x16f;" 
d="M170 742q0 122 127 122t127 -122t-127 -122t-127 122zM359 742q0 62 -62 62t-62 -62t62 -62t62 62zM394 573h170q14 0 14 -16v-526q0 -9 -2.5 -12.5t-11.5 -5.5q-95 -18 -269 -18q-151 0 -201 48q-49 49 -49 198v316q0 16 16 16h168q14 0 14 -16v-249v-58q2 -49 11 -65
q22 -24 79 -20h46v392q0 16 15 16z" />
    <glyph glyph-name="Uhungarumlaut" unicode="&#x170;" horiz-adv-x="774" 
d="M305 1024h112q10 0 10 -10v-7q0 -9 -5 -12l-156 -152q-6 -6 -14 0l-29 22q-8 6 -3 14l73 139q3 6 12 6zM501 1024h113q10 0 10 -10v-7q0 -7 -5 -12l-157 -152q-6 -6 -14 0l-29 22q-8 6 -3 14l73 139q3 6 12 6zM526 791h180q15 0 15 -15v-381q0 -189 -41 -279
q-34 -68 -100 -93.5t-193 -27.5q-156 0 -233 48q-57 42 -78.5 121.5t-22.5 230.5v381q0 15 15 15h180q15 0 15 -15v-381q0 -131 25 -174t99 -43t99 43t25 174v381q0 15 15 15z" />
    <glyph glyph-name="uhungarumlaut" unicode="&#x171;" 
d="M233 824h112q10 0 10 -10v-7q0 -9 -5 -12l-156 -152q-6 -6 -14 0l-29 22q-8 6 -3 14l73 139q3 6 12 6zM429 824h113q10 0 10 -10v-7q0 -7 -5 -12l-157 -152q-6 -6 -14 0l-29 22q-8 6 -3 14l73 139q3 6 12 6zM394 573h170q14 0 14 -16v-526q0 -9 -2.5 -12.5t-11.5 -5.5
q-95 -18 -269 -18q-151 0 -201 48q-49 49 -49 198v316q0 16 16 16h168q14 0 14 -16v-249v-58q2 -49 11 -65q22 -24 79 -20h46v392q0 16 15 16z" />
    <glyph glyph-name="Uogonek" unicode="&#x172;" horiz-adv-x="774" 
d="M526 791h180q15 0 15 -15v-381q0 -221 -56 -306q-56 -83 -217 -92q-3 -22 -3 -37q0 -18 16 -19q13 -3 39 -3h8h35q13 0 13 -13v-86q0 -13 -12 -18q-21 -8 -98 -8q-118 0 -118 79q0 47 19 104q-92 3 -146 23t-89 66q-33 47 -46 118.5t-13 191.5v381q0 15 15 15h180
q15 0 15 -15v-381q0 -131 25 -174t99 -43t99 43t25 174v381q0 15 15 15z" />
    <glyph glyph-name="uogonek" unicode="&#x173;" 
d="M394 573h170q14 0 14 -16v-526q0 -9 -2.5 -12.5t-11.5 -5.5q-29 -6 -87 -11q-4 -19 -4 -42q0 -18 16 -19q13 -3 39 -3h8h35q13 0 13 -13v-86q0 -13 -12 -18q-21 -8 -98 -8q-118 0 -118 79q0 47 19 104q-17 -1 -80 -1q-151 0 -201 48q-49 49 -49 198v316q0 16 16 16h168
q14 0 14 -16v-249v-58q2 -49 11 -65q22 -24 79 -20h46v392q0 16 15 16z" />
    <glyph glyph-name="Wcircumflex" unicode="&#x174;" horiz-adv-x="1108" 
d="M491 1024h125q16 0 23 -10l103 -145q10 -12 -4 -18l-44 -21q-11 -6 -20 0l-120 77l-121 -77q-9 -6 -20 0l-44 21q-14 6 -4 18l103 145q7 10 23 10zM897 791h183q18 0 15 -17l-114 -657q-13 -80 -43 -102q-29 -20 -125 -20q-74 0 -109 8q-32 9 -48 32t-30 82l-72 306
l-72 -306q-14 -60 -30 -82q-17 -23 -49 -32q-34 -8 -108 -8q-96 0 -125 20q-30 22 -43 102l-114 657q-3 17 15 17h183q12 0 15 -17l89 -547q2 -8 9 -8t9 8l121 523q5 17 23 17h154q18 0 23 -17l121 -523q2 -8 9 -8t9 8l89 547q3 17 15 17z" />
    <glyph glyph-name="wcircumflex" unicode="&#x175;" horiz-adv-x="928" 
d="M401 824h125q16 0 23 -10l103 -145q10 -12 -4 -18l-44 -21q-11 -6 -20 0l-120 77l-121 -77q-9 -6 -20 0l-44 21q-14 6 -4 18l103 145q7 10 23 10zM723 573h179q13 0 12 -13l-84 -477q-10 -55 -42 -72q-31 -16 -115 -16q-105 0 -135 14q-28 13 -40 74l-34 166l-34 -166
q-12 -60 -41 -74q-30 -14 -134 -14q-84 0 -115 16q-32 17 -42 72l-84 477q-1 13 12 13h179q9 0 10 -13l56 -404q1 -2 7 -2t6 2l89 387q3 12 17 12h148q14 0 17 -12l89 -387q0 -2 6 -2t7 2l56 404q1 13 10 13z" />
    <glyph glyph-name="Ycircumflex" unicode="&#x176;" horiz-adv-x="765" 
d="M320 1024h125q16 0 23 -10l103 -145q10 -12 -4 -18l-44 -21q-11 -6 -20 0l-120 77l-121 -77q-9 -6 -20 0l-44 21q-14 6 -4 18l103 145q7 10 23 10zM554 791h202q23 0 11 -22l-280 -503v-249q0 -17 -15 -17h-180q-15 0 -15 17v252l-279 500q-12 22 11 22h202q15 0 27 -16
l144 -306l145 306q7 16 27 16z" />
    <glyph glyph-name="ycircumflex" unicode="&#x177;" horiz-adv-x="647" 
d="M251 824h125q16 0 23 -10l103 -145q10 -12 -4 -18l-44 -21q-11 -6 -20 0l-120 77l-121 -77q-9 -6 -20 0l-44 21q-14 6 -4 18l103 145q7 10 23 10zM414 573h168q15 0 15 -15v-582q0 -71 -23 -111q-21 -37 -76 -55.5t-159 -20.5q-136 0 -224 18q-13 3 -13 16v108
q0 15 13 15h201q48 0 65.5 12t17.5 44v7q-62 -14 -114 -14q-127 0 -184 59t-57 184v320q0 15 15 15h168q15 0 15 -15v-271q0 -75 20 -98q21 -23 82 -23q32 0 55 6v386q0 15 15 15z" />
    <glyph glyph-name="Ydieresis" unicode="&#x178;" horiz-adv-x="765" 
d="M348 925q0 -41 -23.5 -63.5t-68.5 -22.5t-69 22.5t-24 63.5q0 40 24 62.5t69 22.5t68.5 -22.5t23.5 -62.5zM602 925q0 -41 -23.5 -63.5t-68.5 -22.5t-69 22.5t-24 63.5q0 40 24 62.5t69 22.5t68.5 -22.5t23.5 -62.5zM554 791h202q23 0 11 -22l-280 -503v-249
q0 -17 -15 -17h-180q-15 0 -15 17v252l-279 500q-12 22 11 22h202q15 0 27 -16l144 -306l145 306q7 16 27 16z" />
    <glyph glyph-name="Zacute" unicode="&#x179;" horiz-adv-x="715" 
d="M334 1024h199q10 0 10 -10v-7q0 -7 -5 -12l-207 -166q-5 -5 -14 0l-65 36q-8 5 -3 14l73 139q3 6 12 6zM54 791h608q15 0 15 -16v-142q0 -13 -7 -20l-363 -430h363q16 0 16 -16v-151q0 -16 -16 -16h-627q-15 0 -15 16l-1 140q0 13 7 20l361 432h-340q-16 0 -16 15l-1 152
q0 16 16 16z" />
    <glyph glyph-name="zacute" unicode="&#x17a;" horiz-adv-x="562" 
d="M261 824h199q10 0 10 -10v-7q0 -7 -5 -12l-207 -166q-5 -5 -14 0l-65 36q-8 5 -3 14l73 139q3 6 12 6zM55 573h447q18 0 18 -16v-110q0 -8 -8 -19l-199 -258h205q18 0 18 -16v-138q0 -16 -18 -16h-473q-18 0 -18 16v102q0 12 7 19l218 271h-197q-18 0 -18 16v133
q0 16 18 16z" />
    <glyph glyph-name="Zdotaccent" unicode="&#x17b;" horiz-adv-x="715" 
d="M357 1015q49 0 75.5 -23t26.5 -67q0 -91 -102 -91q-103 0 -103 91q0 90 103 90zM54 791h608q15 0 15 -16v-142q0 -13 -7 -20l-363 -430h363q16 0 16 -16v-151q0 -16 -16 -16h-627q-15 0 -15 16l-1 140q0 13 7 20l361 432h-340q-16 0 -16 15l-1 152q0 16 16 16z" />
    <glyph glyph-name="zdotaccent" unicode="&#x17c;" horiz-adv-x="562" 
d="M284 815q49 0 75.5 -23t26.5 -67q0 -91 -102 -91q-103 0 -103 91q0 90 103 90zM55 573h447q18 0 18 -16v-110q0 -8 -8 -19l-199 -258h205q18 0 18 -16v-138q0 -16 -18 -16h-473q-18 0 -18 16v102q0 12 7 19l218 271h-197q-18 0 -18 16v133q0 16 18 16z" />
    <glyph glyph-name="Zcaron.001" unicode="&#x17d;" horiz-adv-x="715" 
d="M497 1021l44 -21q14 -6 4 -18l-103 -145q-7 -10 -23 -10h-125q-16 0 -23 10l-103 145q-10 12 4 18l44 21q11 6 20 0l121 -77l120 77q9 6 20 0zM54 791h608q15 0 15 -16v-142q0 -13 -7 -20l-363 -430h363q16 0 16 -16v-151q0 -16 -16 -16h-627q-15 0 -15 16l-1 140
q0 13 7 20l361 432h-340q-16 0 -16 15l-1 152q0 16 16 16z" />
    <glyph glyph-name="zcaron.001" unicode="&#x17e;" horiz-adv-x="562" 
d="M424 821l44 -21q14 -6 4 -18l-103 -145q-7 -10 -23 -10h-125q-16 0 -23 10l-103 145q-10 12 4 18l44 21q11 6 20 0l121 -77l120 77q9 6 20 0zM55 573h447q18 0 18 -16v-110q0 -8 -8 -19l-199 -258h205q18 0 18 -16v-138q0 -16 -18 -16h-473q-18 0 -18 16v102q0 12 7 19
l218 271h-197q-18 0 -18 16v133q0 16 18 16z" />
    <glyph glyph-name="florin" unicode="&#x192;" horiz-adv-x="650" 
d="M491 796q61 0 125 -14q26 -2 23 -26l-17 -116q-3 -14 -19 -14h-96q-35 0 -40 -32l-11 -84h104q15 0 15 -15v-120q0 -15 -15 -15h-125l-29 -206q-13 -96 -65 -128q-50 -31 -151 -31q-61 0 -125 14q-26 2 -23 26l17 120q1 8 2.5 9t11.5 1h101q35 0 40 32l23 163h-54
q-19 0 -19 22v113q0 15 15 15h79l18 128q13 96 64 127q50 31 151 31z" />
    <glyph glyph-name="uni01CD" unicode="&#x1cd;" horiz-adv-x="742" 
d="M511 1021l44 -21q14 -6 4 -18l-103 -145q-7 -10 -23 -10h-125q-16 0 -23 10l-103 145q-10 12 4 18l44 21q11 6 20 0l121 -77l120 77q9 6 20 0zM564 675l180 -659q3 -16 -13 -16h-175q-6 0 -8.5 3t-5.5 13l-53 196h-236l-53 -196q-2 -10 -4.5 -13t-9.5 -3h-175
q-16 0 -13 16l180 659q22 83 55 103q31 19 138 19q106 0 138 -20q33 -20 55 -102zM362 618l-63 -236h144l-65 236q-2 6 -8 6t-8 -6z" />
    <glyph glyph-name="uni01CE" unicode="&#x1ce;" horiz-adv-x="591" 
d="M436 821l44 -21q14 -6 4 -18l-103 -145q-7 -10 -23 -10h-125q-16 0 -23 10l-103 145q-10 12 4 18l44 21q11 6 20 0l121 -77l120 77q9 6 20 0zM287 578q130 0 193 -35q27 -15 42 -41q23 -40 23 -111v-342q0 -29 -26 -33q-108 -21 -232 -21q-41 0 -79 2q-82 2 -117 23
q-74 46 -69 159q1 108 60 142q51 31 170 31l95 1v5q0 50 -60 50h-210q-13 0 -13 15v121q0 13 13 16q89 18 210 18zM347 159v80h-74q-33 0 -44.5 -10t-11.5 -35q0 -24 12 -33t45 -9q46 0 73 7z" />
    <glyph glyph-name="uni01CF" unicode="&#x1cf;" horiz-adv-x="330" 
d="M305 1021l44 -21q14 -6 4 -18l-103 -145q-7 -10 -23 -10h-125q-16 0 -23 10l-103 145q-10 12 4 18l44 21q11 6 20 0l121 -77l120 77q9 6 20 0zM75 791h180q15 0 15 -17v-757q0 -17 -15 -17h-180q-15 0 -15 17v757q0 17 15 17z" />
    <glyph glyph-name="uni01D0" unicode="&#x1d0;" horiz-adv-x="296" 
d="M289 821l44 -21q14 -6 4 -18l-103 -145q-7 -10 -23 -10h-125q-16 0 -23 10l-103 145q-10 12 4 18l44 21q11 6 20 0l121 -77l120 77q9 6 20 0zM64 573h168q15 0 15 -16v-541q0 -16 -15 -16h-168q-15 0 -15 16v541q0 16 15 16z" />
    <glyph glyph-name="uni01D1" unicode="&#x1d1;" horiz-adv-x="758" 
d="M519 1021l44 -21q14 -6 4 -18l-103 -145q-7 -10 -23 -10h-125q-16 0 -23 10l-103 145q-10 12 4 18l44 21q11 6 20 0l121 -77l120 77q9 6 20 0zM721 395q-2 -122 -17 -195t-55 -120t-102.5 -65t-167.5 -20q-105 2 -167.5 20t-102.5 65t-55 120t-17 195q0 121 16.5 195.5
t55.5 121.5t102 66t168 19t168 -19t102 -66t55.5 -121.5t16.5 -195.5zM250 395q0 -124 26 -171q25 -46 103 -46t103 46q26 47 26 171q0 125 -26 172t-103 47t-103 -47t-26 -172z" />
    <glyph glyph-name="uni01D2" unicode="&#x1d2;" horiz-adv-x="619" 
d="M450 821l44 -21q14 -6 4 -18l-103 -145q-7 -10 -23 -10h-125q-16 0 -23 10l-103 145q-10 12 4 18l44 21q11 6 20 0l121 -77l120 77q9 6 20 0zM586 286q0 -174 -56 -233q-55 -58 -221 -58t-221 58t-55 233t55 233q56 59 221 59q166 0 221 -58q56 -59 56 -234zM309 408
q-45 0 -62 -24q-15 -24 -15 -98q0 -73 15 -97q17 -24 62 -24q47 0 62 24q16 23 16 97q0 75 -16 98q-15 24 -62 24z" />
    <glyph glyph-name="uni01D3" unicode="&#x1d3;" horiz-adv-x="774" 
d="M527 1021l44 -21q14 -6 4 -18l-103 -145q-7 -10 -23 -10h-125q-16 0 -23 10l-103 145q-10 12 4 18l44 21q11 6 20 0l121 -77l120 77q9 6 20 0zM526 791h180q15 0 15 -15v-381q0 -189 -41 -279q-34 -68 -100 -93.5t-193 -27.5q-156 0 -233 48q-57 42 -78.5 121.5
t-22.5 230.5v381q0 15 15 15h180q15 0 15 -15v-381q0 -131 25 -174t99 -43t99 43t25 174v381q0 15 15 15z" />
    <glyph glyph-name="uni01D4" unicode="&#x1d4;" 
d="M437 821l44 -21q14 -6 4 -18l-103 -145q-7 -10 -23 -10h-125q-16 0 -23 10l-103 145q-10 12 4 18l44 21q11 6 20 0l121 -77l120 77q9 6 20 0zM394 573h170q14 0 14 -16v-526q0 -9 -2.5 -12.5t-11.5 -5.5q-95 -18 -269 -18q-151 0 -201 48q-49 49 -49 198v316q0 16 16 16
h168q14 0 14 -16v-249v-58q2 -49 11 -65q22 -24 79 -20h46v392q0 16 15 16z" />
    <glyph glyph-name="uni01D5" unicode="&#x1d5;" horiz-adv-x="774" 
d="M227 1189h320q15 0 15 -15v-80q0 -15 -15 -15h-320q-15 0 -15 15v80q0 15 15 15zM352 925q0 -41 -23.5 -63.5t-68.5 -22.5t-69 22.5t-24 63.5q0 40 24 62.5t69 22.5t68.5 -22.5t23.5 -62.5zM606 925q0 -41 -23.5 -63.5t-68.5 -22.5t-69 22.5t-24 63.5q0 40 24 62.5
t69 22.5t68.5 -22.5t23.5 -62.5zM526 791h180q15 0 15 -15v-381q0 -189 -41 -279q-34 -68 -100 -93.5t-193 -27.5q-156 0 -233 48q-57 42 -78.5 121.5t-22.5 230.5v381q0 15 15 15h180q15 0 15 -15v-381q0 -131 25 -174t99 -43t99 43t25 174v381q0 15 15 15z" />
    <glyph glyph-name="uni01D6" unicode="&#x1d6;" 
d="M137 971h320q15 0 15 -15v-80q0 -15 -15 -15h-320q-15 0 -15 15v80q0 15 15 15zM262 725q0 -41 -23.5 -63.5t-68.5 -22.5t-69 22.5t-24 63.5q0 40 24 62.5t69 22.5t68.5 -22.5t23.5 -62.5zM516 725q0 -41 -23.5 -63.5t-68.5 -22.5t-69 22.5t-24 63.5q0 40 24 62.5
t69 22.5t68.5 -22.5t23.5 -62.5zM394 573h170q14 0 14 -16v-526q0 -9 -2.5 -12.5t-11.5 -5.5q-95 -18 -269 -18q-151 0 -201 48q-49 49 -49 198v316q0 16 16 16h168q14 0 14 -16v-249v-58q2 -49 11 -65q22 -24 79 -20h46v392q0 16 15 16z" />
    <glyph glyph-name="uni01D7" unicode="&#x1d7;" horiz-adv-x="774" 
d="M416 1218h199q10 0 10 -10v-7q0 -7 -5 -12l-207 -166q-5 -5 -14 0l-65 36q-8 5 -3 14l73 139q3 6 12 6zM352 925q0 -41 -23.5 -63.5t-68.5 -22.5t-69 22.5t-24 63.5q0 40 24 62.5t69 22.5t68.5 -22.5t23.5 -62.5zM606 925q0 -41 -23.5 -63.5t-68.5 -22.5t-69 22.5
t-24 63.5q0 40 24 62.5t69 22.5t68.5 -22.5t23.5 -62.5zM526 791h180q15 0 15 -15v-381q0 -189 -41 -279q-34 -68 -100 -93.5t-193 -27.5q-156 0 -233 48q-57 42 -78.5 121.5t-22.5 230.5v381q0 15 15 15h180q15 0 15 -15v-381q0 -131 25 -174t99 -43t99 43t25 174v381
q0 15 15 15z" />
    <glyph glyph-name="uni01D8" unicode="&#x1d8;" 
d="M319 1026h199q10 0 10 -10v-7q0 -7 -5 -12l-207 -166q-5 -5 -14 0l-65 36q-8 5 -3 14l73 139q3 6 12 6zM262 725q0 -41 -23.5 -63.5t-68.5 -22.5t-69 22.5t-24 63.5q0 40 24 62.5t69 22.5t68.5 -22.5t23.5 -62.5zM516 725q0 -41 -23.5 -63.5t-68.5 -22.5t-69 22.5
t-24 63.5q0 40 24 62.5t69 22.5t68.5 -22.5t23.5 -62.5zM394 573h170q14 0 14 -16v-526q0 -9 -2.5 -12.5t-11.5 -5.5q-95 -18 -269 -18q-151 0 -201 48q-49 49 -49 198v316q0 16 16 16h168q14 0 14 -16v-249v-58q2 -49 11 -65q22 -24 79 -20h46v392q0 16 15 16z" />
    <glyph glyph-name="uni01D9" unicode="&#x1d9;" horiz-adv-x="774" 
d="M527 1225l44 -21q14 -6 4 -18l-103 -145q-7 -10 -23 -10h-125q-16 0 -23 10l-103 145q-10 12 4 18l44 21q11 6 20 0l121 -77l120 77q9 6 20 0zM352 925q0 -41 -23.5 -63.5t-68.5 -22.5t-69 22.5t-24 63.5q0 40 24 62.5t69 22.5t68.5 -22.5t23.5 -62.5zM606 925
q0 -41 -23.5 -63.5t-68.5 -22.5t-69 22.5t-24 63.5q0 40 24 62.5t69 22.5t68.5 -22.5t23.5 -62.5zM526 791h180q15 0 15 -15v-381q0 -189 -41 -279q-34 -68 -100 -93.5t-193 -27.5q-156 0 -233 48q-57 42 -78.5 121.5t-22.5 230.5v381q0 15 15 15h180q15 0 15 -15v-381
q0 -131 25 -174t99 -43t99 43t25 174v381q0 15 15 15z" />
    <glyph glyph-name="uni01DA" unicode="&#x1da;" 
d="M437 1029l44 -21q14 -6 4 -18l-103 -145q-7 -10 -23 -10h-125q-16 0 -23 10l-103 145q-10 12 4 18l44 21q11 6 20 0l121 -77l120 77q9 6 20 0zM262 725q0 -41 -23.5 -63.5t-68.5 -22.5t-69 22.5t-24 63.5q0 40 24 62.5t69 22.5t68.5 -22.5t23.5 -62.5zM516 725
q0 -41 -23.5 -63.5t-68.5 -22.5t-69 22.5t-24 63.5q0 40 24 62.5t69 22.5t68.5 -22.5t23.5 -62.5zM394 573h170q14 0 14 -16v-526q0 -9 -2.5 -12.5t-11.5 -5.5q-95 -18 -269 -18q-151 0 -201 48q-49 49 -49 198v316q0 16 16 16h168q14 0 14 -16v-249v-58q2 -49 11 -65
q22 -24 79 -20h46v392q0 16 15 16z" />
    <glyph glyph-name="uni01DB" unicode="&#x1db;" horiz-adv-x="774" 
d="M178 1218h199q9 0 12 -6l73 -139q5 -9 -3 -14l-65 -36q-9 -5 -14 0l-207 166q-5 5 -5 12v7q0 10 10 10zM352 925q0 -41 -23.5 -63.5t-68.5 -22.5t-69 22.5t-24 63.5q0 40 24 62.5t69 22.5t68.5 -22.5t23.5 -62.5zM606 925q0 -41 -23.5 -63.5t-68.5 -22.5t-69 22.5
t-24 63.5q0 40 24 62.5t69 22.5t68.5 -22.5t23.5 -62.5zM526 791h180q15 0 15 -15v-381q0 -189 -41 -279q-34 -68 -100 -93.5t-193 -27.5q-156 0 -233 48q-57 42 -78.5 121.5t-22.5 230.5v381q0 15 15 15h180q15 0 15 -15v-381q0 -131 25 -174t99 -43t99 43t25 174v381
q0 15 15 15z" />
    <glyph glyph-name="uni01DC" unicode="&#x1dc;" 
d="M70 1026h199q9 0 12 -6l73 -139q5 -9 -3 -14l-65 -36q-9 -5 -14 0l-207 166q-5 5 -5 12v7q0 10 10 10zM262 725q0 -41 -23.5 -63.5t-68.5 -22.5t-69 22.5t-24 63.5q0 40 24 62.5t69 22.5t68.5 -22.5t23.5 -62.5zM516 725q0 -41 -23.5 -63.5t-68.5 -22.5t-69 22.5
t-24 63.5q0 40 24 62.5t69 22.5t68.5 -22.5t23.5 -62.5zM394 573h170q14 0 14 -16v-526q0 -9 -2.5 -12.5t-11.5 -5.5q-95 -18 -269 -18q-151 0 -201 48q-49 49 -49 198v316q0 16 16 16h168q14 0 14 -16v-249v-58q2 -49 11 -65q22 -24 79 -20h46v392q0 16 15 16z" />
    <glyph glyph-name="Aringacute" unicode="&#x1fa;" horiz-adv-x="742" 
d="M384 1177h199q10 0 10 -10v-7q0 -7 -5 -12l-154 -95q64 -25 64 -111q0 -122 -127 -122t-127 122q0 88 67 112l61 117q3 6 12 6zM433 942q0 62 -62 62t-62 -62t62 -62t62 62zM564 675l180 -659q3 -16 -13 -16h-175q-6 0 -8.5 3t-5.5 13l-53 196h-236l-53 -196
q-2 -10 -4.5 -13t-9.5 -3h-175q-16 0 -13 16l180 659q22 83 55 103q31 19 138 19q106 0 138 -20q33 -20 55 -102zM362 618l-63 -236h144l-65 236q-2 6 -8 6t-8 -6z" />
    <glyph glyph-name="aringacute" unicode="&#x1fb;" horiz-adv-x="591" 
d="M309 977h199q10 0 10 -10v-7q0 -7 -5 -12l-154 -95q64 -25 64 -111q0 -122 -127 -122t-127 122q0 88 67 112l61 117q3 6 12 6zM358 742q0 62 -62 62t-62 -62t62 -62t62 62zM287 578q130 0 193 -35q27 -15 42 -41q23 -40 23 -111v-342q0 -29 -26 -33q-108 -21 -232 -21
q-41 0 -79 2q-82 2 -117 23q-74 46 -69 159q1 108 60 142q51 31 170 31l95 1v5q0 50 -60 50h-210q-13 0 -13 15v121q0 13 13 16q89 18 210 18zM347 159v80h-74q-33 0 -44.5 -10t-11.5 -35q0 -24 12 -33t45 -9q46 0 73 7z" />
    <glyph glyph-name="AEacute" unicode="&#x1fc;" horiz-adv-x="1075" 
d="M598 1024h199q10 0 10 -10v-7q0 -7 -5 -12l-207 -166q-5 -5 -14 0l-65 36q-8 5 -3 14l73 139q3 6 12 6zM371 797l320 -6h327q16 0 16 -15v-153q0 -15 -16 -15h-338v-126h311q16 0 16 -15v-143q0 -15 -16 -15h-311v-126h338q16 0 16 -15v-153q0 -15 -16 -15h-533
q-15 0 -15 16v196h-217l-53 -196q-2 -10 -4.5 -13t-9.5 -3h-175q-16 0 -13 16l180 659q22 83 55 103q31 19 138 19zM470 382v242h-70q-39 0 -46 -31l-55 -211h171z" />
    <glyph glyph-name="aeacute" unicode="&#x1fd;" horiz-adv-x="914" 
d="M456 824h199q10 0 10 -10v-7q0 -7 -5 -12l-207 -166q-5 -5 -14 0l-65 36q-8 5 -3 14l73 139q3 6 12 6zM621 578q162 0 214 -58q54 -58 54 -234v-32q0 -27 -28 -27h-310q0 -41 18 -52q19 -10 76 -10h190q15 0 15 -15v-120q0 -14 -14 -17q-74 -18 -215 -18q-46 0 -93 10
q-48 10 -78 26q-68 -36 -163 -36q-41 0 -79 2q-82 2 -117 23q-74 46 -69 159q1 108 60 142q51 31 170 31l95 1v5q0 50 -60 50h-210q-13 0 -13 15v121q0 13 13 16q89 18 210 18q106 0 168 -41q68 41 166 41zM621 408q-72 0 -72 -67h141q0 36 -16.5 51.5t-52.5 15.5zM355 239
h-82q-33 0 -44.5 -10t-11.5 -35t12 -35t45 -10q61 0 94 16q-13 33 -13 74z" />
    <glyph glyph-name="Oslashacute" unicode="&#x1fe;" horiz-adv-x="758" 
d="M382 1024h199q10 0 10 -10v-7q0 -7 -5 -12l-207 -166q-5 -5 -14 0l-65 36q-8 5 -3 14l73 139q3 6 12 6zM721 395q-2 -122 -17 -195t-55 -120t-102.5 -65t-167.5 -20q-138 0 -212 38l-31 -45q-9 -14 -20 -3l-34 24q-11 7 -4 20l33 47q-74 86 -74 319q0 121 16.5 195.5
t55.5 121.5t102 66t168 19q138 0 211 -38l31 44q11 14 21 4l34 -23q12 -8 3 -21l-33 -47q75 -82 75 -321zM379 614q-77 0 -103 -47t-26 -172q0 -73 7 -111l211 302q-27 28 -89 28zM508 395q0 75 -7 114l-212 -302q29 -29 90 -29q78 0 103 46q26 47 26 171z" />
    <glyph glyph-name="oslashacute" unicode="&#x1ff;" horiz-adv-x="619" 
d="M321 824h199q10 0 10 -10v-7q0 -7 -5 -12l-207 -166q-5 -5 -14 0l-65 36q-8 5 -3 14l73 139q3 6 12 6zM586 286q0 -174 -56 -233q-55 -58 -221 -58q-95 0 -149 16l-28 -39q-9 -14 -20 -3l-34 24q-11 7 -4 20l23 32q-35 30 -49.5 86.5t-14.5 154.5q0 175 55 233
q56 59 221 59q94 0 151 -17l27 39q11 14 21 4l34 -23q12 -7 3 -21l-23 -32q35 -30 49.5 -87t14.5 -155zM309 408q-45 0 -62 -24q-15 -24 -15 -98q0 -28 2 -46l114 163q-18 5 -39 5zM385 333l-114 -163q13 -5 38 -5q47 0 62 24q16 23 16 97q0 9 -2 47z" />
    <glyph glyph-name="uni0218" unicode="&#x218;" horiz-adv-x="642" 
d="M337 797q113 0 222 -26q22 -7 22 -22v-113q0 -22 -23 -22h-248q-57 0 -57 -41v-11q0 -34 44 -51l159 -57q56 -21 88 -42q73 -48 73 -184v-24q0 -209 -311 -209q-109 0 -250 28q-22 4 -22 28v104q0 23 24 23h293q54 0 54 37v7q0 23 -14 34.5t-54 24.5l-154 53
q-49 17 -77 39q-65 53 -65 195v21q0 109 70 158.5t226 49.5zM221 -40h170q10 0 10 -10v-7q0 -7 -5 -12l-179 -136q-5 -5 -14 0l-52 29q-8 5 -3 14l61 116q3 6 12 6z" />
    <glyph glyph-name="uni0219" unicode="&#x219;" horiz-adv-x="523" 
d="M291 578q87 0 164 -18q17 -5 17 -16v-107q0 -16 -18 -16h-177q-44 0 -44 -21v-7q0 -14 34 -24l123 -38q109 -34 109 -159v-19q0 -81 -59 -119.5t-163 -38.5q-137 0 -231 10q-10 0 -13.5 3t-3.5 12v117q0 16 18 16h225q20 0 27 3.5t7 12.5v5q0 14 -52 30l-106 33
q-108 35 -108 161v17q0 82 60.5 122.5t190.5 40.5zM174 -40h170q10 0 10 -10v-7q0 -7 -5 -12l-179 -136q-5 -5 -14 0l-52 29q-8 5 -3 14l61 116q3 6 12 6z" />
    <glyph glyph-name="uni021A" unicode="&#x21a;" horiz-adv-x="659" 
d="M32 791h595q16 0 16 -15v-153q0 -15 -16 -15h-193v-592q0 -16 -15 -16h-180q-15 0 -15 16v592h-192q-16 0 -16 15v153q0 15 16 15zM245 -40h170q10 0 10 -10v-7q0 -7 -5 -12l-179 -136q-5 -5 -14 0l-52 29q-8 5 -3 14l61 116q3 6 12 6z" />
    <glyph glyph-name="uni021B" unicode="&#x21b;" horiz-adv-x="412" 
d="M106 686l168 44q7 2 11 -2t4 -14v-146h80q18 0 18 -15v-112q0 -16 -18 -16h-80v-212q0 -29 11.5 -38.5t42.5 -9.5h35q18 0 18 -16v-120q0 -19 -18 -22q-64 -12 -112 -12q-65 0 -104 10q-36 11 -52 41t-19 93v286h-60q-18 0 -18 16v112q0 15 18 15h60v102q0 8 2.5 10.5
t12.5 5.5zM145 -40h170q10 0 10 -10v-7q0 -7 -5 -12l-179 -136q-5 -5 -14 0l-52 29q-8 5 -3 14l61 116q3 6 12 6z" />
    <glyph glyph-name="circumflex.001" unicode="&#x2c6;" horiz-adv-x="625" 
d="M250 824h125q16 0 23 -10l103 -145q10 -12 -4 -18l-44 -21q-11 -6 -20 0l-120 77l-121 -77q-9 -6 -20 0l-44 21q-14 6 -4 18l103 145q7 10 23 10z" />
    <glyph glyph-name="caron.001" unicode="&#x2c7;" horiz-adv-x="625" 
d="M453 821l44 -21q14 -6 4 -18l-103 -145q-7 -10 -23 -10h-125q-16 0 -23 10l-103 145q-10 12 4 18l44 21q11 6 20 0l121 -77l120 77q9 6 20 0z" />
    <glyph glyph-name="breve.001" unicode="&#x2d8;" horiz-adv-x="631" 
d="M414 809h83q17 0 14 -15q-10 -83 -54 -118q-43 -34 -141 -34t-142 33q-42 34 -53 118q-3 16 14 16h82q13 0 17 -12q19 -46 82 -46q33 0 51.5 10.5t29.5 35.5q6 12 17 12z" />
    <glyph glyph-name="dotaccent.001" unicode="&#x2d9;" horiz-adv-x="445" 
d="M223 815q49 0 75.5 -23t26.5 -67q0 -91 -102 -91q-103 0 -103 91q0 90 103 90z" />
    <glyph glyph-name="ring" unicode="&#x2da;" horiz-adv-x="494" 
d="M120 742q0 122 127 122t127 -122t-127 -122t-127 122zM309 742q0 62 -62 62t-62 -62t62 -62t62 62z" />
    <glyph glyph-name="ogonek" unicode="&#x2db;" horiz-adv-x="445" 
d="M164 28h65q16 0 13 -16q-5 -33 -5 -52q0 -18 16 -19q13 -3 39 -3h8h35q13 0 13 -13v-86q0 -13 -12 -18q-21 -8 -98 -8q-118 0 -118 79q0 52 26 124q4 12 18 12z" />
    <glyph glyph-name="tilde" unicode="&#x2dc;" horiz-adv-x="641" 
d="M237 810q31 0 85 -20q51 -19 65 -19q28 0 43 33q6 14 18 9l62 -17q13 -4 10 -19q-17 -78 -42 -106t-74 -28q-34 0 -85 19q-54 20 -65 20q-28 0 -43 -33q-6 -13 -18 -9l-62 17q-13 4 -10 19q17 76 42 105q26 29 74 29z" />
    <glyph glyph-name="hungarumlaut.001" unicode="&#x2dd;" horiz-adv-x="646" 
d="M207 824h112q10 0 10 -10v-7q0 -9 -5 -12l-156 -152q-6 -6 -14 0l-29 22q-8 6 -3 14l73 139q3 6 12 6zM403 824h113q10 0 10 -10v-7q0 -7 -5 -12l-157 -152q-6 -6 -14 0l-29 22q-8 6 -3 14l73 139q3 6 12 6z" />
    <glyph glyph-name="uni0326" unicode="&#x326;" horiz-adv-x="0" 
d="M180 -40h170q10 0 10 -10v-7q0 -7 -5 -12l-179 -136q-5 -5 -14 0l-52 29q-8 5 -3 14l61 116q3 6 12 6z" />
    <glyph glyph-name="pi" unicode="&#x3c0;" horiz-adv-x="730" 
d="M31 574h669q15 0 15 -15v-153q0 -15 -15 -15h-88v-376q0 -15 -15 -15h-161q-15 0 -15 15v376h-103q0 -191 -27 -376q-1 -15 -15 -15h-161q-17 0 -15 15q27 184 27 376h-96q-15 0 -15 15v153q0 15 15 15z" />
    <glyph glyph-name="uni0401" unicode="&#x401;" horiz-adv-x="664" 
d="M292 925q0 -41 -23.5 -63.5t-68.5 -22.5t-69 22.5t-24 63.5q0 40 24 62.5t69 22.5t68.5 -22.5t23.5 -62.5zM546 925q0 -41 -23.5 -63.5t-68.5 -22.5t-69 22.5t-24 63.5q0 40 24 62.5t69 22.5t68.5 -22.5t23.5 -62.5zM75 791h533q16 0 16 -15v-153q0 -15 -16 -15h-338
v-126h311q16 0 16 -15v-143q0 -15 -16 -15h-311v-126h338q16 0 16 -15v-153q0 -15 -16 -15h-533q-15 0 -15 16v759q0 16 15 16z" />
    <glyph glyph-name="uni0410" unicode="&#x410;" horiz-adv-x="742" 
d="M564 675l180 -659q3 -16 -13 -16h-175q-6 0 -8.5 3t-5.5 13l-53 196h-236l-53 -196q-2 -10 -4.5 -13t-9.5 -3h-175q-16 0 -13 16l180 659q22 83 55 103q31 19 138 19q106 0 138 -20q33 -20 55 -102zM362 618l-63 -236h144l-65 236q-2 6 -8 6t-8 -6z" />
    <glyph glyph-name="uni0411" unicode="&#x411;" horiz-adv-x="712" 
d="M270 608v-107h122q161 0 226 -50t65 -169v-68q0 -120 -65 -170q-64 -49 -226 -49q-163 0 -317 14q-15 1 -15 13v754q0 15 16 15h551q16 0 16 -15v-153q0 -15 -16 -15h-357zM470 250v3q0 40 -22.5 56t-78.5 16h-99v-147h99q56 0 78.5 16t22.5 56z" />
    <glyph glyph-name="uni0412" unicode="&#x412;" horiz-adv-x="715" 
d="M376 797q161 0 226 -50t65 -169q0 -90 -30 -131t-105 -51v-3q84 -6 117 -46q34 -38 34 -133q0 -120 -65 -170q-64 -49 -226 -49q-163 0 -317 14q-15 1 -15 13v748q0 12 15 13q154 14 301 14zM353 614h-83v-146h83q56 0 78.5 17t22.5 56t-22.5 56t-78.5 17zM369 325h-99
v-147h99q56 0 78.5 16t22.5 56t-22.5 57.5t-78.5 17.5z" />
    <glyph glyph-name="uni0413" unicode="&#x413;" horiz-adv-x="573" 
d="M255 0h-180q-15 0 -15 16v759q0 16 15 16h472q16 0 16 -15v-153q0 -15 -16 -15h-277v-592q0 -16 -15 -16z" />
    <glyph glyph-name="uni0414" unicode="&#x414;" horiz-adv-x="761" 
d="M192 791h453q15 0 15 -16v-592h60q16 0 16 -15v-292q0 -17 -15 -17h-172q-15 0 -15 17v124h-315v-124q0 -17 -15 -17h-172q-15 0 -15 17v297q0 10 16 10h39q55 22 67 155l38 436q2 17 15 17zM450 183v425h-81l-27 -331q-6 -56 -15 -94h123z" />
    <glyph glyph-name="uni0415" unicode="&#x415;" horiz-adv-x="664" 
d="M75 791h533q16 0 16 -15v-153q0 -15 -16 -15h-338v-126h311q16 0 16 -15v-143q0 -15 -16 -15h-311v-126h338q16 0 16 -15v-153q0 -15 -16 -15h-533q-15 0 -15 16v759q0 16 15 16z" />
    <glyph glyph-name="uni0416" unicode="&#x416;" horiz-adv-x="1100" 
d="M1076 772l-225 -343l257 -402q16 -27 -17 -27h-200q-16 0 -22 11l-214 371v-366q0 -16 -15 -16h-180q-15 0 -15 16v366l-214 -371q-6 -11 -22 -11h-200q-33 0 -17 27l257 402l-225 343q-12 19 9 19h198q14 0 21 -10l193 -327v321q0 16 15 16h180q15 0 15 -16v-321
l193 327q7 10 21 10h198q21 0 9 -19z" />
    <glyph glyph-name="uni0417" unicode="&#x417;" horiz-adv-x="662" 
d="M320 797q128 0 207 -36q91 -39 91 -156v-69q0 -121 -112 -140q112 -19 112 -140v-69q0 -115 -91 -157q-83 -35 -207 -35q-178 0 -258 21q-16 5 -22.5 12t-6.5 22v112q0 16 15 16h243q70 0 94 11q23 12 23 49v12q0 38 -24 51q-23 14 -93 14h-187q-15 0 -15 16v130
q0 16 15 16h187q71 0 93 13q24 14 24 52v12q0 37 -23 48q-22 12 -94 12h-243q-15 0 -15 16v112q0 15 6.5 22t22.5 12q80 21 258 21z" />
    <glyph glyph-name="uni0418" unicode="&#x418;" horiz-adv-x="798" 
d="M75 791h180q15 0 15 -17v-380l258 360q19 27 28 31q14 6 39 6h128q15 0 15 -17v-757q0 -17 -15 -17h-180q-15 0 -15 17v387l-266 -372q-23 -32 -64 -32h-123q-15 0 -15 17v757q0 17 15 17z" />
    <glyph glyph-name="uni0419" unicode="&#x419;" horiz-adv-x="798" 
d="M493 1009h83q17 0 14 -15q-10 -83 -54 -118q-43 -34 -141 -34q-99 0 -142 33q-42 34 -53 118q-3 16 14 16h82q12 0 17 -12q19 -46 82 -46q33 0 51.5 10.5t29.5 35.5q6 12 17 12zM75 791h180q15 0 15 -17v-380l258 360q19 27 28 31q14 6 39 6h128q15 0 15 -17v-757
q0 -17 -15 -17h-180q-15 0 -15 17v387l-266 -372q-23 -32 -64 -32h-123q-15 0 -15 17v757q0 17 15 17z" />
    <glyph glyph-name="uni041A" unicode="&#x41a;" horiz-adv-x="733" 
d="M502 791h198q21 0 9 -19l-225 -343l257 -402q17 -27 -17 -27h-200q-16 0 -22 11l-232 371v-366q0 -16 -15 -16h-180q-15 0 -15 16v759q0 16 15 16h180q15 0 15 -16v-321l211 327q7 10 21 10z" />
    <glyph glyph-name="uni041B" unicode="&#x41b;" horiz-adv-x="727" 
d="M199 791h453q15 0 15 -16v-759q0 -16 -15 -16h-180q-15 0 -15 16v592h-81l-31 -376q-9 -114 -58 -175q-48 -62 -162 -62q-54 0 -87 13q-18 6 -23.5 13t-5.5 22v120q0 15 15 15h29q46 0 65 26t24 89l42 481q2 17 15 17z" />
    <glyph glyph-name="uni041C" unicode="&#x41c;" horiz-adv-x="1018" 
d="M735 792h162q10 0 12 -17l79 -758q2 -17 -15 -17h-180q-13 0 -15 17l-42 397l-145 -373q-8 -17 -23 -17h-118q-15 0 -23 17l-144 373l-43 -397q-2 -17 -15 -17h-180q-17 0 -15 17l79 757q2 17 12 17h162q32 0 47 -8.5t24 -32.5l155 -410l155 411q9 24 24 32.5t47 8.5z
" />
    <glyph glyph-name="uni041D" unicode="&#x41d;" horiz-adv-x="799" 
d="M544 791h180q15 0 15 -17v-757q0 -17 -15 -17h-180q-15 0 -15 17v281h-259v-281q0 -17 -15 -17h-180q-15 0 -15 17v757q0 17 15 17h180q15 0 15 -17v-291h259v291q0 17 15 17z" />
    <glyph glyph-name="uni041E" unicode="&#x41e;" horiz-adv-x="758" 
d="M721 395q-2 -122 -17 -195t-55 -120t-102.5 -65t-167.5 -20q-105 2 -167.5 20t-102.5 65t-55 120t-17 195q0 121 16.5 195.5t55.5 121.5t102 66t168 19t168 -19t102 -66t55.5 -121.5t16.5 -195.5zM250 395q0 -124 26 -171q25 -46 103 -46t103 46q26 47 26 171
q0 125 -26 172t-103 47t-103 -47t-26 -172z" />
    <glyph glyph-name="uni041F" unicode="&#x41f;" horiz-adv-x="722" 
d="M75 791h572q15 0 15 -16v-759q0 -16 -15 -16h-180q-15 0 -15 16v592h-182v-592q0 -16 -15 -16h-180q-15 0 -15 16v759q0 16 15 16z" />
    <glyph glyph-name="uni0420" unicode="&#x420;" horiz-adv-x="700" 
d="M392 797q159 0 223 -61t64 -208q0 -145 -62 -198q-61 -52 -225 -52h-122v-262q0 -10 -3 -13t-12 -3h-180q-9 0 -12 3t-3 13v754q0 12 15 13q154 14 317 14zM369 614h-99v-182h99q56 0 76.5 19t20.5 70t-21.5 72t-75.5 21z" />
    <glyph glyph-name="uni0421" unicode="&#x421;" horiz-adv-x="640" 
d="M374 797q128 0 207 -21q16 -5 22.5 -12t6.5 -22v-112q0 -16 -15 -16h-221q-76 0 -100 -45t-24 -172t24 -174q24 -45 100 -45h221q15 0 15 -16v-112q0 -27 -29 -34q-73 -21 -207 -21q-198 0 -268 84q-69 84 -69 318q0 123 15.5 196t53.5 119q39 47 101 66t167 19z" />
    <glyph glyph-name="uni0422" unicode="&#x422;" horiz-adv-x="659" 
d="M32 791h595q16 0 16 -15v-153q0 -15 -16 -15h-193v-592q0 -16 -15 -16h-180q-15 0 -15 16v592h-192q-16 0 -16 15v153q0 15 16 15z" />
    <glyph glyph-name="uni0423" unicode="&#x423;" horiz-adv-x="635" 
d="M445 791h191q20 0 12 -17l-197 -581q-66 -198 -261 -198q-50 0 -114 19q-31 10 -31 35v113q0 16 15 16h84q42 0 62.5 12t33.5 42l-242 541q-7 18 11 18h199q12 0 17 -11l116 -259l87 258q4 12 17 12z" />
    <glyph glyph-name="uni0424" unicode="&#x424;" horiz-adv-x="848" 
d="M339 797h170q15 0 15 -17v-69q173 -9 238 -74q64 -64 64 -238q0 -175 -64 -239t-238 -73v-70q0 -17 -15 -17h-170q-15 0 -15 17v70q-174 9 -238 73t-64 239q0 174 64 238q65 65 238 74v69q0 17 15 17zM324 274v250q-53 -9 -71 -35t-18 -90t18 -90t71 -35zM524 524v-250
q53 9 71 35t18 90t-18 90t-71 35z" />
    <glyph glyph-name="uni0425" unicode="&#x425;" horiz-adv-x="757" 
d="M528 791h202q24 0 11 -22l-240 -358l262 -389q15 -22 -11 -22h-202q-17 0 -27 16l-144 238l-145 -238q-12 -16 -27 -16h-202q-26 0 -11 22l263 389l-240 358q-13 22 11 22h202q17 0 27 -16l122 -207l122 207q10 16 27 16z" />
    <glyph glyph-name="uni0426" unicode="&#x426;" horiz-adv-x="764" 
d="M662 775v-592h64q16 0 16 -15v-292q0 -17 -15 -17h-172q-15 0 -15 17v124h-465q-15 0 -15 16v759q0 16 15 16h180q15 0 15 -16v-592h182v592q0 16 15 16h180q15 0 15 -16z" />
    <glyph glyph-name="uni0427" unicode="&#x427;" horiz-adv-x="709" 
d="M454 791h180q15 0 15 -17v-757q0 -17 -15 -17h-180q-15 0 -15 17v241h-113q-163 0 -225 53t-61 197v268q0 15 15 15h182q15 0 15 -15v-246q0 -51 20.5 -70t76.5 -19h90v333q0 17 15 17z" />
    <glyph glyph-name="uni0428" unicode="&#x428;" horiz-adv-x="1004" 
d="M749 791h180q15 0 15 -16v-759q0 -16 -15 -16h-854q-15 0 -15 16v759q0 16 15 16h180q15 0 15 -16v-592h127v592q0 16 15 16h180q15 0 15 -16v-592h127v592q0 16 15 16z" />
    <glyph glyph-name="uni0429" unicode="&#x429;" horiz-adv-x="1046" 
d="M944 775v-592h64q16 0 16 -15v-292q0 -17 -15 -17h-172q-15 0 -15 17v124h-747q-15 0 -15 16v759q0 16 15 16h180q15 0 15 -16v-592h127v592q0 16 15 16h180q15 0 15 -16v-592h127v592q0 16 15 16h180q15 0 15 -16z" />
    <glyph glyph-name="uni042A" unicode="&#x42a;" horiz-adv-x="793" 
d="M357 776v-275h122q161 0 226 -50t65 -169v-68q0 -120 -65 -170q-64 -49 -226 -49q-163 0 -317 14q-15 1 -15 13v586h-117q-16 0 -16 15v153q0 15 16 15h312q15 0 15 -15zM557 250v3q0 40 -22.5 56t-78.5 16h-99v-147h99q56 0 78.5 16t22.5 56z" />
    <glyph glyph-name="uni042B" unicode="&#x42b;" horiz-adv-x="1029" 
d="M270 776v-275h122q161 0 226 -50t65 -169v-68q0 -120 -65 -170q-64 -49 -226 -49q-163 0 -317 14q-15 1 -15 13v754q0 15 15 15h180q15 0 15 -15zM774 791h180q15 0 15 -17v-757q0 -17 -15 -17h-180q-15 0 -15 17v757q0 17 15 17zM470 250v3q0 40 -22.5 56t-78.5 16h-99
v-147h99q56 0 78.5 16t22.5 56z" />
    <glyph glyph-name="uni042C" unicode="&#x42c;" horiz-adv-x="706" 
d="M270 776v-275h122q161 0 226 -50t65 -169v-68q0 -120 -65 -170q-64 -49 -226 -49q-163 0 -317 14q-15 1 -15 13v754q0 15 15 15h180q15 0 15 -15zM470 250v3q0 40 -22.5 56t-78.5 16h-99v-147h99q56 0 78.5 16t22.5 56z" />
    <glyph glyph-name="uni042D" unicode="&#x42d;" horiz-adv-x="667" 
d="M293 797q105 0 167 -19t100 -66q39 -46 54.5 -119t15.5 -196q0 -235 -70 -318q-69 -84 -267 -84q-159 0 -233 21q-29 7 -29 34v112q0 16 15 16h247q62 0 88.5 30t32.5 105h-259q-16 0 -16 15v137q0 15 16 15h259q-6 75 -32 104.5t-89 29.5h-247q-15 0 -15 16v112
q0 15 6.5 22t22.5 12q79 21 233 21z" />
    <glyph glyph-name="uni042E" unicode="&#x42e;" horiz-adv-x="1047" 
d="M668 797q105 0 168 -19t102 -66t55.5 -121.5t16.5 -195.5q-2 -122 -17 -195t-55 -120t-102.5 -65t-167.5 -20q-178 0 -252 65q-74 66 -87 238h-59v-281q0 -17 -15 -17h-180q-15 0 -15 17v757q0 17 15 17h180q15 0 15 -17v-291h59q10 178 85 246q74 68 254 68zM539 395
q0 -124 26 -171q25 -46 103 -46t103 46q26 47 26 171q0 125 -26 172t-103 47t-103 -47t-26 -172z" />
    <glyph glyph-name="uni042F" unicode="&#x42f;" horiz-adv-x="722" 
d="M330 797q163 0 317 -14q15 -1 15 -13v-754q0 -10 -3 -13t-12 -3h-180q-9 0 -12 3t-3 13v262h-38l-162 -256q-15 -22 -40 -22h-184q-11 0 -14.5 6t2.5 14l170 271q-78 20 -110.5 74t-32.5 163q0 147 64 208t223 61zM452 432v182h-99q-54 0 -75.5 -21t-21.5 -72t20.5 -70
t76.5 -19h99z" />
    <glyph glyph-name="uni0430" unicode="&#x430;" horiz-adv-x="592" 
d="M288 578q130 0 193 -35q27 -15 42 -41q23 -40 23 -111v-342q0 -29 -26 -33q-108 -21 -232 -21q-51 0 -68 1q-74 2 -106 13q-51 19 -67 47q-24 42 -24 99v30q2 101 54 134t176 33l95 1v5q0 50 -60 50h-210q-13 0 -13 15v121q0 13 13 16q88 18 210 18zM348 159v80h-74
q-32 0 -44 -8.5t-12 -27.5v-13q0 -22 12 -30t45 -8q46 0 73 7z" />
    <glyph glyph-name="uni0431" unicode="&#x431;" horiz-adv-x="628" 
d="M480 797h56q20 0 20 -45q0 -79 -33 -112.5t-108 -39.5q-111 -9 -152 -31q-42 -23 -49 -74q44 32 145 32q128 0 182 -54q54 -52 54 -187q0 -174 -56 -233q-55 -58 -221 -58t-221 58t-55 233v105q0 190 68 273q67 84 226 102q84 10 105 14q2 1 7.5 5.5t13.5 8t18 3.5z
M318 371q-44 0 -60.5 -19t-16.5 -66q0 -73 15 -97q16 -24 62 -24q47 0 62 24q16 23 16 97q0 47 -16.5 66t-61.5 19z" />
    <glyph glyph-name="uni0432" unicode="&#x432;" horiz-adv-x="575" 
d="M301 578q130 0 180 -37q51 -37 51 -121q0 -69 -24 -97.5t-87 -36.5v-2q70 -3 96 -29q27 -25 27 -99q0 -86 -52 -123q-52 -38 -180 -38q-148 0 -251 12q-12 1 -12 13v534q0 10 12 12q117 12 240 12zM282 421h-35v-72h40q31 0 47.5 10.5t16.5 26.5q0 35 -69 35zM290 228
h-43v-72l44 -1q39 1 55.5 9.5t16.5 27.5q0 36 -73 36z" />
    <glyph glyph-name="uni0433" unicode="&#x433;" horiz-adv-x="479" 
d="M64 573h384q15 0 15 -15v-153q0 -15 -15 -15h-189v-375q0 -15 -15 -15h-180q-15 0 -15 15v543q0 15 15 15z" />
    <glyph glyph-name="uni0434" unicode="&#x434;" horiz-adv-x="622" 
d="M152 573h370q15 0 15 -15v-394h49q15 0 15 -15v-226q0 -15 -15 -15h-149q-15 0 -15 15v77h-225v-77q0 -15 -15 -15h-149q-15 0 -15 15v226q0 15 15 15h27q42 19 52 119l24 276q2 14 16 14zM348 164v245h-39l-14 -180q-2 -31 -9 -65h62z" />
    <glyph glyph-name="uni0435" unicode="&#x435;" horiz-adv-x="599" 
d="M306 578q162 0 214 -58q54 -58 54 -234v-32q0 -27 -28 -27h-310q0 -41 18 -52q19 -10 76 -10h190q15 0 15 -15v-120q0 -14 -14 -17q-73 -18 -215 -18q-163 0 -218 58t-55 233t55 233q56 59 218 59zM306 408q-72 0 -72 -67h141q0 36 -16.5 51.5t-52.5 15.5z" />
    <glyph glyph-name="uni0436" unicode="&#x436;" horiz-adv-x="964" 
d="M937 556l-143 -243l175 -295q8 -18 -11 -18h-211q-12 0 -17 8l-148 259v-252q0 -15 -15 -15h-170q-15 0 -15 15v252l-148 -259q-5 -8 -17 -8h-211q-19 0 -11 18l175 295l-143 243q-8 17 11 17h198q12 0 16 -7l130 -233v225q0 15 15 15h170q15 0 15 -15v-225l130 233
q4 7 16 7h198q19 0 11 -17z" />
    <glyph glyph-name="uni0437" unicode="&#x437;" horiz-adv-x="544" 
d="M278 578q87 0 148 -24q80 -28 80 -107v-75q0 -17 -12 -42q-16 -36 -84 -44q69 -8 84 -45q12 -25 12 -43v-74q0 -129 -228 -129q-150 0 -218 21q-27 10 -27 37v98q0 18 15 18h208q46 0 46 20v9q0 12 -9.5 16.5t-36.5 4.5h-158q-16 0 -16 17v100q0 16 16 16h158q46 0 46 20
v11q0 12 -9.5 16.5t-36.5 4.5h-208q-15 0 -15 18v100q0 15 6 22.5t21 12.5q62 21 218 21z" />
    <glyph glyph-name="uni0438" unicode="&#x438;" horiz-adv-x="645" 
d="M468 573h116q12 0 12 -13v-547q0 -13 -12 -13h-170q-11 0 -11 13v230l-170 -217q-20 -26 -60 -26h-112q-12 0 -12 13v547q0 13 12 13h169q12 0 12 -13v-240l171 224q23 29 55 29z" />
    <glyph glyph-name="uni0439" unicode="&#x439;" horiz-adv-x="645" 
d="M416 809h83q17 0 14 -15q-10 -83 -54 -118q-43 -34 -141 -34t-142 33q-42 34 -53 118q-3 16 14 16h82q12 0 17 -12q19 -46 82 -46q33 0 51.5 10.5t29.5 35.5q6 12 17 12zM468 573h116q12 0 12 -13v-547q0 -13 -12 -13h-170q-11 0 -11 13v230l-170 -217q-20 -26 -60 -26
h-112q-12 0 -12 13v547q0 13 12 13h169q12 0 12 -13v-240l171 224q23 29 55 29z" />
    <glyph glyph-name="uni043A" unicode="&#x43a;" horiz-adv-x="639" 
d="M405 573h198q19 0 11 -17l-143 -243l175 -295q8 -18 -11 -18h-211q-12 0 -17 8l-148 259v-252q0 -15 -15 -15h-180q-15 0 -15 15v543q0 15 15 15h180q15 0 15 -15v-225l130 233q4 7 16 7z" />
    <glyph glyph-name="uni043B" unicode="&#x43b;" horiz-adv-x="605" 
d="M149 573h396q11 0 11 -12v-549q0 -12 -11 -12h-171q-12 0 -12 12v392h-48l-16 -219q-5 -59 -24 -101q-39 -89 -163 -89q-49 0 -76 10q-17 6 -21.5 11.5t-4.5 20.5v118q0 10 12 10h26q31 0 45.5 18t17.5 57l27 320q1 13 12 13z" />
    <glyph glyph-name="uni043C" unicode="&#x43c;" horiz-adv-x="839" 
d="M589 573h145q12 0 13 -12l66 -548q1 -13 -12 -13h-176q-11 0 -12 13l-31 273l-90 -255q-6 -14 -19 -14h-108q-13 0 -19 14l-89 255l-32 -273q-1 -13 -12 -13h-176q-13 0 -12 12l67 548q1 13 15 13h142q54 0 66 -31l104 -266l104 267q7 17 21.5 23.5t44.5 6.5z" />
    <glyph glyph-name="uni043D" unicode="&#x43d;" horiz-adv-x="657" 
d="M413 573h180q15 0 15 -15v-543q0 -15 -15 -15h-180q-15 0 -15 15v169h-139v-169q0 -15 -15 -15h-180q-15 0 -15 15v543q0 15 15 15h180q15 0 15 -15v-188h139v188q0 15 15 15z" />
    <glyph glyph-name="uni043E" unicode="&#x43e;" horiz-adv-x="619" 
d="M586 286q0 -174 -56 -233q-55 -58 -221 -58t-221 58t-55 233t55 233q56 59 221 59q166 0 221 -58q56 -59 56 -234zM309 408q-45 0 -62 -24q-15 -24 -15 -98q0 -73 15 -97q17 -24 62 -24q47 0 62 24q16 23 16 97q0 75 -16 98q-15 24 -62 24z" />
    <glyph glyph-name="uni043F" unicode="&#x43f;" horiz-adv-x="601" 
d="M64 573h473q15 0 15 -15v-543q0 -15 -15 -15h-180q-15 0 -15 15v375h-83v-375q0 -15 -15 -15h-180q-15 0 -15 15v543q0 15 15 15z" />
    <glyph glyph-name="uni0440" unicode="&#x440;" 
d="M307 578q170 0 228 -58q59 -57 59 -219q0 -177 -51 -241q-50 -65 -182 -65q-61 0 -114 6v-190q0 -16 -15 -16h-168q-15 0 -15 16v712q0 28 26 33q126 22 232 22zM319 408h-72v-238q21 -4 55 -4q60 0 76 22q18 22 18 99q0 49 -6 77q-7 44 -71 44z" />
    <glyph glyph-name="uni0441" unicode="&#x441;" horiz-adv-x="535" 
d="M309 578q110 0 175 -18q18 -4 18 -22v-114q0 -16 -18 -16h-175q-47 0 -62 -24t-15 -97t15 -98q15 -24 62 -24h175q18 0 18 -16v-114q0 -17 -18 -22q-65 -18 -175 -18q-93 0 -143.5 12.5t-80.5 46.5q-30 35 -41 88q-10 50 -10 145q0 96 10.5 147t40.5 85t80.5 46.5
t143.5 12.5z" />
    <glyph glyph-name="uni0442" unicode="&#x442;" horiz-adv-x="541" 
d="M32 573h477q15 0 15 -15v-153q0 -15 -15 -15h-134v-375q0 -15 -15 -15h-180q-15 0 -15 15v375h-133q-15 0 -15 15v153q0 15 15 15z" />
    <glyph glyph-name="uni0443" unicode="&#x443;" horiz-adv-x="647" 
d="M414 573h168q15 0 15 -15v-582q0 -71 -23 -111q-21 -37 -76 -55.5t-159 -20.5q-136 0 -224 18q-13 3 -13 16v108q0 15 13 15h201q48 0 65.5 12t17.5 44v7q-62 -14 -114 -14q-127 0 -184 59t-57 184v320q0 15 15 15h168q15 0 15 -15v-271q0 -75 20 -98q21 -23 82 -23
q32 0 55 6v386q0 15 15 15z" />
    <glyph glyph-name="uni0444" unicode="&#x444;" horiz-adv-x="856" 
d="M620 578q205 0 205 -292q0 -291 -205 -291q-74 0 -93 19v-203q0 -16 -15 -16h-168q-15 0 -15 16v203q-19 -19 -93 -19q-205 0 -205 291q0 292 205 292q48 0 93 -20v217q0 16 15 16h168q15 0 15 -16v-217q45 20 93 20zM329 176v220q-19 10 -34 10q-38 0 -51.5 -27
t-13.5 -93t13.5 -93t51.5 -27q15 0 34 10zM561 166q38 0 51.5 27t13.5 93t-13.5 93t-51.5 27q-15 0 -34 -10v-220q19 -10 34 -10z" />
    <glyph glyph-name="uni0445" unicode="&#x445;" horiz-adv-x="623" 
d="M399 573h202q10 0 12.5 -5.5t-4.5 -13.5l-173 -257l187 -278q6 -7 3 -13t-12 -6h-203q-10 0 -17 10l-83 134l-83 -134q-7 -10 -17 -10h-202q-9 0 -12 6t3 13l187 277l-174 258q-7 8 -4.5 13.5t12.5 5.5h203q12 0 19 -10l69 -113l68 113q7 10 19 10z" />
    <glyph glyph-name="uni0446" unicode="&#x446;" horiz-adv-x="635" 
d="M548 558v-375h47q15 0 15 -15v-242q0 -15 -15 -15h-173q-15 0 -15 15v74h-343q-15 0 -15 15v543q0 15 15 15h180q15 0 15 -15v-375h79v375q0 15 15 15h180q15 0 15 -15z" />
    <glyph glyph-name="uni0447" unicode="&#x447;" horiz-adv-x="615" 
d="M371 573h180q15 0 15 -17v-539q0 -17 -15 -17h-180q-15 0 -15 17v135h-45q-162 0 -221 52q-59 53 -59 198v156q0 15 15 15h182q15 0 15 -15v-134q0 -52 18.5 -70.5t72.5 -18.5h22v221q0 17 15 17z" />
    <glyph glyph-name="uni0448" unicode="&#x448;" horiz-adv-x="836" 
d="M592 573h180q15 0 15 -15v-543q0 -15 -15 -15h-708q-15 0 -15 15v543q0 15 15 15h180q15 0 15 -15v-384h64v384q0 15 15 15h160q15 0 15 -15v-384h64v384q0 15 15 15z" />
    <glyph glyph-name="uni0449" unicode="&#x449;" horiz-adv-x="860" 
d="M773 558v-375h47q15 0 15 -15v-244q0 -15 -15 -15h-173q-15 0 -15 15v76h-568q-15 0 -15 15v543q0 15 15 15h180q15 0 15 -15v-375h47v375q0 15 15 15h180q15 0 15 -15v-375h47v375q0 15 15 15h180q15 0 15 -15z" />
    <glyph glyph-name="uni044A" unicode="&#x44a;" horiz-adv-x="653" 
d="M327 562v-189h73q135 0 184 -37q51 -38 51 -121v-60q0 -85 -51 -122q-50 -38 -184 -38q-143 0 -259 13q-12 2 -12 9v379h-101q-13 0 -13 10v156q0 11 13 11h287q12 0 12 -11zM441 186v14q0 26 -42 26h-72v-64h48q41 0 53.5 5t12.5 19z" />
    <glyph glyph-name="uni044B" unicode="&#x44b;" horiz-adv-x="859" 
d="M247 562v-189h73q135 0 184 -37q51 -38 51 -121v-60q0 -85 -51 -122q-50 -38 -184 -38q-143 0 -259 13q-12 2 -12 9v545q0 11 12 11h174q12 0 12 -11zM627 573h168q15 0 15 -16v-541q0 -16 -15 -16h-168q-15 0 -15 16v541q0 16 15 16zM361 186v14q0 26 -42 26h-72v-64h48
q41 0 53.5 5t12.5 19z" />
    <glyph glyph-name="uni044C" unicode="&#x44c;" horiz-adv-x="573" 
d="M247 558v-185h73q135 0 184 -37q51 -38 51 -121v-60q0 -85 -51 -122q-50 -38 -184 -38q-143 0 -259 13q-12 2 -12 12v540q0 13 14 13h169q15 0 15 -15zM361 186v14q0 26 -42 26h-72v-64h48q41 0 53.5 5t12.5 19z" />
    <glyph glyph-name="uni044D" unicode="&#x44d;" horiz-adv-x="548" 
d="M245 578q158 0 214 -62q57 -62 57 -228q0 -168 -57 -231q-56 -62 -214 -62q-115 0 -186 20q-15 4 -20.5 10t-5.5 20v103q0 12 12 12h200q63 0 77 59h-199q-13 0 -13 10v117q0 10 13 10h199q-12 58 -77 58h-200q-12 0 -12 12v103q0 14 5 19t21 11q58 19 186 19z" />
    <glyph glyph-name="uni044E" unicode="&#x44e;" horiz-adv-x="883" 
d="M573 578q166 0 221 -58q56 -59 56 -234q0 -174 -56 -233q-55 -58 -221 -58q-141 0 -199 39q-58 40 -72 150h-43v-169q0 -15 -15 -15h-180q-15 0 -15 15v543q0 15 15 15h180q15 0 15 -15v-188h41q10 121 68 164q59 44 205 44zM573 165q47 0 62 24q16 23 16 97q0 75 -16 98
q-15 24 -62 24q-45 0 -62 -24q-15 -24 -15 -98q0 -73 15 -97q17 -24 62 -24z" />
    <glyph glyph-name="uni044F" unicode="&#x44f;" horiz-adv-x="593" 
d="M286 578q124 0 245 -11q12 -1 12 -9v-546q0 -8 -2.5 -10t-9.5 -2h-175q-11 0 -11 12v180h-5l-126 -177q-10 -15 -31 -15h-171q-18 0 -9 14l133 191q-56 18 -80.5 58t-24.5 111q0 105 60 154.5t195 49.5zM345 323v81h-71q-40 0 -40 -41q0 -40 40 -40h71z" />
    <glyph glyph-name="uni0451" unicode="&#x451;" horiz-adv-x="599" 
d="M272 725q0 -41 -23.5 -63.5t-68.5 -22.5t-69 22.5t-24 63.5q0 40 24 62.5t69 22.5t68.5 -22.5t23.5 -62.5zM526 725q0 -41 -23.5 -63.5t-68.5 -22.5t-69 22.5t-24 63.5q0 40 24 62.5t69 22.5t68.5 -22.5t23.5 -62.5zM306 578q162 0 214 -58q54 -58 54 -234v-32
q0 -27 -28 -27h-310q0 -41 18 -52q19 -10 76 -10h190q15 0 15 -15v-120q0 -14 -14 -17q-73 -18 -215 -18q-163 0 -218 58t-55 233t55 233q56 59 218 59zM306 408q-72 0 -72 -67h141q0 36 -16.5 51.5t-52.5 15.5z" />
    <glyph glyph-name="Wgrave" unicode="&#x1e80;" horiz-adv-x="1108" 
d="M337 1024h199q9 0 12 -6l73 -139q5 -9 -3 -14l-65 -36q-9 -5 -14 0l-207 166q-5 5 -5 12v7q0 10 10 10zM897 791h183q18 0 15 -17l-114 -657q-13 -80 -43 -102q-29 -20 -125 -20q-74 0 -109 8q-32 9 -48 32t-30 82l-72 306l-72 -306q-14 -60 -30 -82q-17 -23 -49 -32
q-34 -8 -108 -8q-96 0 -125 20q-30 22 -43 102l-114 657q-3 17 15 17h183q12 0 15 -17l89 -547q2 -8 9 -8t9 8l121 523q5 17 23 17h154q18 0 23 -17l121 -523q2 -8 9 -8t9 8l89 547q3 17 15 17z" />
    <glyph glyph-name="wgrave" unicode="&#x1e81;" horiz-adv-x="928" 
d="M242 824h199q9 0 12 -6l73 -139q5 -9 -3 -14l-65 -36q-9 -5 -14 0l-207 166q-5 5 -5 12v7q0 10 10 10zM723 573h179q13 0 12 -13l-84 -477q-10 -55 -42 -72q-31 -16 -115 -16q-105 0 -135 14q-28 13 -40 74l-34 166l-34 -166q-12 -60 -41 -74q-30 -14 -134 -14
q-84 0 -115 16q-32 17 -42 72l-84 477q-1 13 12 13h179q9 0 10 -13l56 -404q1 -2 7 -2t6 2l89 387q3 12 17 12h148q14 0 17 -12l89 -387q0 -2 6 -2t7 2l56 404q1 13 10 13z" />
    <glyph glyph-name="Wacute" unicode="&#x1e82;" horiz-adv-x="1108" 
d="M556 1024h199q10 0 10 -10v-7q0 -7 -5 -12l-207 -166q-5 -5 -14 0l-65 36q-8 5 -3 14l73 139q3 6 12 6zM897 791h183q18 0 15 -17l-114 -657q-13 -80 -43 -102q-29 -20 -125 -20q-74 0 -109 8q-32 9 -48 32t-30 82l-72 306l-72 -306q-14 -60 -30 -82q-17 -23 -49 -32
q-34 -8 -108 -8q-96 0 -125 20q-30 22 -43 102l-114 657q-3 17 15 17h183q12 0 15 -17l89 -547q2 -8 9 -8t9 8l121 523q5 17 23 17h154q18 0 23 -17l121 -523q2 -8 9 -8t9 8l89 547q3 17 15 17z" />
    <glyph glyph-name="wacute" unicode="&#x1e83;" horiz-adv-x="928" 
d="M464 824h199q10 0 10 -10v-7q0 -7 -5 -12l-207 -166q-5 -5 -14 0l-65 36q-8 5 -3 14l73 139q3 6 12 6zM723 573h179q13 0 12 -13l-84 -477q-10 -55 -42 -72q-31 -16 -115 -16q-105 0 -135 14q-28 13 -40 74l-34 166l-34 -166q-12 -60 -41 -74q-30 -14 -134 -14
q-84 0 -115 16q-32 17 -42 72l-84 477q-1 13 12 13h179q9 0 10 -13l56 -404q1 -2 7 -2t6 2l89 387q3 12 17 12h148q14 0 17 -12l89 -387q0 -2 6 -2t7 2l56 404q1 13 10 13z" />
    <glyph glyph-name="Wdieresis" unicode="&#x1e84;" horiz-adv-x="1108" 
d="M519 925q0 -41 -23.5 -63.5t-68.5 -22.5t-69 22.5t-24 63.5q0 40 24 62.5t69 22.5t68.5 -22.5t23.5 -62.5zM773 925q0 -41 -23.5 -63.5t-68.5 -22.5t-69 22.5t-24 63.5q0 40 24 62.5t69 22.5t68.5 -22.5t23.5 -62.5zM897 791h183q18 0 15 -17l-114 -657q-13 -80 -43 -102
q-29 -20 -125 -20q-74 0 -109 8q-32 9 -48 32t-30 82l-72 306l-72 -306q-14 -60 -30 -82q-17 -23 -49 -32q-34 -8 -108 -8q-96 0 -125 20q-30 22 -43 102l-114 657q-3 17 15 17h183q12 0 15 -17l89 -547q2 -8 9 -8t9 8l121 523q5 17 23 17h154q18 0 23 -17l121 -523
q2 -8 9 -8t9 8l89 547q3 17 15 17z" />
    <glyph glyph-name="wdieresis" unicode="&#x1e85;" horiz-adv-x="928" 
d="M429 725q0 -41 -23.5 -63.5t-68.5 -22.5t-69 22.5t-24 63.5q0 40 24 62.5t69 22.5t68.5 -22.5t23.5 -62.5zM683 725q0 -41 -23.5 -63.5t-68.5 -22.5t-69 22.5t-24 63.5q0 40 24 62.5t69 22.5t68.5 -22.5t23.5 -62.5zM723 573h179q13 0 12 -13l-84 -477q-10 -55 -42 -72
q-31 -16 -115 -16q-105 0 -135 14q-28 13 -40 74l-34 166l-34 -166q-12 -60 -41 -74q-30 -14 -134 -14q-84 0 -115 16q-32 17 -42 72l-84 477q-1 13 12 13h179q9 0 10 -13l56 -404q1 -2 7 -2t6 2l89 387q3 12 17 12h148q14 0 17 -12l89 -387q0 -2 6 -2t7 2l56 404
q1 13 10 13z" />
    <glyph glyph-name="Ygrave" unicode="&#x1ef2;" horiz-adv-x="765" 
d="M147 1024h199q9 0 12 -6l73 -139q5 -9 -3 -14l-65 -36q-9 -5 -14 0l-207 166q-5 5 -5 12v7q0 10 10 10zM554 791h202q23 0 11 -22l-280 -503v-249q0 -17 -15 -17h-180q-15 0 -15 17v252l-279 500q-12 22 11 22h202q15 0 27 -16l144 -306l145 306q7 16 27 16z" />
    <glyph glyph-name="ygrave" unicode="&#x1ef3;" horiz-adv-x="647" 
d="M110 824h199q9 0 12 -6l73 -139q5 -9 -3 -14l-65 -36q-9 -5 -14 0l-207 166q-5 5 -5 12v7q0 10 10 10zM414 573h168q15 0 15 -15v-582q0 -71 -23 -111q-21 -37 -76 -55.5t-159 -20.5q-136 0 -224 18q-13 3 -13 16v108q0 15 13 15h201q48 0 65.5 12t17.5 44v7
q-62 -14 -114 -14q-127 0 -184 59t-57 184v320q0 15 15 15h168q15 0 15 -15v-271q0 -75 20 -98q21 -23 82 -23q32 0 55 6v386q0 15 15 15z" />
    <glyph glyph-name="uni1EF8" unicode="&#x1ef8;" horiz-adv-x="765" 
d="M299 1010q31 0 85 -20q51 -19 65 -19q28 0 43 33q6 14 18 9l62 -17q13 -4 10 -19q-17 -78 -42 -106t-74 -28q-34 0 -85 19q-54 20 -65 20q-28 0 -43 -33q-6 -13 -18 -9l-62 17q-13 4 -10 19q17 76 42 105q26 29 74 29zM554 791h202q23 0 11 -22l-280 -503v-249
q0 -17 -15 -17h-180q-15 0 -15 17v252l-279 500q-12 22 11 22h202q15 0 27 -16l144 -306l145 306q7 16 27 16z" />
    <glyph glyph-name="uni1EF9" unicode="&#x1ef9;" horiz-adv-x="647" 
d="M230 810q31 0 85 -20q51 -19 65 -19q28 0 43 33q6 14 18 9l62 -17q13 -4 10 -19q-17 -78 -42 -106t-74 -28q-34 0 -85 19q-54 20 -65 20q-28 0 -43 -33q-6 -13 -18 -9l-62 17q-13 4 -10 19q16 76 42 105t74 29zM414 573h168q15 0 15 -15v-582q0 -71 -23 -111
q-21 -37 -76 -55.5t-159 -20.5q-136 0 -224 18q-13 3 -13 16v108q0 15 13 15h201q48 0 65.5 12t17.5 44v7q-62 -14 -114 -14q-127 0 -184 59t-57 184v320q0 15 15 15h168q15 0 15 -15v-271q0 -75 20 -98q21 -23 82 -23q32 0 55 6v386q0 15 15 15z" />
    <glyph glyph-name="endash" unicode="&#x2013;" horiz-adv-x="613" 
d="M64 409h485q16 0 16 -15v-153q0 -15 -16 -15h-485q-16 0 -16 15v153q0 15 16 15z" />
    <glyph glyph-name="emdash" unicode="&#x2014;" horiz-adv-x="994" 
d="M64 409h866q16 0 16 -15v-153q0 -15 -16 -15h-866q-16 0 -16 15v153q0 15 16 15z" />
    <glyph glyph-name="quoteleft.001" unicode="&#x2018;" horiz-adv-x="338" 
d="M255 789l65 -36q6 -4 3 -14l-79 -275q-3 -9 -11 -9h-208q-10 0 -10 10v31q0 7 5 15l220 275q6 8 15 3z" />
    <glyph glyph-name="quoteright" unicode="&#x2019;" horiz-adv-x="329" 
d="M109 791h208q10 0 10 -10v-31q0 -7 -5 -15l-220 -275q-6 -8 -15 -3l-65 36q-6 4 -3 14l79 275q3 9 11 9z" />
    <glyph glyph-name="quotesinglbase" unicode="&#x201a;" horiz-adv-x="317" 
d="M68 133h208q10 0 10 -10v-31q0 -7 -5 -15l-220 -275q-6 -8 -15 -3l-65 36q-6 4 -3 14l79 275q3 9 11 9z" />
    <glyph glyph-name="quotedblleft.001" unicode="&#x201c;" horiz-adv-x="648" 
d="M255 789l65 -36q6 -4 3 -14l-79 -275q-3 -9 -11 -9h-208q-10 0 -10 10v31q0 7 5 15l220 275q6 8 15 3zM565 789l65 -36q6 -4 3 -14l-79 -275q-3 -9 -11 -9h-208q-10 0 -10 10v31q0 7 5 15l220 275q6 8 15 3z" />
    <glyph glyph-name="quotedblright" unicode="&#x201d;" horiz-adv-x="639" 
d="M109 791h208q10 0 10 -10v-31q0 -7 -5 -15l-220 -275q-6 -8 -15 -3l-65 36q-6 4 -3 14l79 275q3 9 11 9zM419 791h208q10 0 10 -10v-31q0 -7 -5 -15l-220 -275q-6 -8 -15 -3l-65 36q-6 4 -3 14l79 275q3 9 11 9z" />
    <glyph glyph-name="quotedblbase" unicode="&#x201e;" horiz-adv-x="618" 
d="M68 133h208q10 0 10 -10v-31q0 -7 -5 -15l-220 -275q-6 -8 -15 -3l-65 36q-6 4 -3 14l79 275q3 9 11 9zM369 133h208q10 0 10 -10v-31q0 -7 -5 -15l-220 -275q-6 -8 -15 -3l-65 36q-6 4 -3 14l79 275q3 9 11 9z" />
    <glyph glyph-name="dagger.001" unicode="&#x2020;" horiz-adv-x="535" 
d="M483 458h-116v-442q0 -16 -15 -16h-169q-15 0 -15 16v442h-116q-16 0 -16 15v134q0 15 16 15h116v153q0 16 15 16h169q15 0 15 -16v-153h116q16 0 16 -15v-134q0 -15 -16 -15z" />
    <glyph glyph-name="daggerdbl" unicode="&#x2021;" horiz-adv-x="535" 
d="M183 791h169q15 0 15 -16v-153h116q16 0 16 -15v-134q0 -15 -16 -15h-116v-132h116q16 0 16 -15v-134q0 -15 -16 -15h-116v-146q0 -16 -15 -16h-169q-15 0 -15 16v146h-116q-16 0 -16 15v134q0 15 16 15h116v132h-116q-16 0 -16 15v134q0 15 16 15h116v153q0 16 15 16z
" />
    <glyph glyph-name="bullet" unicode="&#x2022;" horiz-adv-x="560" 
d="M480 290q0 -84 -52.5 -131.5t-146.5 -47.5t-147 47.5t-53 131.5q0 83 53 130.5t147 47.5t146.5 -47.5t52.5 -130.5z" />
    <glyph glyph-name="ellipsis.001" unicode="&#x2026;" horiz-adv-x="892" 
d="M141 198q53 0 83 -27t30 -74q0 -48 -30 -75t-83 -27q-54 0 -84 27t-30 75q0 47 30 74t84 27zM442 198q53 0 83 -27t30 -74q0 -48 -30 -75t-83 -27q-54 0 -84 27t-30 75q0 47 30 74t84 27zM752 198q53 0 83 -27t30 -74q0 -48 -30 -75t-83 -27q-54 0 -84 27t-30 75
q0 47 30 74t84 27z" />
    <glyph glyph-name="perthousand.001" unicode="&#x2030;" horiz-adv-x="1402" 
d="M419 588q0 -126 -40 -166q-39 -41 -158 -41q-117 0 -158 41q-39 40 -39 166t39 167q39 42 158 42t158 -42q40 -40 40 -167zM653 792h64q13 0 6 -15l-400 -762q-7 -15 -23 -15h-64q-14 0 -7 15l400 762q7 15 24 15zM221 676q-33 0 -44 -17.5t-11 -70.5q0 -52 11 -69
t44 -17q34 0 45 17t11 69q0 53 -11 70.5t-45 17.5zM933 202q0 -126 -40 -166q-39 -41 -158 -41q-117 0 -158 41q-39 40 -39 166t39 167q39 42 158 42t158 -42q40 -40 40 -167zM1379 202q0 -126 -40 -166q-39 -41 -158 -41q-117 0 -158 41q-39 41 -39 166q0 126 39 167
q39 42 158 42t158 -42q40 -40 40 -167zM735 290q-33 0 -44 -17.5t-11 -70.5q0 -52 11 -69t44 -17q34 0 45 17t11 69q0 53 -11 70.5t-45 17.5zM1181 290q-33 0 -44 -17.5t-11 -70.5q0 -52 11 -69t44 -17q34 0 45 17t11 69q0 53 -11 70.5t-45 17.5z" />
    <glyph glyph-name="guilsinglleft" unicode="&#x2039;" horiz-adv-x="375" 
d="M161 494h167q15 0 15 -15v-7q0 -11 -7 -18l-138 -173l138 -173q7 -7 7 -18v-7q0 -15 -15 -15h-167q-11 0 -18 9l-106 139q-11 14 -11 31v68q0 17 11 31l106 139q7 9 18 9z" />
    <glyph glyph-name="guilsinglright" unicode="&#x203a;" horiz-adv-x="375" 
d="M47 494h167q10 0 18 -9l106 -139q11 -14 11 -31v-68q0 -17 -11 -31l-106 -139q-8 -9 -18 -9h-167q-15 0 -15 15v7q0 11 7 18l138 173l-138 173q-7 7 -7 18v7q0 15 15 15z" />
    <glyph glyph-name="fraction.001" unicode="&#x2044;" horiz-adv-x="140" 
d="M241 834h47q16 0 8 -17l-377 -851q-9 -17 -22 -17h-48q-17 0 -8 17l378 851q8 17 22 17z" />
    <glyph glyph-name="uni2070" unicode="&#x2070;" horiz-adv-x="378" 
d="M346 737q0 -123 -32 -167q-31 -43 -125 -43q-95 0 -126 43t-31 167t31 167t126 43q94 0 125 -43q32 -44 32 -167zM126 737q0 -76 12.5 -102t50.5 -26t50.5 26t12.5 102q0 77 -13 102q-12 27 -50 27q-37 0 -51 -27q-12 -25 -12 -102z" />
    <glyph glyph-name="uni2074" unicode="&#x2074;" horiz-adv-x="397" 
d="M106 945h67q13 0 9 -16l-60 -228h89v101q0 12 9 17l68 26q17 8 17 -9v-135h61q15 0 15 -13v-56q0 -13 -15 -13h-61v-75q0 -14 -13 -14h-68q-13 0 -13 14v75h-179q-13 0 -13 14v29q0 8 4 21l66 253q5 9 17 9z" />
    <glyph glyph-name="uni2075" unicode="&#x2075;" horiz-adv-x="372" 
d="M172 800q74 0 110 -15q36 -14 47 -39.5t11 -84.5q0 -46 -4.5 -66t-22.5 -38q-30 -30 -160 -30q-56 0 -110 8q-8 2 -8 10v56q0 8 13 8h114q53 0 68 7q16 7 16 40v9q0 33 -16.5 43t-67.5 10h-111q-16 0 -16 9v57l10 152q0 9 8 9h270q13 0 13 -14v-54q0 -14 -13 -14h-189
l-6 -67q21 4 44 4zM340 668v-11v4v7z" />
    <glyph glyph-name="uni2076" unicode="&#x2076;" horiz-adv-x="348" 
d="M151 945h76q17 0 9 -17l-66 -144q24 2 26 2q61 0 97 -30.5t36 -84.5v-31q0 -57 -34.5 -85t-118.5 -28q-80 0 -115.5 31t-38.5 97v9q2 40 14 66l99 206q6 9 16 9zM116 664v-6q0 -27 13 -38t47 -11t47 11t13 38v6q0 27 -13 37.5t-47 10.5t-47 -10.5t-13 -37.5z" />
    <glyph glyph-name="uni2077" unicode="&#x2077;" horiz-adv-x="342" 
d="M32 945h281q13 0 13 -14v-40q0 -8 -6 -20l-170 -332q-4 -9 -16 -9h-78q-16 0 -9 16l163 317h-178q-15 0 -15 12v56q0 14 15 14z" />
    <glyph glyph-name="uni2078" unicode="&#x2078;" horiz-adv-x="366" 
d="M180 947h9q137 0 137 -112q0 -37 -12 -57.5t-41 -39.5q64 -21 64 -93q0 -60 -36 -89t-113 -29h-10q-150 0 -150 114q0 69 69 97q-54 16 -54 95q0 59 33.5 86.5t103.5 27.5zM188 866h-11q-36 0 -36 -41q0 -33 33 -44l24 -5q30 16 30 50q0 40 -40 40zM202 695l-31 8
q-45 -17 -45 -52q0 -23 12.5 -32.5t40.5 -9.5h8q29 0 41 9t12 31q0 35 -38 46z" />
    <glyph glyph-name="uni2079" unicode="&#x2079;" horiz-adv-x="348" 
d="M172 948q80 0 115.5 -31t38.5 -97v-9q-2 -40 -14 -66l-99 -206q-6 -9 -16 -9h-76q-17 0 -9 17l66 144q-24 -2 -26 -2q-61 0 -97 30.5t-36 84.5v31q0 57 34.5 85t118.5 28zM112 817v-6q0 -27 13 -37.5t47 -10.5t47 10.5t13 37.5v6q0 27 -13 38t-47 11t-47 -11t-13 -38z
" />
    <glyph glyph-name="uni207D" unicode="&#x207d;" horiz-adv-x="222" 
d="M135 979h74q3 0 3 -3v-6q0 -4 -2 -6q-69 -87 -82 -127q-13 -39 -13 -132q0 -18 -1 -39v-36l2 -28q2 -22 6 -30l10 -24q10 -24 18 -34q35 -43 60 -68q2 -2 2 -6v-6q0 -3 -3 -3h-74q-6 0 -11 5q-63 90 -80 136q-15 44 -15 133q0 93 15 137t80 132q5 5 11 5z" />
    <glyph glyph-name="uni207E" unicode="&#x207e;" horiz-adv-x="222" 
d="M13 979h74q6 0 11 -5q63 -91 79 -137q16 -42 16 -132q0 -93 -15 -138q-15 -43 -80 -131q-5 -5 -11 -5h-74q-3 0 -3 3v6q0 4 2 6q68 86 81 126q14 42 14 133v38q1 31 0 36q0 2 -0.5 5.5t-1 10.5t-0.5 13q-2 24 -5 30q-2 3 -6.5 14.5t-10 23.5t-11.5 19q-29 38 -60 69
q-2 2 -2 6v6q0 3 3 3z" />
    <glyph glyph-name="lira" unicode="&#x20a4;" horiz-adv-x="676" 
d="M432 797q88 0 167 -21q16 -5 22.5 -12t6.5 -22v-112q0 -16 -15 -16h-152q-73 0 -95 -15q-22 -13 -22 -53v-44h190q16 0 16 -15v-46q0 -15 -16 -15h-190v-69h190q16 0 16 -15v-46q0 -15 -16 -15h-190v-98h281q16 0 16 -15v-153q0 -15 -16 -15h-588q-15 0 -14 15l27 153
q3 15 19 15h65v98h-61q-16 0 -16 15v46q0 15 16 15h61v69h-61q-16 0 -16 15v46q0 15 16 15h61v103q0 117 91 156q79 36 207 36z" />
    <glyph glyph-name="Euro" unicode="&#x20ac;" horiz-adv-x="725" 
d="M667 776q37 -11 29 -34l-34 -112q-6 -16 -19 -16h-163q-59 0 -85.5 -25.5t-34.5 -90.5h235q17 0 12 -15l-11 -40q-3 -15 -20 -15h-220v-31v-21h206q15 0 12 -15l-11 -40q-3 -15 -20 -15h-184q7 -71 33.5 -99.5t87.5 -28.5h167q15 0 15 -16v-112q0 -27 -29 -34
q-73 -21 -153 -21q-178 0 -251 67q-72 67 -83 244h-115q-15 0 -12 15l11 40q3 15 20 15h93v21v31h-79q-15 0 -12 15l11 40q5 15 20 15h63q13 171 85 235q73 64 249 64q34 0 93 -6t94 -15z" />
    <glyph glyph-name="uni20B9" unicode="&#x20b9;" horiz-adv-x="749" 
d="M55 791h654q16 0 16 -15v-43q0 -15 -16 -15l-174 1q43 -49 49 -152h125q16 0 16 -15v-42q0 -15 -16 -15h-125q-4 -90 -37 -137.5t-105 -66.5l170 -271q6 -8 2.5 -14t-14.5 -6h-184q-25 0 -40 22l-162 256h-159q-15 0 -15 15v124q0 15 15 15h220q49 0 70 14t26 49h-315
q-16 0 -16 15v42q0 15 16 15h310q-15 47 -91 47h-220q-15 0 -15 15v147q0 15 15 15z" />
    <glyph glyph-name="uni20BD" unicode="&#x20bd;" horiz-adv-x="767" 
d="M456 293h-122v-62h175q16 0 16 -15v-78q0 -15 -16 -15h-175v-107q0 -10 -3 -13t-12 -3h-180q-9 0 -12 3t-3 13v107h-76q-16 0 -16 15v78q0 15 16 15h76v108h-76q-16 0 -16 15v78q0 15 16 15h76v323q0 12 15 13q154 14 317 14q161 0 224 -57q63 -56 63 -202
q0 -144 -62 -195q-62 -50 -225 -50zM334 614v-167h99q57 0 77 17.5t20 66.5t-20.5 66t-76.5 17h-99z" />
    <glyph glyph-name="uni2113" unicode="&#x2113;" horiz-adv-x="415" 
d="M211 797q87 0 130.5 -29.5t43.5 -102.5v-311q0 -80 -50 -109q-43 -23 -115 -23h-47v-57q0 -55 49 -55h109q15 0 15 -15v-78q0 -14 -14 -16q-58 -6 -118 -6q-86 0 -126 29t-40 103v538q0 132 163 132zM217 682q-26 0 -35 -8.5t-9 -32.5v-304h43q26 1 35 11.5t9 37.5v255
q0 24 -8.5 32.5t-34.5 8.5z" />
    <glyph glyph-name="uni2116" unicode="&#x2116;" horiz-adv-x="1163" 
d="M1138 654q0 -70 -38 -106.5t-111 -36.5t-111 36.5t-38 106.5q0 143 149 143t149 -143zM551 791h180q15 0 15 -17v-757q0 -17 -15 -17h-123q-41 0 -64 32l-266 372v-387q0 -17 -15 -17h-180q-15 0 -15 17v757q0 17 15 17h128q20 0 33 -5q12 -5 16.5 -9.5t17.5 -22.5
l258 -360v380q0 17 15 17zM1048 654q0 59 -59 59t-59 -59t59 -59t59 59zM855 458h268q15 0 15 -15v-45q0 -15 -15 -15h-268q-15 0 -15 15v45q0 15 15 15z" />
    <glyph glyph-name="uni2117" unicode="&#x2117;" horiz-adv-x="828" 
d="M702 85q-92 -93 -288 -93t-288 93q-92 94 -92 290t92 290q92 93 288 93t288 -93q92 -94 92 -290t-92 -290zM173 132q77 -77 241 -77t241 77q77 79 77 243q0 165 -77 242q-77 78 -241 78t-241 -78q-77 -77 -77 -242q0 -164 77 -243zM445 555q80 0 112 -31t32 -104
q0 -75 -31 -100t-113 -25h-64v-125q0 -9 -2.5 -11.5t-11.5 -2.5h-78q-8 0 -10.5 2.5t-2.5 11.5v365q0 8 2 10t11 3q69 7 156 7zM434 464h-53v-84h53q34 0 42 6t8 32q0 27 -9.5 36.5t-40.5 9.5z" />
    <glyph glyph-name="uni2120" unicode="&#x2120;" horiz-adv-x="1017" 
d="M235 794q60 0 119 -13q8 -2 8 -9v-69q0 -9 -9 -9h-150q-41 0 -41 -28v-13q0 -25 28 -35l110 -41q43 -16 61 -34q24 -20 24 -83v-22q0 -122 -183 -122q-82 0 -153 13q-8 2 -8 10v68q0 9 10 9h188q30 0 30 20v11q-2 20 -11 28t-30 16l-126 44q-55 19 -55 121v18q0 62 37 90
q15 12 42 20q40 10 109 10zM834 792h94q7 0 8 -10l45 -449q2 -14 -14 -14h-88q-11 0 -13 14l-23 251l-95 -237q-3 -8 -12 -8h-79q-8 0 -13 8l-95 238l-23 -252q-2 -14 -13 -14h-88q-16 0 -14 14l45 448q1 10 8 10h94q16 0 22.5 -4.5t12.5 -19.5l103 -271l103 272
q6 15 12.5 19.5t22.5 4.5z" />
    <glyph glyph-name="trademark.001" unicode="&#x2122;" horiz-adv-x="1007" 
d="M36 792h352q14 0 14 -14v-72q0 -14 -14 -14h-119v-358q0 -14 -14 -14h-88q-13 0 -13 14v358h-118q-14 0 -14 14v72q0 14 14 14zM818 792h94q8 0 8 -9l45 -449q2 -14 -14 -14h-87q-12 0 -14 14l-23 251l-95 -237q-3 -8 -12 -8h-79q-9 0 -12 8l-95 237l-23 -251
q-2 -14 -14 -14h-88q-16 0 -14 14l45 448q1 10 8 10h95q16 0 22.5 -4.5t11.5 -19.5l103 -271l103 271q6 15 12.5 19.5t22.5 4.5z" />
    <glyph glyph-name="Omega" unicode="&#x2126;" horiz-adv-x="887" 
d="M850 450q0 -116 -36.5 -182.5t-114.5 -91.5h121q15 0 15 -15v-146q0 -15 -15 -15h-313q-15 0 -15 15v171q0 12 12 18q78 31 111 77.5t33 128.5q0 105 -49.5 154.5t-155.5 49.5q-104 0 -153.5 -49.5t-49.5 -154.5q0 -82 33 -127.5t110 -78.5q12 -6 12 -18v-171
q0 -15 -15 -15h-312q-15 0 -15 15v146q0 15 15 15h121q-78 25 -115 91t-37 181q0 179 98.5 264t307.5 85t308 -84.5t99 -262.5z" />
    <glyph glyph-name="estimated" unicode="&#x212e;" horiz-adv-x="603" 
d="M308 575q125 0 198 -85q75 -84 75 -206h-429v-193q66 -63 152 -63q72 0 120 31t90 96l31 -19q-47 -72 -102.5 -106.5t-138.5 -34.5q-118 0 -195 84q-76 85 -76 206q0 123 75 206q75 84 200 84zM308 542q-96 0 -156 -62v-163h309v163q-68 62 -153 62z" />
    <glyph glyph-name="oneeighth" unicode="&#x215b;" horiz-adv-x="898" 
d="M617 834h47q16 0 8 -17l-377 -851q-9 -17 -22 -17h-48q-17 0 -8 17l378 851q8 17 22 17zM288 444v-55q0 -13 -14 -13h-230q-14 0 -14 13v55q0 14 14 14h72v221q0 20 -9 27t-39 7h-28q-15 0 -15 13v42q0 9 13 16q17 9 56 9q22 0 38 -2t36 -9.5t30.5 -24.5t10.5 -43v-256
h65q14 0 14 -14zM811 208q64 -21 64 -93q0 -60 -36 -89t-113 -29h-10q-150 0 -150 114q0 69 69 97q-54 16 -54 95q0 59 33.5 86.5t103.5 27.5h9q137 0 137 -112q0 -37 -12 -57.5t-41 -39.5zM726 336h-11q-36 0 -36 -41q0 -33 33 -44l24 -5q30 16 30 50q0 40 -40 40zM717 79
h8q29 0 41 9t12 31q0 38 -38 46l-31 8q-45 -17 -45 -52q0 -23 12.5 -32.5t40.5 -9.5z" />
    <glyph glyph-name="threeeighths" unicode="&#x215c;" horiz-adv-x="875" 
d="M601 834h47q16 0 8 -17l-377 -851q-9 -17 -22 -17h-48q-17 0 -8 17l378 851q8 17 22 17zM157 793q85 0 114 -24q30 -24 30 -94v-2q0 -73 -48 -89q48 -10 48 -87v-6q0 -70 -30 -94q-29 -24 -114 -24q-57 0 -121 11q-8 2 -8 10v51q0 9 13 9h63q70 0 85 7q18 7 18 33v11
q0 11 -2 18t-15.5 15t-39.5 8h-89q-10 0 -10 10v55q0 5 1.5 7t8.5 2h88q37 0 47.5 9t10.5 35v8q0 24 -18 32t-85 8h-63q-13 0 -13 9v51q0 8 8 10q64 11 121 11zM695 417h9q137 0 137 -112q0 -37 -12 -57.5t-41 -39.5q64 -21 64 -93q0 -60 -36 -89t-113 -29h-10
q-150 0 -150 114q0 69 69 97q-54 16 -54 95q0 59 33.5 86.5t103.5 27.5zM703 336h-11q-36 0 -36 -41q0 -33 33 -44l24 -5q30 16 30 50q0 40 -40 40zM717 165l-31 8q-45 -17 -45 -52q0 -23 12.5 -32.5t40.5 -9.5h8q29 0 41 9t12 31q0 38 -38 46z" />
    <glyph glyph-name="fiveeighths" unicode="&#x215d;" horiz-adv-x="924" 
d="M645 834h47q16 0 8 -17l-377 -851q-9 -17 -22 -17h-48q-17 0 -8 17l378 851q8 17 22 17zM335 507q0 -46 -4.5 -66t-22.5 -38q-30 -30 -160 -30q-56 0 -110 8q-8 2 -8 10v56q0 8 13 8h114q53 0 68 7q16 7 16 40v9q0 33 -16.5 43t-67.5 10h-111q-16 0 -16 9v57l10 152
q0 9 8 9h270q13 0 13 -14v-54q0 -14 -13 -14h-189l-6 -67q21 4 44 4q74 0 110 -15q36 -14 47 -39.5t11 -84.5zM335 514v-11v4v7zM837 208q64 -21 64 -93q0 -60 -36 -89t-113 -29h-10q-150 0 -150 114q0 69 69 97q-54 16 -54 95q0 59 33.5 86.5t103.5 27.5h9q137 0 137 -112
q0 -37 -12 -57.5t-41 -39.5zM752 336h-11q-36 0 -36 -41q0 -33 33 -44l24 -5q30 16 30 50q0 40 -40 40zM743 79h8q29 0 41 9t12 31q0 38 -38 46l-31 8q-45 -17 -45 -52q0 -23 12.5 -32.5t40.5 -9.5z" />
    <glyph glyph-name="seveneighths" unicode="&#x215e;" horiz-adv-x="840" 
d="M547 834h47q16 0 8 -17l-377 -851q-9 -17 -22 -17h-48q-17 0 -8 17l378 851q8 17 22 17zM36 791h281q13 0 13 -14v-40q0 -8 -6 -20l-170 -332q-4 -9 -16 -9h-78q-16 0 -9 16l163 317h-178q-15 0 -15 12v56q0 14 15 14zM658 417h9q137 0 137 -112q0 -37 -12 -57.5
t-41 -39.5q64 -21 64 -93q0 -60 -36 -89t-113 -29h-10q-150 0 -150 114q0 69 69 97q-54 16 -54 95q0 59 33.5 86.5t103.5 27.5zM666 336h-11q-36 0 -36 -41q0 -33 33 -44l24 -5q30 16 30 50q0 40 -40 40zM680 165l-31 8q-45 -17 -45 -52q0 -23 12.5 -32.5t40.5 -9.5h8
q29 0 41 9t12 31q0 38 -38 46z" />
    <glyph glyph-name="arrowleft" unicode="&#x2190;" horiz-adv-x="1006" 
d="M441 529h30q12 0 12 -11v-168h439q16 0 16 -15v-103q0 -15 -16 -15h-439v-168q0 -11 -12 -11h-30q-5 0 -22 6l-348 203q-11 8 -11 22v27q0 16 11 22l349 204q15 7 21 7z" />
    <glyph glyph-name="arrowup" unicode="&#x2191;" horiz-adv-x="609" 
d="M292 722h27q14 0 22 -11l203 -348q6 -17 6 -22v-30q0 -12 -11 -12h-168v-439q0 -16 -15 -16h-103q-15 0 -15 16v439h-168q-11 0 -11 12v30q0 6 7 21l204 349q6 11 22 11z" />
    <glyph glyph-name="arrowright" unicode="&#x2192;" horiz-adv-x="1006" 
d="M535 529h30q6 0 21 -7l349 -204q11 -6 11 -22v-27q0 -14 -11 -22l-348 -203q-17 -6 -22 -6h-30q-12 0 -12 11v168h-439q-16 0 -16 15v103q0 15 16 15h439v168q0 11 12 11z" />
    <glyph glyph-name="arrowdown" unicode="&#x2193;" horiz-adv-x="609" 
d="M253 722h103q15 0 15 -16v-439h168q11 0 11 -12v-30q0 -6 -7 -21l-204 -349q-6 -11 -22 -11h-27q-14 0 -22 11l-203 348q-6 16 -6 22v30q0 12 11 12h168v439q0 16 15 16z" />
    <glyph glyph-name="arrowboth" unicode="&#x2194;" horiz-adv-x="1324" 
d="M852 529h30q6 0 21 -7l349 -203q12 -9 12 -23v-27q-1 -16 -12 -22l-348 -203q-16 -6 -22 -6l-30 1q-12 -1 -12 10v168h-356v-168q0 -11 -12 -10l-30 -1q-6 0 -22 6l-348 203q-11 6 -12 22v27q0 14 12 23l349 203q15 7 21 7h30q11 0 12 -10v-169h356v169q1 10 12 10z" />
    <glyph glyph-name="arrowupdn" unicode="&#x2195;" horiz-adv-x="616" 
d="M295 885h27q16 -1 22 -12l203 -348q6 -17 6 -22l-1 -30q2 -12 -10 -12h-168v-356h168q12 0 10 -12l1 -30q0 -5 -6 -22l-203 -348q-6 -11 -22 -12h-27q-14 0 -23 12l-203 349q-7 15 -7 21v30q0 11 10 12h169v356h-169q-10 1 -10 12v30q0 6 7 21l203 349q9 12 23 12z" />
    <glyph glyph-name="uni2196" unicode="&#x2196;" horiz-adv-x="799" 
d="M114 622l390 -102q18 -9 20 -11l21 -22q9 -9 1 -16l-119 -119l310 -310q11 -12 1 -22l-73 -73q-11 -11 -22 1l-310 310l-119 -119q-8 -7 -16 1l-22 21q-4 4 -9 20l-103 391q-3 13 8 24l19 19q11 11 23 7z" />
    <glyph glyph-name="uni2197" unicode="&#x2197;" horiz-adv-x="800" 
d="M295 519l391 103q12 3 23 -8l19 -19q11 -11 8 -24l-102 -389q-7 -15 -12 -20l-21 -21q-8 -9 -16 -1l-119 119l-310 -311q-11 -11 -22 0l-73 72q-11 10 1 22l310 311l-119 119q-7 8 1 16l21 21q2 2 20 10z" />
    <glyph glyph-name="uni2198" unicode="&#x2198;" horiz-adv-x="799" 
d="M155 618l311 -310l119 119q7 7 16 -1l21 -21q3 -3 10 -20l103 -391q3 -13 -8 -24l-19 -19q-13 -11 -24 -7l-389 102q-18 9 -20 11l-21 22q-9 8 -1 16l119 119l-311 310q-11 11 0 22l72 73q11 11 22 -1z" />
    <glyph glyph-name="uni2199" unicode="&#x2199;" horiz-adv-x="799" 
d="M666 618l73 -73q11 -11 -1 -22l-310 -310l119 -119q7 -8 -1 -16l-21 -21q-5 -5 -20 -10l-391 -103q-13 -3 -24 8l-19 19q-11 11 -7 23l102 390q9 18 11 20l22 21q9 9 16 1l119 -119l310 310q12 11 22 1z" />
    <glyph glyph-name="partialdiff" unicode="&#x2202;" horiz-adv-x="675" 
d="M311 790h187q12 0 16 -10l128 -387q9 -37 2 -82l-22 -124q-19 -115 -120 -157q-83 -35 -221 -35q-132 0 -201 35q-80 42 -61 157l22 124q15 89 90 134.5t196 45.5q31 0 63 -4l-93 285q-5 18 14 18zM338 320q-41 0 -62 -8q-19 -8 -24.5 -18t-11.5 -42l-1 -6
q-8 -41 3.5 -54.5t70.5 -13.5q67 3 84 14.5t25 53.5l1 6q8 40 -6.5 54t-78.5 14z" />
    <glyph glyph-name="Delta" unicode="&#x2206;" horiz-adv-x="744" 
d="M285 720h185q14 0 18 -12l233 -614q3 -10 3 -19v-60q0 -15 -15 -15h-675q-15 0 -15 15v59q0 11 4 19l244 615q6 12 18 12zM457 184l-82 259l-85 -259h167z" />
    <glyph glyph-name="product.001" unicode="&#x220f;" horiz-adv-x="741" 
d="M24 791h693q15 0 15 -15v-153q0 -15 -15 -15h-88v-681q0 -15 -15 -15h-169q-15 0 -15 15v681h-119v-681q0 -15 -15 -15h-169q-15 0 -15 15v681h-88q-15 0 -15 15v153q0 15 15 15z" />
    <glyph glyph-name="summation.001" unicode="&#x2211;" horiz-adv-x="608" 
d="M34 791h515q15 0 15 -15v-162q0 -15 -15 -15h-253l151 -233q6 -11 6 -14v-6q0 -8 -6 -16l-158 -226h286q15 0 15 -15v-162q0 -15 -15 -15h-551q-15 0 -15 15v104q0 9 6 18l195 275q6 9 6 18v4q0 6 -5 16l-187 288q-5 10 -5 19v107q0 15 15 15z" />
    <glyph glyph-name="minus" unicode="&#x2212;" horiz-adv-x="534" 
d="M65 409h404q16 0 16 -15v-153q0 -15 -16 -15h-404q-16 0 -16 15v153q0 15 16 15z" />
    <glyph glyph-name="radical" unicode="&#x221a;" horiz-adv-x="697" 
d="M511 792h170q18 0 13 -17l-214 -930q-3 -13 -16 -13h-220q-13 0 -17 12l-114 347l-60 -17q-15 -5 -18 10l-44 143q-5 14 10 18l240 69q15 5 18 -10l85 -266l151 641q3 13 16 13z" />
    <glyph glyph-name="infinity.001" unicode="&#x221e;" horiz-adv-x="828" 
d="M593 514q112 0 157 -42t45 -148q0 -110 -45 -153q-43 -43 -157 -43q-43 0 -78 16t-80 57l-22 21l-15 -16q-48 -43 -83.5 -60.5t-79.5 -17.5q-114 0 -158 43q-44 44 -44 153q0 106 45 148t157 42q39 0 70.5 -13t70.5 -46l38 -35l40 36q39 32 69.5 45t69.5 13zM228 366
q-28 0 -39 -9.5t-12 -34.5q1 -25 12 -34.5t39 -9.5q41 0 75 25l27 19l-27 19q-34 25 -75 25zM600 366q-41 0 -75 -25l-27 -19l27 -19q34 -25 75 -25q28 0 39 9.5t12 34.5q-1 25 -12 34.5t-39 9.5z" />
    <glyph glyph-name="integral.001" unicode="&#x222b;" horiz-adv-x="468" 
d="M315 796q63 0 127 -12q18 -3 18 -22v-120q0 -16 -18 -16h-101q-17 0 -23.5 -5.5t-6.5 -20.5q0 -92 22 -265q22 -172 22 -264q0 -97 -50 -130q-49 -34 -152 -34q-62 0 -127 12q-18 3 -18 22v120q0 16 18 16h101q17 0 23.5 5.5t6.5 20.5q0 92 -22 264q-22 173 -22 265
q0 97 50 130q49 34 152 34z" />
    <glyph glyph-name="approxequal.001" unicode="&#x2248;" horiz-adv-x="682" 
d="M236 662q48 0 115 -32t89 -32q51 0 83 50q7 10 21 1l95 -61q9 -5 3 -19q-26 -67 -78 -103.5t-120 -36.5q-48 0 -114.5 32t-88.5 32q-51 0 -83 -50q-8 -11 -18 -3l-96 62q-11 6 -5 20q26 68 77.5 104t119.5 36zM236 390q48 0 115 -32t89 -32q51 0 83 50q7 10 21 1l95 -61
q9 -5 3 -19q-26 -67 -78 -103.5t-120 -36.5q-48 0 -114.5 32t-88.5 32q-51 0 -83 -50q-8 -11 -18 -3l-96 62q-11 6 -5 20q26 68 77.5 104t119.5 36z" />
    <glyph glyph-name="notequal.001" unicode="&#x2260;" horiz-adv-x="663" 
d="M455 620h59q16 0 8 -17l-28 -63h104q15 0 15 -15v-150q0 -15 -15 -15h-183l-43 -99h226q15 0 15 -15v-150q0 -15 -15 -15h-305l-28 -64q-8 -17 -22 -17h-60q-16 0 -8 17l28 64h-138q-15 0 -15 15v150q0 15 15 15h217l44 99h-261q-15 0 -15 15v150q0 15 15 15h340l28 63
q8 17 22 17z" />
    <glyph glyph-name="lessequal" unicode="&#x2264;" horiz-adv-x="633" 
d="M543 706h20q15 0 15 -15v-123q0 -13 -13 -16l-232 -61l232 -62q13 -3 13 -16v-123q0 -15 -15 -15h-20q-7 0 -18 3l-469 143q-12 4 -12 17v106q0 13 13 17l468 142q11 3 18 3zM59 225h502q15 0 15 -15v-113q0 -15 -15 -15h-502q-15 0 -15 15v113q0 15 15 15z" />
    <glyph glyph-name="greaterequal" unicode="&#x2265;" horiz-adv-x="633" 
d="M70 706h20q8 0 18 -3l468 -142q13 -4 13 -17v-106q0 -13 -12 -17l-469 -143q-10 -3 -18 -3h-20q-15 0 -15 15v123q0 13 13 16l232 62l-232 61q-13 3 -13 16v123q0 15 15 15zM72 225h502q15 0 15 -15v-113q0 -15 -15 -15h-502q-15 0 -15 15v113q0 15 15 15z" />
    <glyph glyph-name="uni2460" unicode="&#x2460;" horiz-adv-x="800" 
d="M400 760q181 0 274 -94t93 -273t-94 -273t-273 -94q-180 0 -274 94t-94 273t94.5 273t273.5 94zM400 80q313 0 313 313t-313 313q-314 0 -314 -313t314 -313zM452 518v-256h65q14 0 14 -14v-55q0 -13 -14 -13h-230q-14 0 -14 13v55q0 14 14 14h72v221q0 20 -9 27t-39 7
h-28q-15 0 -15 13v42q0 9 13 16q17 9 56 9q22 0 38 -2t36 -9.5t30.5 -24.5t10.5 -43z" />
    <glyph glyph-name="uni2461" unicode="&#x2461;" horiz-adv-x="800" 
d="M400 760q181 0 274 -94t93 -273t-94 -273t-273 -94q-180 0 -274 94t-94 273t94.5 273t273.5 94zM400 80q313 0 313 313t-313 313q-314 0 -314 -313t314 -313zM410 597q64 0 98 -14q44 -17 44 -75v-54q0 -70 -49 -92l-116 -56q-22 -10 -28 -16.5t-6 -20.5v-7h192q7 0 7 -6
v-70q0 -6 -6 -6h-284q-14 0 -14 15v55q0 43 18.5 69.5t67.5 53.5l101 51q23 11 23 38v28q0 15 -8 20.5t-30 5.5h-131q-8 0 -8 8v52q0 8 6 10q64 11 123 11z" />
    <glyph glyph-name="uni2462" unicode="&#x2462;" horiz-adv-x="800" 
d="M400 760q181 0 274 -94t93 -273t-94 -273t-273 -94q-180 0 -274 94t-94 273t94.5 273t273.5 94zM400 80q313 0 313 313t-313 313q-314 0 -314 -313t314 -313zM392 597q86 0 114 -24q30 -24 30 -94v-2q0 -73 -48 -89q48 -10 48 -87v-6q0 -70 -30 -94q-28 -24 -114 -24
q-57 0 -121 11q-8 2 -8 10v51q0 9 13 9h63q70 0 85 7q18 7 18 33v11q0 11 -2 18t-15.5 15t-39.5 8h-89q-10 0 -10 10v55q0 4 0.5 5.5t2.5 2.5t7 1h88q37 0 47.5 9t10.5 35v8q0 25 -18 32q-18 8 -85 8h-63q-13 0 -13 9v51q0 8 8 10q64 11 121 11z" />
    <glyph glyph-name="uni2463" unicode="&#x2463;" horiz-adv-x="800" 
d="M400 760q181 0 274 -94t93 -273t-94 -273t-273 -94q-180 0 -274 94t-94 273t94.5 273t273.5 94zM400 80q313 0 313 313t-313 313q-314 0 -314 -313t314 -313zM306 595h67q13 0 9 -16l-60 -228h89v101q0 12 9 17l68 26q17 8 17 -9v-135h61q15 0 15 -13v-56q0 -13 -15 -13
h-61v-75q0 -14 -13 -14h-68q-13 0 -13 14v75h-179q-13 0 -13 14v29q0 8 4 21l66 253q5 9 17 9z" />
    <glyph glyph-name="uni2464" unicode="&#x2464;" horiz-adv-x="800" 
d="M400 760q181 0 274 -94t93 -273t-94 -273t-273 -94q-180 0 -274 94t-94 273t94.5 273t273.5 94zM400 80q313 0 313 313t-313 313q-314 0 -314 -313t314 -313zM384 450q74 0 110 -15q36 -14 47 -39.5t11 -84.5q0 -46 -4.5 -66t-22.5 -38q-30 -30 -160 -30q-56 0 -110 8
q-8 2 -8 10v56q0 8 13 8h114q53 0 68 7q16 7 16 40v9q0 33 -16.5 43t-67.5 10h-111q-16 0 -16 9v57l10 152q0 9 8 9h270q13 0 13 -14v-54q0 -14 -13 -14h-189l-6 -67q21 4 44 4zM552 318v-11v4v7z" />
    <glyph glyph-name="uni2465" unicode="&#x2465;" horiz-adv-x="800" 
d="M400 760q181 0 274 -94t93 -273t-94 -273t-273 -94q-180 0 -274 94t-94 273t94.5 273t273.5 94zM400 80q313 0 313 313t-313 313q-314 0 -314 -313t314 -313zM375 595h76q17 0 9 -17l-66 -144q24 2 26 2q61 0 97 -30.5t36 -84.5v-31q0 -57 -34.5 -85t-118.5 -28
q-80 0 -115.5 31t-38.5 97v9q2 40 14 66l99 206q6 9 16 9zM340 314v-6q0 -27 13 -38t47 -11t47 11t13 38v6q0 27 -13 37.5t-47 10.5t-47 -10.5t-13 -37.5z" />
    <glyph glyph-name="uni2466" unicode="&#x2466;" horiz-adv-x="800" 
d="M400 760q181 0 274 -94t93 -273t-94 -273t-273 -94q-180 0 -274 94t-94 273t94.5 273t273.5 94zM400 80q313 0 313 313t-313 313q-314 0 -314 -313t314 -313zM260 595h281q13 0 13 -14v-40q0 -8 -6 -20l-170 -332q-4 -9 -16 -9h-78q-16 0 -9 16l163 317h-178
q-15 0 -15 12v56q0 14 15 14z" />
    <glyph glyph-name="uni2467" unicode="&#x2467;" horiz-adv-x="800" 
d="M400 760q181 0 274 -94t93 -273t-94 -273t-273 -94q-180 0 -274 94t-94 273t94.5 273t273.5 94zM400 80q313 0 313 313t-313 313q-314 0 -314 -313t314 -313zM397 597h9q137 0 137 -112q0 -37 -12 -57.5t-41 -39.5q64 -21 64 -93q0 -60 -36 -89t-113 -29h-10
q-150 0 -150 114q0 69 69 97q-54 16 -54 95q0 59 33.5 86.5t103.5 27.5zM403 516h-11q-36 0 -36 -41q0 -34 33 -44l24 -5q30 16 30 50q0 40 -40 40zM419 345l-31 8q-45 -17 -45 -52q0 -23 12.5 -32.5t40.5 -9.5h8q29 0 41 9t12 31q0 35 -38 46z" />
    <glyph glyph-name="uni2468" unicode="&#x2468;" horiz-adv-x="800" 
d="M400 760q181 0 274 -94t93 -273t-94 -273t-273 -94q-180 0 -274 94t-94 273t94.5 273t273.5 94zM400 80q313 0 313 313t-313 313q-314 0 -314 -313t314 -313zM399 598q80 0 115.5 -31t38.5 -97v-9q-2 -40 -14 -66l-99 -206q-6 -9 -16 -9h-76q-17 0 -9 17l66 144
q-24 -2 -26 -2q-61 0 -97 30.5t-36 84.5v31q0 57 34.5 85t118.5 28zM340 467v-6q0 -27 13 -37.5t47 -10.5t47 10.5t13 37.5v6q0 27 -13 38t-47 11t-47 -11t-13 -38z" />
    <glyph glyph-name="uni24EA" unicode="&#x24ea;" horiz-adv-x="800" 
d="M400 760q181 0 274 -94t93 -273t-94 -273t-273 -94q-180 0 -274 94t-94 273t94.5 273t273.5 94zM400 80q313 0 313 313t-313 313q-314 0 -314 -313t314 -313zM557 387q0 -123 -32 -167q-31 -43 -125 -43q-95 0 -126 43t-31 167t31 167t126 43q94 0 125 -43
q32 -44 32 -167zM337 387q0 -76 12.5 -102t50.5 -26t50.5 26t12.5 102q0 77 -13 102q-12 27 -50 27t-51 -27q-12 -25 -12 -102z" />
    <glyph glyph-name="uni24FF" unicode="&#x24ff;" horiz-adv-x="800" 
d="M400 713q340 0 340 -340q0 -168 -86 -254t-254 -86q-167 0 -255 86q-86 86 -86 254t86.5 254t254.5 86zM243 367q0 -124 31 -167t126 -43q94 0 125 43q32 44 32 167t-32 167q-31 43 -125 43q-95 0 -126 -43t-31 -167zM463 367q0 -76 -12.5 -102t-50.5 -26t-50.5 26
t-12.5 102q0 77 12 102q13 27 51 27t50 -27q13 -25 13 -102z" />
    <glyph glyph-name="lozenge.001" unicode="&#x25ca;" horiz-adv-x="630" 
d="M251 720h127q12 0 18 -10l212 -347q6 -10 -1 -20l-214 -333q-6 -10 -18 -10h-121q-12 0 -18 10l-213 333q-7 10 -1 20l211 347q6 10 18 10zM389 364l-64 102q-11 15 -21 0l-65 -104q-7 -10 0 -20l64 -97q11 -17 21 0l65 99q7 10 0 20z" />
    <glyph glyph-name="uni261E" unicode="&#x261e;" horiz-adv-x="1000" 
d="M704 605l154 -3q51 0 69.5 -16t18.5 -59q0 -44 -18.5 -60t-69.5 -16h-47q2 -16 2 -22q0 -28 -14 -42q14 -16 14 -45q0 -28 -14 -42q14 -16 14 -45q0 -31 -14.5 -45t-54.5 -21q-168 -23 -256 -22q-94 1 -214 30v-32q0 -13 -13 -13h-136q-11 0 -11 10l-1 2q-60 196 0 393
q1 10 12 10h136q13 0 13 -12v-17q93 39 185 53q90 14 245 14zM584 499h274q26 0 33 5t7 23q0 17 -7.5 22t-34.5 5l-152 3q-158 0 -244 -15q-84 -13 -186 -56v-239q105 -29 194 -32q91 -3 256 18q26 4 33 8t7 14q0 14 -6.5 17.5t-33.5 3.5h-141q-12 0 -12 13v24q0 12 12 12
h142q26 0 32.5 3t6.5 14q0 14 -7 18t-33 4h-141q-12 0 -12 12v24q0 12 12 12h142q26 0 32.5 3t6.5 14q0 14 -7 18t-33 4h-140q-12 0 -12 12v24q0 12 12 12zM226 201v318h-74q-45 -145 -3 -318h77z" />
    <glyph glyph-name="uni267C" unicode="&#x267c;" horiz-adv-x="800" 
d="M754 380q0 -147 -104 -251q-103 -103 -250 -103t-250 103q-104 104 -104 251q0 146 104 250t250 104t250 -104t104 -250zM405 564l41 -69l-39 -24l129 1l63 112l-42 -25l-28 46q-16 25 -41 31l-8 1l-162 1q-35 -4 -52 -26l-4 -8l-57 -98l114 -65l71 125q10 10 15 -2z
M555 276l-81 -1v46l-64 -112l65 -112v49l54 1q28 0 47 21l5 6l81 140q16 33 4 58l-4 8l-57 97l-113 -64l72 -126q2 -5 -0.5 -8.5t-8.5 -2.5zM230 290l40 71l40 -23l-66 111l-128 -1l42 -24l-26 -47q-15 -27 -6 -51l3 -8l81 -140q24 -32 50 -32h8h113l-1 130h-144
q-14 2 -6 14z" />
    <glyph glyph-name="uni2776" unicode="&#x2776;" horiz-adv-x="800" 
d="M400 713q340 0 340 -340q0 -168 -86 -254t-254 -86q-167 0 -255 86q-86 86 -86 254t86.5 254t254.5 86zM517 242h-65v256q0 26 -10.5 43t-30.5 24.5t-36 9.5t-38 2q-39 0 -56 -9q-13 -7 -13 -16v-42q0 -13 15 -13h28q30 0 39 -7t9 -27v-221h-72q-14 0 -14 -14v-55
q0 -13 14 -13h230q14 0 14 13v55q0 14 -14 14z" />
    <glyph glyph-name="uni2777" unicode="&#x2777;" horiz-adv-x="800" 
d="M400 713q340 0 340 -340q0 -168 -86 -254t-254 -86q-167 0 -255 86q-86 86 -86 254t86.5 254t254.5 86zM410 577q-59 0 -123 -11q-6 -2 -6 -10v-52q0 -8 8 -8h131q22 0 30 -5.5t8 -20.5v-28q0 -27 -23 -38l-101 -51q-49 -27 -67.5 -53.5t-18.5 -69.5v-55q0 -15 14 -15
h284q6 0 6 6v70q0 6 -7 6h-192v7q0 14 6 20.5t28 16.5l116 56q49 22 49 92v54q0 58 -44 75q-34 14 -98 14z" />
    <glyph glyph-name="uni2778" unicode="&#x2778;" horiz-adv-x="800" 
d="M400 713q340 0 340 -340q0 -168 -86 -254t-254 -86q-167 0 -255 86q-86 86 -86 254t86.5 254t254.5 86zM392 577q-57 0 -121 -11q-8 -2 -8 -10v-51q0 -9 13 -9h63q67 0 85 -8q18 -7 18 -32v-8q0 -26 -10.5 -35t-47.5 -9h-88q-10 0 -10 -9v-55q0 -10 10 -10h89
q26 0 39.5 -8t15.5 -15t2 -18v-11q0 -26 -18 -33q-15 -7 -85 -7h-63q-13 0 -13 -9v-51q0 -8 8 -10q64 -11 121 -11q86 0 114 24q30 24 30 94v6q0 77 -48 87q48 16 48 89v2q0 70 -30 94q-28 24 -114 24z" />
    <glyph glyph-name="uni2779" unicode="&#x2779;" horiz-adv-x="800" 
d="M400 713q340 0 340 -340q0 -168 -86 -254t-254 -86q-167 0 -255 86q-86 86 -86 254t86.5 254t254.5 86zM373 575h-67q-12 0 -17 -9l-66 -253q-4 -13 -4 -21v-29q0 -14 13 -14h179v-75q0 -14 13 -14h68q13 0 13 14v75h61q15 0 15 13v56q0 13 -15 13h-61v135q0 17 -17 9
l-68 -26q-9 -5 -9 -17v-101h-89l60 228q4 16 -9 16z" />
    <glyph glyph-name="uni277A" unicode="&#x277a;" horiz-adv-x="800" 
d="M400 713q340 0 340 -340q0 -168 -86 -254t-254 -86q-167 0 -255 86q-86 86 -86 254t86.5 254t254.5 86zM365 157q130 0 160 30q18 18 22.5 38t4.5 66q0 55 -11 83q-20 56 -157 56q-23 0 -44 -4l6 67h189q13 0 13 14v54q0 14 -13 14h-270q-8 0 -8 -9l-10 -152v-57
q0 -9 16 -9h111q51 0 67.5 -10t16.5 -43v-9q0 -33 -16 -40q-15 -7 -68 -7h-114q-13 0 -13 -8v-56q0 -8 8 -10q54 -8 110 -8z" />
    <glyph glyph-name="uni277B" unicode="&#x277b;" horiz-adv-x="800" 
d="M400 713q340 0 340 -340q0 -168 -86 -254t-254 -86q-167 0 -255 86q-86 86 -86 254t86.5 254t254.5 86zM451 575h-76q-10 0 -16 -9l-99 -206q-12 -26 -14 -66v-9q3 -66 38.5 -97t115.5 -31q84 0 118.5 28t34.5 85v31q0 54 -36 84.5t-97 30.5q-2 0 -26 -2l66 144
q8 17 -9 17zM460 294v-6q0 -27 -13 -38t-47 -11t-47 11t-13 38v6q0 27 13 37.5t47 10.5t47 -10.5t13 -37.5z" />
    <glyph glyph-name="uni277C" unicode="&#x277c;" horiz-adv-x="800" 
d="M400 713q340 0 340 -340q0 -168 -86 -254t-254 -86q-167 0 -255 86q-86 86 -86 254t86.5 254t254.5 86zM541 575h-281q-15 0 -15 -14v-56q0 -12 15 -12h178l-163 -317q-7 -16 9 -16h78q12 0 16 9l170 332q6 12 6 20v40q0 14 -13 14z" />
    <glyph glyph-name="uni277D" unicode="&#x277d;" horiz-adv-x="800" 
d="M400 713q340 0 340 -340q0 -168 -86 -254t-254 -86q-167 0 -255 86q-86 86 -86 254t86.5 254t254.5 86zM406 577h-9q-70 0 -103.5 -27.5t-33.5 -86.5q0 -79 54 -95q-69 -28 -69 -97q0 -114 150 -114h10q77 0 113 29t36 89q0 72 -64 93q29 19 41 39.5t12 57.5
q0 112 -137 112zM392 496h11q40 0 40 -40q0 -34 -30 -50l-24 5q-33 11 -33 44q0 41 36 41zM388 333l31 -8q38 -11 38 -46q0 -22 -12 -31t-41 -9h-8q-28 0 -40.5 9.5t-12.5 32.5q0 35 45 52z" />
    <glyph glyph-name="uni277E" unicode="&#x277e;" horiz-adv-x="800" 
d="M400 713q340 0 340 -340q0 -168 -86 -254t-254 -86q-167 0 -255 86q-86 86 -86 254t86.5 254t254.5 86zM399 578q-84 0 -118.5 -28t-34.5 -85v-31q0 -54 36 -84.5t97 -30.5q2 0 26 2l-66 -144q-8 -17 9 -17h76q10 0 16 9l99 206q12 26 14 66v9q-3 66 -38.5 97t-115.5 31z
M460 447v-6q0 -27 -13 -37.5t-47 -10.5t-47 10.5t-13 37.5v6q0 27 13 38t47 11t47 -11t13 -38z" />
    <glyph glyph-name="uniF8FF" unicode="&#xf8ff;" horiz-adv-x="921" 
d="M871 20h-821v700h821v-700zM491 387q12 0 16 7h1l2 -6h8v73h-11v-19q0 -6 1 -9h-1q-5 8 -15 8t-16 -7q-13 -20 0 -40q6 -7 15 -7zM644 449q1 -1 5 -1t5 1q2 5 0 10q-1 1 -5 1t-5 -1q-2 -5 0 -10zM161 388h10l20 57h1q0 -6 -1 -10v-47h11v69h-16l-20 -55l-19 55h-16v-69
h10v33q0 19 -1 25h1zM351 396q-3 0 -5 2t-2 6v28h15v8h-15v12h-7l-4 -11l-8 -4v-5h8v-29q0 -16 15 -16h6q3 0 5 2v8q-1 -1 -8 -1zM261 434q-6 7 -18 7t-19 -7q-6 -7 -6 -20q0 -8 3 -14q3 -7 9 -10q4 -3 13 -3q12 0 18 7q15 20 0 40zM318 403q0 1 -1 3t-1 3l-4 5l-10 4l-10 5
q-2 2 -2 4q0 5 9 5q5 0 14 -3l4 8q-20 9 -33 0q-5 -3 -5 -10q0 -6 3 -9q3 -4 12 -7l8 -4q3 0 3 -2q2 -2 2 -4q0 -6 -11 -6q-6 0 -17 4v-9q6 -3 17 -3t16 4q6 5 6 12zM405 388h7v35q0 9 -5 14q-4 4 -15 4q-7 0 -9 -1t-5.5 -2.5t-4.5 -1.5l4 -8q3 3 7 3q2 1 8 1q5 0 7 -2t2 -8
v-2l-9 -1q-14 0 -18 -4q-6 -5 -6 -12q0 -11 9.5 -15t16.5 0q2 1 8 7zM461 430l1 11h-5q-6 0 -9 -3q-6 -4 -7 -7h-1l-1 9h-9v-52h11v27q0 6 4 11q5 5 11 5q4 0 5 -1zM559 387h10l8 3v9l-9 -3h-3q-3 -1 -5 -1q-8 0 -11 5q-4 3 -4 11h35v6q0 16 -14.5 22.5t-25.5 -5.5
q-7 -7 -7 -21q0 -26 26 -26zM629 403q0 6 -5 11l-10 4l-10 5q-2 2 -2 4q0 5 9 5q5 0 14 -3l4 8q-20 9 -33 0q-5 -3 -5 -10q0 -6 3 -9q3 -4 12 -7l8 -4q3 0 3 -2q1 -1 1 -4q0 -6 -10 -6q-6 0 -17 4v-9q11 -5 26 -1.5t12 14.5zM717 434v6h-18h-1q-1 1 -3 1h-5q-10 0 -15 -5
q-6 -5 -6 -13q0 -6 3 -9q3 -5 7 -6q-1 0 -5 -4q-2 -2 -2 -5l1 -4q1 -3 4 -3q-5 -2 -8 -5t-3 -8q0 -6 5 -11q7 -4 17 -4q13 0 21 5q7 4 7 14q0 7 -4 11q-4 3 -14 3h-9q-3 0 -4 1h-2q-2 2 -2 3q0 4 4 5h5q11 0 15 4q6 4 6 13q0 2 -1 3v2q-1 1 -2 4zM763 388h12v34q0 19 -19 19
q-2 0 -10 -2q-4 -1 -7 -6l-2 7h-9v-52h12v26q0 18 13 18q5 0 8 -3q2 -2 2 -9v-32zM655 388v52h-12v-52h12zM683 431q1 3 7 3t7 -3q3 -3 3 -8q0 -10 -10 -10q-1 0 -7 2q-8 8 0 16zM569 419h-24q0 7 4 10q5 6 12.5 3t7.5 -13zM229 414q0 9 4 13q3 5 10 5q13 0 13 -18t-13 -18
q-14 0 -14 18zM494 396q-6 0 -9 4q-3 5 -3 14t3 13q3 5 9 5q7 0 10 -4q4 -4 4 -14v-2q0 -9 -4 -12q-3 -4 -10 -4zM388 395q-4 0 -6 2t-2 6t3 7q8 2 12 2l6 1v-5q0 -6 -3 -9q-4 -4 -10 -4zM676 379q0 5 2 7q6 2 8 2h8q7 0 9 -2q3 -2 3 -5q0 -4 -5 -6q-5 -3 -13 -3q-3 0 -9 2
q-3 2 -3 5zM664 278h1l2 -7h8v74h-11v-19v-4q1 -3 1 -5q-6 7 -16 7t-16 -7q-13 -20 0 -40q6 -7 16 -7t15 8zM155 271v60h21v9h-52v-9h20v-60h11zM401 271v29h26v9h-26v22h28v9h-39v-69h11zM179 324l21 -53l-2 -5q-3 -9 -11 -9h-6v-8q2 -1 7 -1q15 0 21 16l22 60h-12
q-3 -10 -6 -18.5t-4.5 -12t-1.5 -5.5q-1 -1 -1 -6h-1q0 6 -3 12l-11 30h-12zM268 270q8 0 15 7q6 7 6 20q0 14 -6 20q-4 7 -15 7t-16 -8l-2 8h-9v-76h11v29q6 -7 16 -7zM327 270q7 0 9 1q5 0 8 3v9q-4 -3 -8 -3q-2 -1 -9 -1t-11 4q-4 5 -4 12h35v6q0 23 -22 23
q-16 0 -22.5 -17t4.5 -30q7 -7 20 -7zM482 317q-6 7 -18 7t-18 -7q-7 -6 -7 -20q0 -8 3 -14q4 -6 9 -10q6 -3 13 -3q16 -3 23 16t-5 31zM541 271h8v53h-11v-27q0 -9 -3 -14q-4 -4 -10 -4q-11 0 -11 12v33h-11v-35q0 -19 19 -19q2 0 10 2l7 6zM602 271h11v34q0 19 -18 19
q-6 0 -10 -2t-7 -5l-2 7h-9v-53h11v26q0 9 4 14q3 4 10 4q5 0 8 -3q2 -6 2 -9v-32zM724 314l1 10h-5q-10 0 -16 -10l-2 10h-9v-53h11v27q0 7 5 12q3 4 10 4h5zM729 324l21 -53l-2 -5q-3 -9 -11 -9h-6v-8q2 -1 7 -1q15 0 21 16l22 60h-12q-3 -10 -6 -18.5t-4.5 -12t-1.5 -5.5
q-1 -1 -1 -6h-1q0 6 -3 12l-11 30h-12zM325 316q5 0 8 -3q3 -5 3 -10h-24q1 2 2.5 5.5t1.5 4.5q3 3 9 3zM265 315q6 0 9 -4q3 -5 3 -14t-3 -13q-3 -5 -9 -5q-7 0 -10 5q-3 3 -3 13v2q0 9 3 12q3 4 10 4zM451 297q0 9 3 14q3 4 10 4q13 0 13 -18t-13 -18t-13 18zM652 279
q-9 0 -12.5 11t2.5 21q4 4 9 4q7 0 11 -4q3 -5 3 -14v-1q0 -8 -3 -13q-4 -4 -10 -4z" />
    <glyph glyph-name="u1F603" unicode="&#x1f603;" horiz-adv-x="860" 
d="M426 14q-193 0 -284.5 93t-91.5 290t91.5 290t284.5 93q198 0 291 -93t93 -290t-93 -290t-291 -93zM426 77q166 0 244 77.5t78 242.5t-78 242.5t-244 77.5q-161 0 -237.5 -77.5t-76.5 -242.5t76.5 -242.5t237.5 -77.5zM284 402q-73 0 -73 74t73 74q74 0 74 -74t-74 -74z
M558 402q-74 0 -74 74t74 74q73 0 73 -74t-73 -74zM426 147q-208 0 -208 154h405q0 -151 -197 -154z" />
    <glyph glyph-name="NULL" horiz-adv-x="0" 
 />
    <glyph glyph-name="CR" horiz-adv-x="333" 
 />
    <glyph glyph-name="Q.salt" horiz-adv-x="758" 
d="M603 40l91 -36q14 -6 6 -21l-76 -132q-7 -13 -21 -5l-251 149q-182 5 -249 90q-66 85 -66 310q0 121 16.5 195.5t55.5 121.5t102 66t168 19t168 -19t102 -66t55.5 -121.5t16.5 -195.5q0 -150 -27 -233t-91 -122zM250 395q0 -124 26 -171q25 -46 103 -46t103 46
q26 47 26 171q0 125 -26 172t-103 47t-103 -47t-26 -172z" />
    <glyph glyph-name="i.locl" horiz-adv-x="296" 
d="M148 815q49 0 75.5 -23t26.5 -67q0 -91 -102 -91q-103 0 -103 91q0 90 103 90zM64 573h168q15 0 15 -16v-541q0 -16 -15 -16h-168q-15 0 -15 16v541q0 16 15 16z" />
    <glyph glyph-name="g.salt" horiz-adv-x="622" 
d="M532 624l77 -76q11 -10 -1 -22l-49 -50q13 -40 13 -110q-2 -63 -12 -97t-41.5 -56.5t-80 -29.5t-138.5 -9l-48 1l-4 -15q-7 -20 24 -21l192 -19q66 -6 90 -43t24 -112v-18q0 -89 -67 -120q-69 -32 -209 -32q-101 0 -244 10q-13 1 -13 14v112q0 16 18 16h288q22 0 28 2
t6 10v3q0 11 -32 13l-196 18q-107 11 -70 132l23 72q-45 18 -63 57t-18 112q0 53 7.5 87.5t24 60t49 39t77.5 19.5t113 6q100 0 153 -13l58 59q11 10 21 0zM300 309q41 0 57 12.5t16 42.5t-15.5 41t-57.5 11t-57 -11t-15 -41t15.5 -42.5t56.5 -12.5z" />
    <glyph glyph-name="hungarumlaut.salt" horiz-adv-x="623" 
d="M114 793q-3 16 14 16h82q12 0 17 -12q19 -46 82 -46q33 0 51.5 10.5t29.5 35.5q6 12 17 12h83q17 0 14 -15q-10 -83 -54 -118q-43 -34 -141 -34q-99 0 -142 33q-42 34 -53 118zM533 624l77 -76q10 -10 -1 -22l-49 -50q13 -40 13 -110q0 -120 -53 -159q-53 -38 -219 -38
q-15 0 -77 2l-5 -11q-7 -20 24 -21l222 -19q66 -6 90 -43t24 -112v-18q0 -89 -67 -120q-69 -32 -209 -32q-101 0 -244 10q-13 1 -13 14v112q0 16 18 16h288q22 0 28 2t6 10v3q0 11 -32 13l-205 18q-60 5 -76 45q-17 40 6 87l28 69q-43 20 -60 59t-17 113q0 53 7.5 87.5
t24 60t49 39t77.5 19.5t113 6q100 0 153 -13l58 59q10 10 21 0zM301 306q42 0 57.5 12.5t15.5 45.5q0 31 -15.5 43t-57.5 12t-57 -12t-15 -43q0 -33 15.5 -45.5t56.5 -12.5z" />
    <glyph glyph-name="ring.salt" horiz-adv-x="623" 
d="M168 630l-44 21q-14 6 -4 18l103 145q7 10 23 10h125q16 0 23 -10l103 -145q10 -12 -4 -18l-44 -21q-11 -6 -20 0l-120 77l-121 -77q-9 -6 -20 0zM533 624l77 -76q10 -10 -1 -22l-49 -50q13 -40 13 -110q0 -120 -53 -159q-53 -38 -219 -38q-15 0 -77 2l-5 -11
q-7 -20 24 -21l222 -19q66 -6 90 -43t24 -112v-18q0 -89 -67 -120q-69 -32 -209 -32q-101 0 -244 10q-13 1 -13 14v112q0 16 18 16h288q22 0 28 2t6 10v3q0 11 -32 13l-205 18q-60 5 -76 45q-17 40 6 87l28 69q-43 20 -60 59t-17 113q0 53 7.5 87.5t24 60t49 39t77.5 19.5
t113 6q100 0 153 -13l58 59q10 10 21 0zM301 306q42 0 57.5 12.5t15.5 45.5q0 31 -15.5 43t-57.5 12t-57 -12t-15 -43q0 -33 15.5 -45.5t56.5 -12.5z" />
    </font>
</defs>
</svg>
