<?xml version="1.0" standalone="no"?>
<!DOCTYPE svg PUBLIC "-//W3C//DTD SVG 1.1//EN" "http://www.w3.org/Graphics/SVG/1.1/DTD/svg11.dtd" >
<svg>
<metadata>
Created by FontForge 20120731 at Fri Dec 23 08:24:54 2022
 By fw_worker
Copyright (c) 2016 by Mostardesign Type Foundry. All rights reserved.
</metadata>
<defs>
<font id="UniviaPro-Regular" horiz-adv-x="631" >
  <font-face 
    font-family="Univia Pro"
    font-weight="400"
    font-stretch="normal"
    units-per-em="1000"
    panose-1="0 0 5 0 0 0 0 0 0 0"
    ascent="800"
    descent="-200"
    x-height="547"
    cap-height="757"
    bbox="-136.24 -274.25 1314 1120"
    underline-thickness="0"
    underline-position="0"
    unicode-range="U+0020-1F603"
  />
<missing-glyph horiz-adv-x="441" 
d="M98 757h468q15 0 15 -15v-727q0 -15 -15 -15h-468q-15 0 -15 15v727q0 15 15 15zM321 629q-72 0 -120 -9q-13 -3 -13 -15v-45q0 -10 10 -10h123q49 0 66 -8.5t21 -41.5v-24q0 -23 -8.5 -36t-27.5 -23l-81 -39q-29 -17 -37 -30t-5 -38l4 -37q0 -6 7 -6h57q7 0 7 7l1 13
q1 12 7.5 19t27.5 17l67 32q40 19 55.5 44t15.5 75v37q0 75 -54 98q-45 20 -123 20zM288 218q-51 0 -51 -48q0 -47 51 -47q50 0 50 47q0 48 -50 48z" />
    <glyph glyph-name="f_f" unicode="ff" horiz-adv-x="718" 
d="M704 753q13 -3 13 -16v-44q0 -15 -15 -15h-55q-50 0 -67 -10t-17 -44v-78h128q16 0 13 -16l-8 -48q-3 -13 -16 -13h-117v-454q0 -15 -15 -15h-66q-15 0 -15 15v454h-264v-454q0 -15 -15 -15h-66q-15 0 -15 15v454h-71q-15 0 -15 15v47q0 15 15 15h71v99q0 61 35 89
q15 12 37 18q34 10 77 10t88 -9q13 -3 13 -16v-44q0 -15 -15 -15h-55q-50 0 -67 -10t-17 -44v-78h264v99q0 61 35 89q15 12 37 18q34 10 77 10t88 -9z" />
    <glyph glyph-name="fi.001" unicode="fi" horiz-adv-x="601" 
d="M543 707q0 -59 -59 -59t-59 59q0 58 59 58t59 -58zM256 762q34 0 78 -9q13 -3 13 -16v-44q0 -15 -15 -15h-45q-50 0 -67 -10t-17 -44v-78h314q15 0 15 -15v-516q0 -15 -15 -15h-66q-15 0 -15 15v454h-233v-454q0 -15 -15 -15h-66q-15 0 -15 15v454h-71q-15 0 -15 15v47
q0 15 15 15h71v99q0 61 35 89q15 12 37 18q34 10 77 10z" />
    <glyph glyph-name="fl" unicode="fl" horiz-adv-x="590" 
d="M506 751q15 -1 15 -15v-721q0 -15 -15 -15h-66q-15 0 -15 15v661l-122 2q-54 0 -77 -11t-23 -43v-78h127q16 0 13 -16l-8 -48q-3 -13 -16 -13h-116v-454q0 -15 -15 -15h-66q-15 0 -15 15v454h-71q-15 0 -15 15v47q0 15 15 15h71v99q0 117 190 117q50 0 209 -11z" />
    <glyph glyph-name="f_f_i" unicode="ffi" horiz-adv-x="961" 
d="M903 707q0 -59 -59 -59t-59 59q0 58 59 58t59 -58zM616 762q35 0 80 -9q13 -3 13 -16v-44q0 -15 -15 -15h-47q-50 0 -67 -10t-17 -44v-78h314q15 0 15 -15v-516q0 -15 -15 -15h-66q-15 0 -15 15v454h-233v-454q0 -15 -15 -15h-66q-15 0 -15 15v454h-264v-454
q0 -15 -15 -15h-66q-15 0 -15 15v454h-71q-15 0 -15 15v47q0 15 15 15h71v99q0 61 35 89q15 12 37 18q34 10 77 10q42 0 86 -9q14 -3 14 -16v-44q0 -15 -16 -15h-53q-50 0 -67 -10t-17 -44v-78h264v99q0 61 35 89q15 12 37 18q34 10 77 10z" />
    <glyph glyph-name="f_f_l" unicode="ffl" horiz-adv-x="950" 
d="M866 751q15 -1 15 -15v-721q0 -15 -15 -15h-66q-15 0 -15 15v661l-122 2q-54 0 -77 -11t-23 -43v-78h126q16 0 13 -16l-8 -48q-3 -13 -17 -13h-114v-454q0 -15 -15 -15h-66q-15 0 -15 15v454h-264v-454q0 -15 -15 -15h-66q-15 0 -15 15v454h-71q-15 0 -15 15v47
q0 15 15 15h71v99q0 61 35 89q15 12 37 18q34 10 77 10q61 0 106 -9q13 -3 13 -16v-44q0 -15 -15 -15h-73q-50 0 -67 -10t-17 -44v-78h264v99q0 117 189 117q51 0 210 -11z" />
    <glyph glyph-name="f_b" unicode="fb" horiz-adv-x="933" 
d="M653 552q140 0 184 -56t44 -224q0 -167 -45 -223q-44 -54 -188 -54q-98 0 -208 17q-16 1 -16 16v648l-121 2q-54 0 -77.5 -11t-23.5 -43v-78h128q16 0 13 -16l-9 -48q-3 -13 -16 -13h-116v-454q0 -15 -15 -15h-65q-15 0 -15 15v454h-71q-15 0 -15 15v47q0 15 15 15h71v99
q0 117 189 117q52 0 209 -11q15 -1 15 -15v-191q50 7 133 7zM649 79q89 0 113 37q24 38 24 157q0 122 -24 158q-24 37 -114 37h-128v-381q69 -8 129 -8z" />
    <glyph glyph-name="f_f_b" unicode="ffb" horiz-adv-x="1298" 
d="M1018 552q140 0 184 -56t44 -224q0 -167 -45 -223q-45 -54 -188 -54q-98 0 -208 17q-16 1 -16 16v648l-122 2q-54 0 -77 -11t-23 -43v-78h127q16 0 13 -16l-8 -48q-3 -13 -16 -13h-116v-454q0 -15 -15 -15h-66q-15 0 -15 15v454h-268v-454q0 -15 -15 -15h-65
q-15 0 -15 15v454h-71q-16 0 -16 15v47q0 15 16 15h71v99q0 61 35 89q13 12 36 18q34 10 77 10q44 0 88 -9q14 -3 14 -16v-44q0 -15 -15 -15h-55q-50 0 -67.5 -10t-17.5 -44v-78h268v99q0 117 190 117q50 0 209 -11q15 -1 15 -15v-191q49 7 133 7zM1013 79q89 0 113 37
q24 38 24 157q0 122 -24 158q-24 37 -114 37h-127v-381q69 -8 128 -8z" />
    <glyph glyph-name="f_f_j" unicode="ffj" horiz-adv-x="939" 
d="M822 765q59 0 59 -58q0 -59 -59 -59q-60 0 -60 59q0 58 60 58zM616 762q34 0 74 -9q14 -3 14 -16v-44q0 -15 -16 -15h-41q-50 0 -67 -10t-17 -44v-78h292q15 0 15 -15v-649q0 -23 -7 -39.5t-16.5 -25t-26 -13t-29 -5.5t-31.5 -1q-39 0 -55 4q-14 3 -14 16v50q0 14 16 14
h23q30 0 37 7t7 36v544h-211v-454q0 -15 -15 -15h-66q-15 0 -15 15v454h-264v-454q0 -15 -15 -15h-66q-15 0 -15 15v454h-71q-15 0 -15 15v47q0 15 15 15h71v99q0 61 35 89q15 12 37 18q34 10 77 10q44 0 88 -9q13 -3 13 -16v-44q0 -15 -15 -15h-55q-50 0 -67 -10t-17 -44
v-78h264v99q0 61 35 89q15 12 37 18q34 10 77 10z" />
    <glyph glyph-name="f_f_k" unicode="ffk" horiz-adv-x="1219" 
d="M1157 528l-178 -196l236 -305q18 -27 -17 -27h-71q-13 0 -22 11l-226 298v-294q0 -15 -15 -15h-66q-15 0 -15 15v661l-121 2q-54 0 -77 -11t-23 -43v-78h127q16 0 13 -16l-9 -48q-3 -13 -16 -13h-115v-454q0 -15 -15 -15h-66q-15 0 -15 15v454h-263v-454q0 -15 -15 -15
h-65q-15 0 -15 15v454h-71q-16 0 -16 15v47q0 15 16 15h71v99q0 61 35 89q13 12 36 18q34 10 77 10q44 0 88 -9q14 -3 14 -16v-44q0 -15 -15 -15h-55q-50 0 -67.5 -10t-17.5 -44v-78h263v99q0 117 189 117q52 0 209 -11q15 -1 15 -15v-383l164 184q7 10 21 10h84q25 0 9 -19
z" />
    <glyph glyph-name="f_j" unicode="fj" horiz-adv-x="579" 
d="M462 765q59 0 59 -58q0 -59 -59 -59q-60 0 -60 59q0 58 60 58zM256 762q34 0 77 -9q13 -3 13 -16v-44q0 -15 -15 -15h-44q-50 0 -67 -10t-17 -44v-78h292q15 0 15 -15v-649q0 -23 -7 -39.5t-16.5 -25t-26 -13t-29 -5.5t-31.5 -1q-39 0 -55 4q-14 3 -14 16v50q0 14 16 14
h23q30 0 37 7t7 36v544h-211v-454q0 -15 -15 -15h-66q-15 0 -15 15v454h-71q-15 0 -15 15v47q0 15 15 15h71v99q0 61 35 89q15 12 37 18q34 10 77 10z" />
    <glyph glyph-name="f_k" unicode="fk" horiz-adv-x="861" 
d="M798 528l-178 -196l236 -305q9 -9 5 -18t-22 -9h-70q-13 0 -22 11l-226 298v-294q0 -15 -15 -15h-66q-15 0 -15 15v661l-122 2q-54 0 -77 -11t-23 -43v-78h127q16 0 13 -16l-8 -48q-3 -13 -16 -13h-116v-454q0 -15 -15 -15h-66q-15 0 -15 15v454h-71q-15 0 -15 15v47
q0 15 15 15h71v99q0 117 190 117q50 0 209 -11q15 -1 15 -15v-383l163 184q7 10 21 10h84q13 0 15 -5.5t-6 -13.5z" />
    <glyph glyph-name=".notdef" horiz-adv-x="441" 
d="M98 757h468q15 0 15 -15v-727q0 -15 -15 -15h-468q-15 0 -15 15v727q0 15 15 15zM321 629q-72 0 -120 -9q-13 -3 -13 -15v-45q0 -10 10 -10h123q49 0 66 -8.5t21 -41.5v-24q0 -23 -8.5 -36t-27.5 -23l-81 -39q-29 -17 -37 -30t-5 -38l4 -37q0 -6 7 -6h57q7 0 7 7l1 13
q1 12 7.5 19t27.5 17l67 32q40 19 55.5 44t15.5 75v37q0 75 -54 98q-45 20 -123 20zM288 218q-51 0 -51 -48q0 -47 51 -47q50 0 50 47q0 48 -50 48z" />
    <glyph glyph-name=".null" horiz-adv-x="0" 
 />
    <glyph glyph-name="nonmarkingreturn" horiz-adv-x="333" 
 />
    <glyph glyph-name="space" unicode=" " horiz-adv-x="226" 
 />
    <glyph glyph-name="exclam" unicode="!" horiz-adv-x="261" 
d="M97 757h67q15 0 15 -16v-356q0 -13 -1 -21l-16 -148q-2 -15 -15 -15h-33q-12 0 -15 15l-16 148q-1 8 -1 21v356q0 16 15 16zM132 111q58 0 58 -57q0 -59 -58 -59q-60 0 -60 59q0 57 60 57z" />
    <glyph glyph-name="quotedbl" unicode="&#x22;" horiz-adv-x="404" 
d="M71 757h67q15 0 15 -16v-96q0 -13 -1 -21l-16 -148q-2 -15 -15 -15h-32q-13 0 -15 15l-16 148q0 4 -1 11.5t-1 9.5v96q0 16 15 16zM265 757h67q15 0 15 -16v-96q0 -13 -1 -21l-16 -148q-3 -15 -15 -15h-33q-14 0 -15 15l-16 148q-1 8 -1 21v96q0 16 15 16z" />
    <glyph glyph-name="numbersign" unicode="#" horiz-adv-x="674" 
d="M610 493h-107v-230h107q15 0 15 -15v-54q0 -15 -15 -15h-107v-164q0 -15 -15 -15h-62q-15 0 -15 15v164h-160v-164q0 -15 -15 -15h-62q-15 0 -15 15v164h-96q-15 0 -15 15v54q0 15 15 15h96v230h-96q-15 0 -15 15v54q0 15 15 15h96v165q0 15 15 15h62q15 0 15 -15v-165
h160v165q0 15 15 15h62q15 0 15 -15v-165h107q15 0 15 -15v-54q0 -15 -15 -15zM251 263h160v230h-160v-230z" />
    <glyph glyph-name="dollar" unicode="$" horiz-adv-x="606" 
d="M233 458l218 -81q63 -24 89 -61.5t26 -96.5v-30q0 -91 -69 -126q-58 -28 -161 -32v-75q0 -15 -15 -15h-39q-15 0 -15 15v75q-98 1 -213 13q-8 2 -8 8v62q0 7 9 7h297q58 0 85 16.5t27 54.5v19q0 37 -16.5 59t-59.5 37l-237 87q-52 18 -73 55.5t-21 98.5v22
q0 81 51.5 115.5t158.5 40.5v77q0 15 15 15h39q15 0 15 -15v-76q76 -2 184 -13q7 0 7 -7v-63q0 -6 -8 -6h-243q-63 0 -90.5 -16t-27.5 -57v-16q0 -34 16 -54t59 -37z" />
    <glyph glyph-name="percent" unicode="%" horiz-adv-x="928" 
d="M72 718q37 43 141 43t141 -43q38 -44 38 -160t-38 -160q-37 -43 -141 -43t-141 43q-38 44 -38 160t38 160zM637 757h44q15 0 6 -15l-381 -727q-8 -15 -23 -15h-44q-15 0 -7 15l381 727q9 15 24 15zM213 681q-50 0 -69 -26.5t-19 -96.5q0 -71 19 -97.5t69 -26.5
q51 0 70 26.5t19 97.5q0 70 -19 96.5t-70 26.5zM715 401q104 0 141 -43q38 -44 38 -160t-38 -160q-37 -43 -141 -43t-141 43t-37 160t37 160t141 43zM715 322q-50 0 -69 -26.5t-19 -97.5t19 -97.5t69 -26.5q51 0 70 26.5t19 97.5t-19 97.5t-70 26.5z" />
    <glyph glyph-name="ampersand" unicode="&#x26;" horiz-adv-x="656" 
d="M314 762q62 0 117 -9q16 -1 16 -13v-56q0 -11 -15 -11h-117q-86 0 -120 -20q-32 -20 -32 -89v-16q0 -72 25 -100q26 -27 102 -27h292q15 0 15 -15v-39q0 -12 -15 -15l-69 -14v-206q0 -33 12 -43.5t52 -10.5h35q16 0 16 -14v-47q0 -13 -14 -16q-22 -6 -61 -6q-29 0 -38 1
q-40 2 -67 29q-68 -30 -147 -30q-129 0 -185 42q-54 43 -54 162v17q0 133 85 163q-85 27 -85 164v20q0 117 57 158q58 41 195 41zM420 105v231h-132q-76 0 -100 -27q-23 -26 -25 -98v-11q0 -62 34.5 -89t108.5 -27q58 0 114 21z" />
    <glyph glyph-name="quotesingle" unicode="'" horiz-adv-x="211" 
d="M72 757h67q15 0 15 -16v-96q0 -13 -1 -21l-16 -148q-1 -15 -15 -15h-33q-13 0 -15 15l-16 148q-1 8 -1 21v96q0 16 15 16z" />
    <glyph glyph-name="parenleft" unicode="(" horiz-adv-x="330" 
d="M231 816h74q5 0 5 -5v-11q0 -1 -2 -7q-42 -57 -69 -96q-40 -60 -72 -142q-10 -24 -14 -64q-4 -41 -6 -68v-87v-88q1 -24 6 -67q4 -41 14 -65l27 -62q27 -56 114 -175q2 -6 2 -7v-11q0 -5 -5 -5h-74q-7 0 -13 6q-34 44 -71 94q-42 60 -75 143q-10 28 -14 69q-5 46 -6 73
v95q0 81 2 135q3 43 19 98q16 56 49 108q31 48 96 133q6 6 13 6z" />
    <glyph glyph-name="parenright" unicode=")" horiz-adv-x="330" 
d="M24 816h74q7 0 13 -6q67 -88 95 -133q32 -48 49 -108q18 -61 19 -98q3 -41 3 -135q0 -76 -1 -95q0 -23 -5 -73q-5 -44 -15 -69q-9 -26 -28 -65q-26 -56 -117 -172q-6 -6 -13 -6h-74q-5 0 -5 5v11q0 1 2 7q46 63 68 96q36 53 73 141q10 24 14 65q5 47 5 67q1 17 1 88
t-1 87q0 20 -5 67q-5 44 -13 65q-11 29 -28 63q-27 56 -114 175q-2 6 -2 7v11q0 5 5 5z" />
    <glyph glyph-name="asterisk" unicode="*" horiz-adv-x="425" 
d="M193 777h38q15 0 14 -15l-6 -127l117 45q16 4 19 -9l12 -34q5 -15 -10 -18l-120 -36l80 -97q10 -12 -2 -21l-29 -21q-12 -9 -21 3l-71 104l-73 -104q-9 -12 -21 -3l-27 20q-13 9 -3 21l78 98l-120 35q-15 3 -10 18l11 34q5 15 20 9l115 -44l-5 127q-1 15 14 15z" />
    <glyph glyph-name="plus" unicode="+" horiz-adv-x="547" 
d="M244 540h60q15 0 15 -15v-176h177q15 0 15 -15v-59q0 -15 -15 -15h-177v-176q0 -15 -15 -15h-60q-15 0 -15 15v176h-178q-15 0 -15 15v59q0 15 15 15h178v176q0 15 15 15z" />
    <glyph glyph-name="comma" unicode="," horiz-adv-x="242" 
d="M89 119h90q10 0 10 -10v-14q0 -5 -5 -13l-137 -229q-6 -10 -14 -5l-23 12q-7 4 -3 14l69 236q3 9 13 9z" />
    <glyph glyph-name="hyphen" unicode="-" horiz-adv-x="435" 
d="M81 319h273q15 0 15 -15v-59q0 -15 -15 -15h-273q-16 0 -16 15v59q0 15 16 15z" />
    <glyph glyph-name="period" unicode="." horiz-adv-x="222" 
d="M170 54q0 -59 -59 -59t-59 59q0 57 59 57t59 -57z" />
    <glyph glyph-name="slash" unicode="/" horiz-adv-x="468" 
d="M397 791h39q13 0 7 -17l-345 -791q-8 -17 -23 -17h-41q-16 0 -7 17l347 791q8 17 23 17z" />
    <glyph glyph-name="zero" unicode="0" horiz-adv-x="669" 
d="M334 762q86 0 138.5 -17.5t84 -64.5t43 -117t11.5 -186q0 -224 -56 -304q-55 -78 -221 -78q-87 0 -138.5 18t-83.5 63q-30 45 -42 114t-12 187t12 187.5t42 114.5q31 46 83 64.5t139 18.5zM160 377q0 -171 35 -233q35 -60 139 -60q106 0 140 60q35 62 35 233
q0 173 -36 234q-35 62 -139 62t-139 -62t-35 -234z" />
    <glyph glyph-name="one" unicode="1" horiz-adv-x="447" 
d="M293 645v-556h121q16 0 16 -15v-59q0 -15 -16 -15h-350q-16 0 -16 15v59q0 15 15 15h130v530q0 33 -17.5 44t-69.5 11h-56q-16 -1 -16 14v46q0 12 15 17q33 11 81 11q54 0 102 -16q61 -20 61 -101z" />
    <glyph glyph-name="two" unicode="2" horiz-adv-x="598" 
d="M278 762q97 0 151 -17q111 -29 111 -154v-71q0 -65 -18.5 -104t-70.5 -65l-229 -125q-41 -22 -56.5 -44t-15.5 -58v-35h387q7 0 7 -6v-77q0 -6 -6 -6h-474q-26 0 -26 28v89q0 63 27 102q26 39 100 80l237 131q37 21 37 94v61q0 51 -39 69.5t-125 18.5h-188q-7 0 -7 7v57
q0 8 8 11q128 14 190 14z" />
    <glyph glyph-name="three" unicode="3" horiz-adv-x="585" 
d="M212 762q185 0 248 -39q63 -37 63 -160v-20q0 -135 -84 -164q84 -30 84 -163v-17q0 -123 -63 -164q-61 -40 -248 -40q-62 0 -147 8q-15 3 -15 8v64q0 9 15 9h152q127 0 166 24t39 97v5q-2 72 -25 98q-24 28 -103 28h-192q-12 0 -12 11v62q0 12 12 12h191q79 0 104 27
q25 26 25 100v13q0 71 -42 91q-40 21 -171 21h-144q-15 0 -15 9v61q0 9 15 10q75 9 147 9z" />
    <glyph glyph-name="four" unicode="4" horiz-adv-x="649" 
d="M192 757h71q15 0 11 -18l-134 -459h242v203q0 13 11 18l73 28q18 7 18 -10v-239h127q16 0 16 -14v-60q0 -15 -16 -15h-127v-176q0 -15 -15 -15h-72q-15 0 -15 15v176h-338q-15 0 -15 16v33q0 12 7 34l138 473q4 10 18 10z" />
    <glyph glyph-name="five" unicode="5" horiz-adv-x="612" 
d="M94 757h440q15 0 15 -15v-59q0 -15 -15 -15h-358l-15 -214q40 4 93 4q181 0 244 -45q62 -43 64 -176v-23q-2 -132 -65 -175q-65 -44 -247 -44q-100 0 -175 6q-15 1 -15 12v61q0 10 15 10h186q119 0 159 27q41 29 41 108v9q-1 82 -42 111q-40 30 -158 30h-185
q-16 0 -16 11v62l18 300q2 15 16 15z" />
    <glyph glyph-name="six" unicode="6" horiz-adv-x="607" 
d="M281 757h81q19 0 10 -18l-146 -293q35 11 88 11q136 0 198 -52t62 -168v-21q0 -117 -62.5 -169t-201.5 -52q-140 0 -203 52t-63 170v20q0 71 23 123l196 387q6 10 18 10zM310 369q-88 0 -126 -32.5t-38 -108.5v-3q0 -76 38 -108.5t126 -32.5q87 0 124.5 32.5t37.5 107.5
v4q0 76 -37.5 108.5t-124.5 32.5z" />
    <glyph glyph-name="seven" unicode="7" horiz-adv-x="566" 
d="M36 757h495q15 0 15 -15v-44q0 -12 -7 -23l-337 -665q-6 -10 -18 -10h-82q-19 0 -10 18l329 650h-385q-16 0 -16 14v60q0 15 16 15z" />
    <glyph glyph-name="eight" unicode="8" horiz-adv-x="633" 
d="M310 762h15q121 0 179.5 -51t58.5 -156q0 -65 -23 -108t-72 -73q59 -27 85.5 -68t26.5 -106q0 -104 -63.5 -154.5t-192.5 -50.5h-17q-132 0 -194 51t-62 159q0 52 31 101t85 82q-95 50 -95 164q0 107 58 158.5t180 51.5zM324 673h-14q-136 0 -136 -111q0 -48 24.5 -76
t76.5 -48l99 -31q87 49 87 144q0 122 -137 122zM375 310l-119 39q-56 -29 -80 -63.5t-24 -80.5q0 -121 155 -121h16q155 0 155 114q0 55 -33 78q-27 22 -70 34z" />
    <glyph glyph-name="nine" unicode="9" horiz-adv-x="607" 
d="M298 762q139 0 202 -52t63 -170v-20q0 -72 -23 -123l-196 -387q-6 -10 -18 -10h-81q-19 0 -10 18l146 292q-33 -10 -87 -10q-138 0 -199.5 51.5t-61.5 168.5v21q0 117 63 169t202 52zM135 532v-3q0 -76 37.5 -108.5t125.5 -32.5t125.5 32.5t37.5 107.5v3q0 76 -37.5 109
t-125.5 33q-87 0 -125 -33t-38 -108z" />
    <glyph glyph-name="colon" unicode=":" horiz-adv-x="249" 
d="M126 552q58 0 58 -58t-58 -58q-60 0 -60 58t60 58zM126 111q58 0 58 -57q0 -59 -58 -59q-60 0 -60 59q0 57 60 57z" />
    <glyph glyph-name="semicolon" unicode=";" horiz-adv-x="272" 
d="M143 552q59 0 59 -58t-59 -58q-60 0 -60 58t60 58zM101 119h90q10 0 10 -10v-14q0 -5 -5 -13l-137 -229q-6 -10 -14 -5l-23 12q-7 4 -3 14l69 236q3 9 13 9z" />
    <glyph glyph-name="less" unicode="&#x3c;" horiz-adv-x="527" 
d="M453 611h9q6 0 6 -6v-71q0 -11 -12 -17l-313 -143l313 -144q12 -6 12 -17v-70q0 -6 -6 -6h-9q-6 0 -7 1l-401 186q-12 6 -12 17v65q0 11 12 17l401 187q1 1 7 1z" />
    <glyph glyph-name="equal" unicode="=" horiz-adv-x="654" 
d="M83 481h488q15 0 15 -15v-59q0 -15 -15 -15h-488q-15 0 -15 15v59q0 15 15 15zM83 241h488q15 0 15 -15v-59q0 -15 -15 -15h-488q-15 0 -15 15v59q0 15 15 15z" />
    <glyph glyph-name="greater" unicode="&#x3e;" horiz-adv-x="527" 
d="M65 611h10q5 0 7 -1l401 -187q11 -6 11 -17v-65q0 -11 -11 -17l-401 -186q-2 -1 -7 -1h-10q-6 0 -6 6v70q0 11 12 17l313 144l-313 143q-12 6 -12 17v71q0 6 6 6z" />
    <glyph glyph-name="question" unicode="?" horiz-adv-x="520" 
d="M223 762q99 0 150 -16q53 -15 79 -52t28 -108v-58q0 -80 -24 -117q-22 -37 -86 -66l-102 -49q-33 -16 -42 -27q-10 -11 -11 -35l-2 -25q0 -8 -8 -8h-68q-7 0 -9 8l-4 61q-2 31 7.5 47t43.5 34l146 71q33 16 45.5 38.5t12.5 68.5v53q0 49 -29 71q-10 8 -35 13q-32 7 -92 7
h-180q-15 0 -15 15v47q0 16 16 17q67 10 179 10zM228 54q0 -59 -59 -59t-59 59q0 57 59 57t59 -57z" />
    <glyph glyph-name="at" unicode="@" horiz-adv-x="1046" 
d="M537 756q231 0 343.5 -96t112.5 -304q0 -167 -75 -236q-74 -68 -224 -68l-196 1q-87 1 -125 27q-37 25 -37 102v12q0 67 36 95t113 28h135v56q0 40 -25 58t-84 18h-126q-12 0 -12 12v35q0 11 11 13q61 11 119 11q105 0 151 -31t46 -101v-286q109 0 171 48q69 55 69 203
q0 355 -405 355q-220 0 -325.5 -106.5t-105.5 -329.5q4 -234 104 -328q60 -58 140 -81q60 -17 146 -23q14 0 14 -15v-19q0 -14 -14 -14q-226 0 -335 119.5t-109 363.5q0 249 117 365t370 116zM620 122v130h-130q-48 0 -62 -12q-12 -12 -12 -51v-6q0 -37 19 -49t69 -12h116z
" />
    <glyph glyph-name="A" unicode="A" horiz-adv-x="678" 
d="M337 762q77 0 100 -20q24 -20 45 -97l171 -629q2 -10 -0.5 -13t-11.5 -3h-78q-6 0 -8.5 3t-4.5 13l-62 221h-301l-63 -221q-2 -10 -4.5 -13t-8.5 -3h-78q-9 0 -11.5 3t-0.5 13l177 629q23 78 45 97q25 20 94 20zM337 674q-21 0 -27.5 -8.5t-15.5 -44.5l-82 -296h253
l-78 296q-11 37 -18 44q-7 9 -32 9z" />
    <glyph glyph-name="B" unicode="B" horiz-adv-x="686" 
d="M354 762q135 0 197 -46q64 -46 64 -164q0 -148 -88 -169v-3q107 -20 107 -180q0 -119 -61 -162q-59 -43 -188 -43q-196 0 -288 7q-9 1 -12 3.5t-3 11.5v723q0 9 3 11.5t12 3.5q92 7 257 7zM345 673h-162v-255h123q93 0 137 9q40 10 53 33.5t17 81.5q0 80 -39 105
q-38 26 -129 26zM389 337h-206v-253h204q81 0 113.5 25t32.5 95q0 76 -34 104.5t-110 28.5z" />
    <glyph glyph-name="C" unicode="C" horiz-adv-x="599" 
d="M361 762q119 0 186 -10q16 -1 16 -17v-47q0 -15 -15 -15h-187q-127 0 -165 -59t-38 -236q0 -176 38 -235t165 -59h187q15 0 15 -15v-47q0 -15 -16 -18q-65 -9 -186 -9q-96 0 -152 18t-91 63q-34 44 -47.5 113.5t-13.5 188.5t13.5 188.5t47.5 113.5q34 46 90.5 64
t152.5 18z" />
    <glyph glyph-name="D" unicode="D" horiz-adv-x="737" 
d="M372 762q168 0 239 -90q72 -89 72 -293q0 -205 -72 -295q-71 -89 -239 -89q-183 0 -275 7q-9 1 -12 3.5t-3 10.5v724q0 9 3 11.5t12 3.5q92 7 275 7zM358 673h-175v-589h189q114 0 161 68q48 69 48 227q0 156 -51 225t-172 69z" />
    <glyph glyph-name="E" unicode="E" horiz-adv-x="629" 
d="M97 757h468q15 0 15 -15v-59q0 -15 -15 -15h-382v-257h348q15 0 15 -15v-58q0 -15 -15 -15h-348v-234h382q15 0 15 -15v-59q0 -15 -15 -15h-468q-15 0 -15 15v727q0 15 15 15z" />
    <glyph glyph-name="F" unicode="F" horiz-adv-x="598" 
d="M97 757h465q15 0 15 -15v-59q0 -15 -15 -15h-379v-257h344q15 0 15 -15v-58q0 -15 -15 -15h-344v-308q0 -15 -15 -15h-71q-15 0 -15 15v727q0 15 15 15z" />
    <glyph glyph-name="G" unicode="G" horiz-adv-x="662" 
d="M361 762q125 0 192 -10q16 -1 16 -17v-47q0 -15 -15 -15h-193q-68 0 -106 -13.5t-61 -49.5q-21 -36 -28.5 -87.5t-7.5 -145.5q0 -176 38 -235q37 -58 165 -58h152v274q0 16 15 16h66q15 0 15 -16v-298q0 -12 -3 -20q-14 -32 -100 -40l-70 -4q-19 -1 -75 -1
q-141 0 -212 49q-52 40 -71.5 116t-20.5 217q0 120 13.5 189t47.5 114q34 46 90.5 64t152.5 18z" />
    <glyph glyph-name="H" unicode="H" horiz-adv-x="773" 
d="M605 757h71q15 0 15 -16v-726q0 -15 -15 -15h-71q-15 0 -15 15v325h-407v-325q0 -15 -15 -15h-71q-15 0 -15 15v726q0 16 15 16h71q15 0 15 -16v-312h407v312q0 16 15 16z" />
    <glyph glyph-name="I" unicode="I" horiz-adv-x="265" 
d="M97 757h71q15 0 15 -16v-726q0 -15 -15 -15h-71q-15 0 -15 15v726q0 16 15 16z" />
    <glyph glyph-name="J" unicode="J" horiz-adv-x="572" 
d="M146 757h336q15 0 15 -15v-365q0 -118 -14 -187t-50 -114q-35 -45 -93.5 -63t-157.5 -18q-86 0 -150 9q-15 3 -15 18v47q0 15 15 15h150q132 0 173 59q42 59 40 234v291h-249q-15 0 -15 15v59q0 15 15 15z" />
    <glyph glyph-name="K" unicode="K" horiz-adv-x="621" 
d="M498 757h81q25 0 9 -19l-297 -332l319 -379q9 -9 5 -18t-22 -9h-78q-16 0 -22 11l-309 372v-368q0 -15 -15 -15h-72q-15 0 -15 15v727q0 15 15 15h72q15 0 15 -15v-314l293 319q7 10 21 10z" />
    <glyph glyph-name="L" unicode="L" horiz-adv-x="576" 
d="M97 757h71q15 0 15 -15v-653h363q15 0 15 -15v-59q0 -15 -15 -15h-449q-15 0 -15 15v727q0 15 15 15z" />
    <glyph glyph-name="M" unicode="M" horiz-adv-x="945" 
d="M732 757h78q14 0 15 -15l65 -727q2 -15 -15 -15h-72q-13 0 -15 15l-46 568l-216 -546q-4 -12 -18 -12h-71q-15 0 -19 12l-216 546l-46 -568q-2 -15 -15 -15h-71q-16 0 -15 15l64 726q1 16 15 16h78q17 0 24.5 -7.5t16.5 -31.5l219 -568l219 568q9 24 16.5 31.5t24.5 7.5z
" />
    <glyph glyph-name="N" unicode="N" horiz-adv-x="771" 
d="M603 757h71q15 0 15 -16v-726q0 -15 -15 -15h-61q-23 0 -35 18l-395 595v-598q0 -15 -15 -15h-71q-15 0 -15 15v726q0 16 15 16h68q26 -1 35.5 -6t21.5 -23l366 -551v564q0 16 15 16z" />
    <glyph glyph-name="O" unicode="O" horiz-adv-x="724" 
d="M667 377q0 -119 -13.5 -188t-48.5 -113q-35 -45 -91 -63t-152 -18t-152.5 18t-91.5 63q-34 45 -47.5 114t-13.5 187q0 225 62 305t243 80t243 -80t62 -305zM159 377q0 -176 38 -235q37 -58 165 -58t165 58q38 59 38 235q0 96 -7.5 147t-29.5 86q-21 36 -59.5 49.5
t-106.5 13.5t-106 -13.5t-61 -49.5q-21 -36 -28.5 -87.5t-7.5 -145.5z" />
    <glyph glyph-name="P" unicode="P" horiz-adv-x="648" 
d="M310 762q94 0 145.5 -9.5t87.5 -35.5q37 -26 52 -72.5t15 -126.5t-15 -125.5t-50 -71.5q-21 -15 -58 -24q-62 -14 -177 -14h-127v-268q0 -9 -3 -12t-12 -3h-71q-9 0 -12 3t-3 12v725q0 9 3 11.5t12 3.5q92 7 213 7zM301 673h-118v-304h118q49 0 64 1q66 2 87 12
q32 14 44.5 43.5t11.5 90.5q0 101 -40 129q-38 28 -167 28z" />
    <glyph glyph-name="Q" unicode="Q" horiz-adv-x="723" 
d="M666 377q0 -205 -51 -287q-49 -82 -192 -93l36 -122q4 -16 -15 -16h-67q-17 0 -21 16l-36 121q-155 8 -209 88q-54 81 -54 293q0 226 61 305q62 80 244 80q143 0 212 -50q52 -40 71.5 -117t20.5 -218zM565 377q0 136 -22 202q-17 52 -59.5 73t-121.5 21q-127 0 -166 -60
q-38 -59 -38 -236q0 -135 22 -201q17 -51 59.5 -71.5t122.5 -20.5q99 0 145 37q34 31 45.5 87.5t12.5 168.5z" />
    <glyph glyph-name="R" unicode="R" horiz-adv-x="661" 
d="M310 762q94 0 145.5 -9.5t87.5 -35.5q37 -26 52 -72.5t15 -126.5q0 -119 -37 -168q-36 -49 -127 -61l169 -269q6 -8 2.5 -14t-14.5 -6h-64q-25 0 -40 22l-165 261h-151v-268q0 -9 -3 -12t-12 -3h-71q-9 0 -12 3t-3 12v725q0 9 3 11.5t12 3.5q92 7 213 7zM301 673h-118
v-304h118q49 0 64 1q66 2 87 12q32 14 44.5 43.5t11.5 90.5q0 101 -40 129q-38 28 -167 28z" />
    <glyph glyph-name="S" unicode="S" horiz-adv-x="604" 
d="M317 762q73 0 194 -15q14 -2 14 -13v-46q0 -15 -13 -15h-225q-131 0 -131 -89v-17q0 -40 16 -62t59 -40l218 -90q63 -26 89 -67t26 -107v-32q0 -85 -52 -127q-23 -20 -58 -30q-63 -17 -154 -17q-121 0 -244 14q-12 3 -12 16v45q0 14 14 14h274q68 0 99 20.5t31 67.5v19
q0 42 -16.5 66t-59.5 42l-237 96q-52 20 -73 61.5t-21 108.5v24q0 85 50 126q20 17 58 29q58 18 154 18z" />
    <glyph glyph-name="T" unicode="T" horiz-adv-x="613" 
d="M29 757h555q15 0 15 -15v-59q0 -15 -15 -15h-227v-653q0 -15 -15 -15h-71q-15 0 -15 15v653h-227q-15 0 -15 15v59q0 15 15 15z" />
    <glyph glyph-name="U" unicode="U" horiz-adv-x="747" 
d="M585 757h71q15 0 15 -15v-365q0 -122 -13 -191.5t-47 -113.5t-88.5 -60.5t-149.5 -16.5q-138 0 -207 46q-36 24 -55 70q-35 89 -35 266v365q0 15 15 15h71q15 0 15 -15v-365q0 -119 17 -182q17 -61 58 -86t121 -25q118 0 157 58q40 58 40 235v365q0 15 15 15z" />
    <glyph glyph-name="V" unicode="V" horiz-adv-x="667" 
d="M38 757h78q9 0 13 -16l166 -605q10 -36 16 -45t21 -9q20 0 27 9t16 45l159 605q4 16 13 16h78q16 0 13 -16l-167 -629q-15 -57 -27 -78q-12 -22 -35.5 -30.5t-76.5 -8.5q-70 0 -90 19q-21 20 -42 98l-175 629q-3 16 13 16z" />
    <glyph glyph-name="W" unicode="W" horiz-adv-x="1090" 
d="M964 757h79q16 0 13 -16l-136 -629q-17 -78 -39 -97q-23 -20 -91 -20q-76 0 -98 19q-21 19 -40 98l-108 453l-108 -453q-13 -56 -26 -78q-12 -22 -36 -30.5t-77 -8.5q-69 0 -92 20q-21 18 -38 97l-135 629q-3 16 12 16h79q9 0 13 -16l127 -600q7 -33 14 -43t23 -10
q20 0 27.5 9t15.5 44l143 569q4 16 18 16h80q13 0 17 -16l143 -569q9 -36 16 -44.5t27 -8.5q16 0 23 10t14 43l127 600q4 16 13 16z" />
    <glyph glyph-name="X" unicode="X" horiz-adv-x="643" 
d="M521 757h77q24 0 11 -22l-228 -341l249 -372q15 -22 -11 -22h-77q-17 0 -27 16l-194 291l-192 -291q-12 -16 -27 -16h-78q-26 0 -11 22l249 372l-229 341q-13 22 11 22h77q17 0 27 -16l173 -261l173 261q10 16 27 16z" />
    <glyph glyph-name="Y" unicode="Y" horiz-adv-x="660" 
d="M564 757h77q23 0 11 -22l-271 -505v-215q0 -15 -15 -15h-72q-15 0 -15 15v215l-271 505q-12 22 11 22h78q17 0 27 -16l206 -401l207 401q7 16 27 16z" />
    <glyph glyph-name="Z" unicode="Z" horiz-adv-x="654" 
d="M58 757h540q15 0 15 -15v-50q0 -9 -7 -19l-442 -584h442q16 0 16 -15v-59q0 -15 -16 -15h-559q-15 0 -15 15l-1 49q0 11 7 19l443 585h-422q-16 0 -16 14l-1 60q0 15 16 15z" />
    <glyph glyph-name="bracketleft" unicode="[" horiz-adv-x="393" 
d="M100 816h249q15 0 15 -15v-51q0 -15 -15 -15h-169v-800h169q15 0 15 -15v-51q0 -15 -15 -15h-249q-15 0 -15 15v932q0 15 15 15z" />
    <glyph glyph-name="backslash" unicode="\" horiz-adv-x="468" 
d="M33 791h39q16 0 22 -17l348 -791q8 -17 -8 -17h-41q-14 0 -22 17l-346 791q-6 17 8 17z" />
    <glyph glyph-name="bracketright" unicode="]" horiz-adv-x="393" 
d="M44 816h249q15 0 15 -15v-932q0 -15 -15 -15h-249q-15 0 -15 15v51q0 15 15 15h169v800h-169q-15 0 -15 15v51q0 15 15 15z" />
    <glyph glyph-name="asciicircum" unicode="^" horiz-adv-x="504" 
d="M223 735h58q13 0 18 -11l167 -333q7 -18 -11 -18h-72q-12 0 -17 11l-115 237l-114 -237q-5 -11 -18 -11h-69q-22 0 -11 18l166 333q5 11 18 11z" />
    <glyph glyph-name="underscore" unicode="_" horiz-adv-x="550" 
d="M15 -46h520q15 0 15 -15v-33q0 -15 -15 -15h-520q-15 0 -15 15v33q0 15 15 15z" />
    <glyph glyph-name="grave" unicode="`" horiz-adv-x="426" 
d="M130 759h89q9 0 12 -6l73 -121q5 -8 -3 -14l-20 -13q-7 -6 -14 0l-142 125q-5 5 -5 12v7q0 10 10 10z" />
    <glyph glyph-name="a" unicode="a" horiz-adv-x="534" 
d="M243 552q117 0 171.5 -37.5t54.5 -119.5v-350q0 -21 -19 -28q-57 -22 -222 -22q-105 0 -149 32q-44 33 -44 129q0 84 42.5 119t134.5 35l161 1v67q0 48 -30.5 69t-99.5 21h-150q-9 0 -12 3t-3 12v41q0 8 2.5 11t11.5 5q71 12 151 12zM373 89v144h-159q-44 0 -64 -17.5
t-20 -57.5q0 -47 25 -64t90 -17q81 0 128 12z" />
    <glyph glyph-name="b" unicode="b" horiz-adv-x="578" 
d="M84 756h66q15 0 15 -15v-196q50 7 133 7q140 0 184 -56t44 -224q0 -167 -45 -223q-43 -54 -188 -54q-98 0 -208 17q-16 1 -16 16v713q0 15 15 15zM293 468h-128v-381q69 -8 129 -8q89 0 113 37q24 38 24 157q0 122 -24 158q-24 37 -114 37z" />
    <glyph glyph-name="c" unicode="c" horiz-adv-x="486" 
d="M285 552q86 0 152 -9q14 -2 14 -17v-43q0 -15 -15 -15h-151q-88 0 -112 -37t-24 -158q0 -119 24 -157q24 -37 112 -37h151q15 0 15 -15v-43q0 -15 -14 -17q-66 -9 -152 -9q-78 0 -120.5 12t-68.5 44q-25 32 -34 81t-9 141t9 141t34 81q26 33 68.5 45t120.5 12z" />
    <glyph glyph-name="d" unicode="d" horiz-adv-x="579" 
d="M429 756h66q15 0 15 -15v-713q0 -15 -16 -16q-110 -17 -208 -17q-113 0 -166 33q-39 29 -52.5 83t-14.5 161q0 168 44 224t184 56q84 0 133 -7v196q0 15 15 15zM414 87v381h-127q-90 0 -114 -37q-24 -36 -24 -158q0 -119 23 -157q24 -37 114 -37q59 0 128 8z" />
    <glyph glyph-name="e" unicode="e" horiz-adv-x="544" 
d="M280 552q133 0 177 -53q45 -54 46 -211v-29q0 -16 -7.5 -22t-28.5 -6h-318q2 -92 27 -122q26 -30 106 -30h164q15 0 15 -15v-44q0 -14 -14 -16q-66 -9 -167 -9q-140 0 -184 54q-44 56 -44 224t44 224q43 55 184 55zM280 468q-79 0 -105 -32t-27 -127h259q-1 96 -26 128
q-24 31 -101 31z" />
    <glyph glyph-name="f" unicode="f" horiz-adv-x="358" 
d="M256 762q43 0 88 -9q13 -3 13 -16v-44q0 -15 -15 -15h-55q-50 0 -67 -10t-17 -44v-78h128q16 0 13 -16l-8 -48q-3 -13 -16 -13h-117v-454q0 -15 -15 -15h-66q-15 0 -15 15v454h-71q-15 0 -15 15v47q0 15 15 15h71v99q0 61 35 89q15 12 37 18q34 10 77 10z" />
    <glyph glyph-name="g" unicode="g" horiz-adv-x="577" 
d="M286 552q124 0 207 -17q16 -1 16 -17v-468q0 -80 -9.5 -124.5t-34.5 -74.5q-26 -30 -69 -42t-118 -12q-78 0 -145 9q-13 1 -13 16v43q0 15 14 15h142q83 0 110 24t27 93v6q-53 -8 -132 -8q-142 0 -185 55q-44 56 -44 225q0 90 9.5 139.5t35.5 81.5t68.5 44t120.5 12z
M413 86v382h-128q-89 0 -113 -37q-24 -36 -24 -157q0 -120 24 -158q25 -37 115 -37q74 0 126 7z" />
    <glyph glyph-name="h" unicode="h" horiz-adv-x="589" 
d="M84 756h66q15 0 15 -15v-194q55 5 127 5q77 0 113 -7q40 -6 69 -31q29 -23 39.5 -67.5t10.5 -128.5v-303q0 -15 -15 -15h-66q-15 0 -15 15v295q0 62 -5.5 92t-22.5 44q-17 15 -35.5 19t-62.5 4h-137v-454q0 -15 -15 -15h-66q-15 0 -15 15v726q0 15 15 15z" />
    <glyph glyph-name="i" unicode="i" horiz-adv-x="234" 
d="M176 707q0 -59 -59 -59t-59 59q0 58 59 58t59 -58zM84 547h66q15 0 15 -15v-517q0 -15 -15 -15h-66q-15 0 -15 15v517q0 15 15 15z" />
    <glyph glyph-name="j" unicode="j" horiz-adv-x="237" 
d="M120 765q59 0 59 -58q0 -59 -59 -59q-60 0 -60 59q0 58 60 58zM87 547h66q15 0 15 -15v-650q0 -23 -7 -39.5t-16.5 -25t-26 -13t-29 -5.5t-31.5 -1q-39 0 -55 4q-14 3 -14 16v50q0 14 16 14h23q30 0 37 7t7 36v607q0 15 15 15z" />
    <glyph glyph-name="k" unicode="k" horiz-adv-x="505" 
d="M84 756h66q15 0 15 -16v-387l164 184q7 10 21 10h83q13 0 15 -5.5t-6 -13.5l-177 -196l235 -305q9 -9 5 -18t-22 -9h-70q-13 0 -22 11l-226 298v-293q0 -16 -15 -16h-66q-15 0 -15 16v724q0 16 15 16z" />
    <glyph glyph-name="l" unicode="l" horiz-adv-x="234" 
d="M84 757h66q15 0 15 -15v-727q0 -15 -15 -15h-66q-15 0 -15 15v727q0 15 15 15z" />
    <glyph glyph-name="m" unicode="m" horiz-adv-x="869" 
d="M577 553q133 2 179 -38q49 -45 49 -193l-2 -307q0 -15 -15 -15h-64q-15 0 -15 15v295q0 80 -16 121q-8 19 -25 26q-25 12 -83 12q-67 0 -117 -9q16 -44 16 -142l-2 -303q0 -15 -13 -15h-66q-15 0 -15 15v301q0 59 -5.5 88t-22.5 43q-16 14 -34 17.5t-62 3.5h-100v-453
q0 -15 -15 -15h-66q-15 0 -15 15v505q0 13 15 16q80 16 167 16q102 0 166 -30q87 31 161 31z" />
    <glyph glyph-name="n" unicode="n" horiz-adv-x="588" 
d="M291 552q77 0 113 -7q40 -6 69 -31q29 -23 39.5 -67.5t10.5 -128.5v-303q0 -15 -17 -15h-64q-15 0 -15 15v295q0 80 -16 121q-7 18 -25 25q-26 12 -85 12h-137v-453q0 -15 -15 -15h-66q-15 0 -15 15v505q0 6 2 9.5t4.5 4.5t8.5 2q80 16 208 16z" />
    <glyph glyph-name="o" unicode="o" horiz-adv-x="569" 
d="M167 540q44 12 118 12q75 0 118 -12q88 -22 105 -129q9 -49 9 -138q0 -88 -9 -139q-17 -103 -105 -128q-46 -11 -118 -11q-73 0 -119 11q-86 24 -105 128q-9 51 -9 139q0 89 9 138q19 107 106 129zM285 468q-89 0 -113 -37t-24 -158q0 -119 24 -157q24 -37 113 -37
q88 0 112 37q24 38 24 157q0 121 -24 158t-112 37z" />
    <glyph glyph-name="p" unicode="p" horiz-adv-x="577" 
d="M291 552q144 0 189 -55q45 -56 45 -223q0 -168 -44 -224q-43 -55 -185 -55q-80 0 -132 6v-184q0 -15 -15 -15h-66q-15 0 -15 15v701q0 14 16 17q110 17 207 17zM292 468h-128v-381q69 -8 126 -8q90 0 114 36q25 37 25 158t-24 158t-113 37z" />
    <glyph glyph-name="q" unicode="q" horiz-adv-x="576" 
d="M285 552q97 0 207 -17q16 -3 16 -17v-701q0 -15 -15 -15h-66q-15 0 -15 15v183q-48 -5 -132 -5q-141 0 -184 55q-44 56 -44 225q0 168 45 222q45 55 188 55zM412 86v382h-128q-89 0 -113 -37q-23 -37 -23 -157t24 -158q24 -37 114 -37q74 0 126 7z" />
    <glyph glyph-name="r" unicode="r" horiz-adv-x="366" 
d="M225 552q79 0 112 -11q15 -5 15 -17v-42q0 -15 -16 -14h-87q-52 0 -69.5 -11t-17.5 -45v-397q0 -15 -15 -15h-65q-15 0 -15 15v420q0 61 38 90q17 12 40 18q32 9 80 9z" />
    <glyph glyph-name="s" unicode="s" horiz-adv-x="483" 
d="M254 552q78 0 153 -9q14 -2 14 -16v-43q0 -15 -15 -15h-186q-73 0 -73 -52v-13q0 -47 62 -70l133 -53q59 -23 79.5 -55t20.5 -86v-11q0 -80 -47 -107t-155 -27q-106 0 -183 9q-15 2 -15 15v44q0 15 15 15h185q62 0 83.5 10t21.5 42v12q0 23 -12.5 38t-45.5 29l-142 54
q-96 37 -96 143v21q0 79 62 104q54 21 141 21z" />
    <glyph glyph-name="t" unicode="t" horiz-adv-x="342" 
d="M109 682l66 16q17 5 17 -13v-139h105q16 0 16 -15v-47q0 -15 -16 -15h-105v-336q0 -33 12.5 -43.5t52.5 -10.5h48q16 0 16 -14v-48q0 -13 -15 -16q-24 -6 -56 -6q-52 0 -85 8q-34 8 -50 32t-19 74v360h-56q-15 0 -15 15v47q0 15 15 15h56v120q0 13 13 16z" />
    <glyph glyph-name="u" unicode="u" horiz-adv-x="589" 
d="M439 547h66q15 0 15 -15v-506q0 -6 -2 -9t-4.5 -4t-8.5 -2q-81 -16 -208 -16q-74 0 -113 6q-41 8 -69 32q-29 24 -39.5 68.5t-10.5 128.5v302q0 15 17 15h64q15 0 15 -15v-295q0 -61 5.5 -91t21.5 -45q17 -14 36 -18t63 -4h137v453q0 15 15 15z" />
    <glyph glyph-name="v" unicode="v" horiz-adv-x="544" 
d="M430 547h73q9 0 11.5 -3t0.5 -13l-112 -419q-9 -36 -11 -40q-11 -41 -21 -50q-21 -21 -35 -22q-27 -5 -66 -5q-62 0 -88 19q-7 7 -14 22t-25 76l-117 419q-1 10 1.5 13t10.5 3h74q6 0 8 -3t5 -13l108 -397q10 -35 16 -44t21 -9q20 0 27 8.5t16 44.5l104 397q2 10 4.5 13
t8.5 3z" />
    <glyph glyph-name="w" unicode="w" horiz-adv-x="836" 
d="M720 547h72q8 0 10.5 -3t1.5 -13l-88 -423q-17 -75 -36 -94t-81 -19q-64 0 -81 17q-17 19 -35 96l-65 280l-65 -280q-18 -77 -35 -96q-17 -17 -81 -17q-61 0 -81 19q-19 19 -36 94l-88 423q-1 10 1.5 13t10.5 3h73q8 0 12 -16l82 -411q6 -25 11 -31.5t16 -6.5q13 0 17 6
t10 32l97 395q4 16 14 16h84q10 0 14 -16l97 -395q6 -26 10 -32t17 -6q11 0 16 6.5t11 31.5l82 411q2 10 4.5 13t8.5 3z" />
    <glyph glyph-name="x" unicode="x" horiz-adv-x="531" 
d="M404 547h81q9 0 11 -5.5t-3 -12.5l-172 -239l194 -272q11 -18 -8 -18h-82q-11 0 -15 9l-145 205l-146 -205q-5 -9 -15 -9h-81q-20 0 -9 18l194 272l-171 239q-6 7 -4 12.5t11 5.5h82q10 0 16 -9l123 -172l122 172q6 9 17 9z" />
    <glyph glyph-name="y" unicode="y" horiz-adv-x="590" 
d="M440 547h66q15 0 15 -15v-482q0 -80 -9.5 -124.5t-34.5 -74.5q-26 -30 -69 -42t-118 -12q-84 0 -151 9q-14 2 -14 16v43q0 15 15 15h148q83 0 110 24t27 93v6q-53 -8 -132 -8q-140 0 -185 54q-44 56 -44 219v264q0 15 15 15h65q15 0 15 -15v-258q0 -120 24 -158
q25 -37 116 -37q74 0 126 7v446q0 15 15 15z" />
    <glyph glyph-name="z" unicode="z" horiz-adv-x="513" 
d="M60 547h395q16 0 16 -15v-24q0 -9 -6 -18l-295 -406h295q16 0 16 -15v-54q0 -15 -16 -15h-418q-16 0 -16 15v28q0 11 7 18l292 402h-270q-16 0 -16 15v54q0 15 16 15z" />
    <glyph glyph-name="braceleft" unicode="{" horiz-adv-x="334" 
d="M236 825q22 0 47 -4q15 -1 15 -16v-52q0 -15 -15 -15h-39q-28 0 -39.5 -10.5t-8.5 -34.5l27 -260q3 -23 -2.5 -34.5t-23.5 -24.5l-66 -36v-4l66 -36q18 -13 23.5 -24.5t2.5 -34.5l-27 -260q-3 -24 8.5 -34.5t39.5 -10.5h39q15 0 15 -15v-52q0 -15 -15 -16q-25 -4 -47 -4
q-80 0 -113.5 29t-26.5 95l28 266q2 11 -9 18l-78 47q-8 5 -8 18v32q0 13 8 18l78 47q11 7 9 18l-28 266q-7 66 26.5 95t113.5 29z" />
    <glyph glyph-name="bar" unicode="|" horiz-adv-x="265" 
d="M100 803h65q15 0 15 -15v-860q0 -15 -15 -15h-65q-15 0 -15 15v860q0 15 15 15z" />
    <glyph glyph-name="braceright" unicode="}" horiz-adv-x="334" 
d="M98 825q80 0 113.5 -29t26.5 -95l-28 -266q-2 -11 9 -18l78 -47q8 -5 8 -18v-32q0 -13 -8 -18l-78 -47q-11 -7 -9 -18l28 -266q7 -66 -26.5 -95t-113.5 -29q-22 0 -47 4q-15 1 -15 16v52q0 15 15 15h40q27 0 38.5 10.5t9.5 34.5l-28 260q-3 23 2.5 34.5t23.5 24.5l66 36
v4l-66 36q-18 13 -23.5 24.5t-2.5 34.5l28 260q2 24 -9.5 34.5t-38.5 10.5h-40q-15 0 -15 15v52q0 15 15 16q25 4 47 4z" />
    <glyph glyph-name="asciitilde" unicode="~" horiz-adv-x="612" 
d="M195 439q32 2 75 -22t82.5 -48t62.5 -22q56 0 79 48q7 13 19 6l40 -26q9 -6 5 -18q-15 -46 -52 -74.5t-88 -28.5q-41 -2 -116.5 46t-104.5 46q-55 0 -78 -48q-7 -13 -19 -6l-40 26q-9 6 -5 18q15 46 52 74.5t88 28.5z" />
    <glyph glyph-name="Adieresis" unicode="&#xa1;" horiz-adv-x="251" 
d="M127 552q58 0 58 -59q0 -57 -58 -57q-60 0 -60 57q0 59 60 59zM109 358h33q14 0 15 -15l16 -149q1 -7 1 -20v-357q0 -15 -15 -15h-67q-15 0 -15 15v357q0 13 1 20l16 149q3 15 15 15z" />
    <glyph glyph-name="Aring" unicode="&#xa2;" horiz-adv-x="505" 
d="M438 468h-151q-88 0 -112 -37t-24 -158q0 -119 24 -157q24 -37 112 -37h151q15 0 15 -15v-43q0 -15 -14 -17q-66 -9 -152 -9h-28l-12 -66q-1 -15 -17 -15h-38q-14 0 -13 15l13 73q-82 15 -110 73q-27 59 -27 198q0 165 40 220q41 56 172 59l12 66q1 15 17 15h38
q14 0 13 -15l-12 -67q58 -1 104 -8q14 -2 14 -17v-43q0 -15 -15 -15z" />
    <glyph glyph-name="Ccedilla" unicode="&#xa3;" horiz-adv-x="622" 
d="M440 757q40 0 108 -5q15 -3 15 -13v-61q0 -10 -15 -10h-120q-119 0 -159 -28q-40 -27 -40 -107v-187h247q15 0 15 -15v-47q0 -15 -15 -15h-247v-180h344q15 0 15 -15v-59q0 -15 -15 -15h-529q-16 0 -13 15l10 59q3 15 17 15h69v180h-54q-15 0 -15 15v47q0 15 15 15h54
v192q0 132 64 175q65 44 249 44z" />
    <glyph glyph-name="Eacute" unicode="&#xa4;" horiz-adv-x="548" 
d="M62 507l26 27q12 10 22 0l50 -49q47 26 114 26q65 0 115 -26l49 49q10 10 22 0l26 -27q11 -9 1 -21l-49 -48q30 -47 30 -113q0 -67 -30 -113l49 -48q10 -12 -1 -21l-26 -27q-12 -10 -22 0l-49 49q-50 -26 -115 -26q-67 0 -114 26l-50 -49q-10 -10 -22 0l-26 27
q-11 9 -1 21l49 48q-29 44 -29 113t29 113l-49 48q-10 12 1 21zM347 403q-25 27 -73 27q-47 0 -74 -27q-26 -28 -26 -78t26 -78q27 -27 74 -27q48 0 73 27q27 27 27 78t-27 78z" />
    <glyph glyph-name="Ntilde" unicode="&#xa5;" horiz-adv-x="700" 
d="M583 757h78q23 0 11 -22l-250 -437h134q15 0 15 -15v-35q0 -15 -15 -15h-155v-79h155q15 0 15 -15v-35q0 -15 -15 -15h-155v-74q0 -15 -15 -15h-72q-15 0 -15 15v74h-154q-15 0 -15 15v35q0 15 15 15h154v79h-154q-15 0 -15 15v35q0 15 15 15h134l-251 437q-12 22 11 22
h77q18 0 27 -16l207 -372l206 372q9 16 27 16z" />
    <glyph glyph-name="Odieresis" unicode="&#xa6;" horiz-adv-x="264" 
d="M99 803h66q15 0 15 -15v-356q0 -15 -15 -15h-66q-15 0 -15 15v356q0 15 15 15zM99 300h66q15 0 15 -15v-357q0 -15 -15 -15h-66q-15 0 -15 15v357q0 15 15 15z" />
    <glyph glyph-name="Udieresis" unicode="&#xa7;" horiz-adv-x="453" 
d="M254 767q36 0 81 -8q14 -3 14 -15v-43q0 -14 -15 -14h-114q-74 0 -74 -54v-78l156 -61q96 -37 96 -142v-282q0 -80 -61 -104q-51 -20 -139 -20q-42 0 -81 9q-13 3 -13 15v42q0 14 14 14h115q74 0 74 54v75l-156 61q-96 38 -96 142v285q0 80 60 104q51 20 139 20zM244 426
l-98 39v-109q0 -49 62 -73l99 -39v109q0 47 -63 73z" />
    <glyph glyph-name="aacute" unicode="&#xa8;" horiz-adv-x="550" 
d="M182 739q61 0 61 -59q0 -61 -61 -61q-62 0 -62 61q0 59 62 59zM368 739q62 0 62 -59q0 -61 -62 -61q-61 0 -61 61q0 59 61 59z" />
    <glyph glyph-name="agrave" unicode="&#xa9;" horiz-adv-x="864" 
d="M720 85q-92 -93 -288 -93t-288 93q-92 94 -92 290t92 290q92 93 288 93t288 -93q92 -94 92 -290t-92 -290zM432 701q-167 0 -245 -78.5t-78 -247.5q0 -167 78 -247q79 -79 245 -79t244 79q79 79 79 247t-78.5 247t-244.5 79zM435 566q69 0 98 -8q12 -3 12 -14v-42
q0 -7 -7 -7h-103q-47 0 -64 -26q-15 -25 -15 -100q0 -73 15 -99q17 -26 64 -26h103q7 0 7 -7v-43q0 -11 -12 -14q-40 -8 -98 -8q-95 0 -128 41q-33 42 -33 156q0 115 33 156t128 41z" />
    <glyph glyph-name="acircumflex" unicode="&#xaa;" horiz-adv-x="399" 
d="M191 762q75 0 107.5 -24.5t32.5 -78.5v-208q0 -13 -13 -17q-52 -11 -129 -11q-73 0 -102 19.5t-29 74.5v11q0 51 27.5 73.5t88.5 22.5h86v24q0 51 -69 51h-99q-6 0 -6 7v41q0 6 7 7q46 8 98 8zM260 487v79h-78q-29 0 -40.5 -8.5t-11.5 -29.5v-3q0 -25 12 -34t46 -9
q44 0 72 5zM84 365h222q15 0 15 -15v-29q0 -15 -15 -15h-222q-15 0 -15 15v29q0 15 15 15z" />
    <glyph glyph-name="adieresis" unicode="&#xab;" horiz-adv-x="510" 
d="M175 466h65q15 0 15 -15v-7q0 -11 -7 -18l-123 -153l123 -152q7 -7 7 -18v-7q0 -15 -15 -15h-65q-11 0 -18 9l-111 145q-7 7 -7 19v38q0 10 7 20l111 145q7 9 18 9zM375 466h65q15 0 15 -15v-7q0 -11 -7 -18l-123 -153l123 -152q7 -7 7 -18v-7q0 -15 -15 -15h-65
q-11 0 -18 9l-111 145q-7 7 -7 19v38q0 10 7 20l111 145q7 9 18 9z" />
    <glyph glyph-name="atilde" unicode="&#xac;" horiz-adv-x="609" 
d="M62 464h462q15 0 15 -15v-238q0 -15 -15 -15h-61q-15 0 -15 15v163h-386q-15 0 -15 15v60q0 15 15 15z" />
    <glyph glyph-name="aring" unicode="&#xae;" horiz-adv-x="864" 
d="M720 85q-92 -93 -288 -93t-288 93q-92 94 -92 290t92 290q92 93 288 93t288 -93q92 -94 92 -290t-92 -290zM432 701q-167 0 -245 -78.5t-78 -247.5q0 -167 78 -247q79 -79 245 -79t244 79q79 79 79 247t-78.5 247t-244.5 79zM439 569q83 0 114.5 -27.5t31.5 -101.5
q0 -56 -17 -82.5t-60 -34.5l86 -137q3 -3 1.5 -5.5t-5.5 -2.5h-71q-11 0 -16 9l-84 131h-42v-133q0 -7 -6 -7h-69q-7 0 -7 7v373q0 6 6 6q63 5 138 5zM430 498h-53v-119h53q42 0 56.5 11.5t14.5 46.5q0 36 -14.5 48.5t-56.5 12.5z" />
    <glyph glyph-name="ccedilla" unicode="&#xaf;" horiz-adv-x="528" 
d="M135 706h258q15 0 15 -15v-41q0 -15 -15 -15h-258q-15 0 -15 15v41q0 15 15 15z" />
    <glyph glyph-name="eacute" unicode="&#xb0;" horiz-adv-x="357" 
d="M179 762q133 0 133 -129q0 -128 -133 -128q-134 0 -134 128q0 129 134 129zM179 700q-68 0 -68 -67t68 -67q67 0 67 67t-67 67z" />
    <glyph glyph-name="egrave" unicode="&#xb1;" horiz-adv-x="601" 
d="M271 637h60q15 0 15 -15v-142h176q15 0 15 -15v-55q0 -15 -15 -15h-176v-142q0 -15 -15 -15h-60q-15 0 -15 15v142h-177q-15 0 -15 15v55q0 15 15 15h177v142q0 15 15 15zM78 179h445q15 0 15 -15v-52q0 -15 -15 -15h-445q-15 0 -15 15v52q0 15 15 15z" />
    <glyph glyph-name="ecircumflex" unicode="&#xb2;" horiz-adv-x="349" 
d="M156 914q75 0 112.5 -22t37.5 -76v-45q0 -35 -10.5 -55.5t-44.5 -44.5l-91 -59q-38 -26 -38 -37v-5h188q4 0 4 -4v-60q0 -3 -4 -3h-265q-14 0 -14 15v44q0 29 12 45.5t49 42.5l109 76q29 19 29 59v10q0 30 -18 41t-64 11h-98q-6 0 -6 7v40q0 9 11 12q43 8 101 8z" />
    <glyph glyph-name="edieresis" unicode="&#xb3;" horiz-adv-x="351" 
d="M164 914q146 0 146 -99v-30q0 -66 -67 -78q67 -10 67 -79v-30q0 -54 -37.5 -76t-108.5 -22q-57 0 -116 8q-11 2 -11 13v39q0 6 6 6h107q46 0 65 10t19 39v12q1 28 -19 39t-66 11h-80q-6 0 -6 7v46q0 6 6 6h80q46 0 65.5 11t19.5 39v13q0 28 -19 38t-65 10h-107q-6 0 -6 6
v40q0 10 11 12q42 9 116 9z" />
    <glyph glyph-name="iacute" unicode="&#xb4;" horiz-adv-x="426" 
d="M207 759h89q10 0 10 -10v-7q0 -7 -5 -12l-142 -125q-7 -6 -14 0l-20 13q-8 6 -3 14l73 121q3 6 12 6z" />
    <glyph glyph-name="igrave" unicode="&#xb5;" horiz-adv-x="593" 
d="M443 547h66q15 0 15 -15v-506q0 -6 -2 -9t-4.5 -4t-8.5 -2q-81 -16 -208 -16q-96 0 -136 14v-127q0 -15 -15 -15h-66q-15 0 -15 15v650q0 15 17 15h64q15 0 15 -15v-295q0 -61 5.5 -91t21.5 -45q17 -14 36 -18t63 -4h137v453q0 15 15 15z" />
    <glyph glyph-name="icircumflex" unicode="&#xb6;" horiz-adv-x="695" 
d="M313 762q97 0 153 -18t90 -64q34 -44 47 -113.5t13 -188.5v-378h-87v385q0 149 -32 215q-31 64 -117 78v-381h-65q-161 -3 -219 42q-58 47 -60 177v23q2 132 58 177q58 46 219 46z" />
    <glyph glyph-name="idieresis" unicode="&#xb7;" horiz-adv-x="236" 
d="M119 332q58 0 58 -58t-58 -58q-60 0 -60 58t60 58z" />
    <glyph glyph-name="ntilde" unicode="&#xb8;" horiz-adv-x="404" 
d="M222 15h30q13 0 17 -13q15 -56 15 -92q0 -42 -21.5 -59t-70.5 -17q-39 0 -60 8q-12 4 -12 18v34q0 15 15 15h36q29 0 37.5 5.5t8.5 25.5t-8 58q-5 17 13 17z" />
    <glyph glyph-name="oacute" unicode="&#xb9;" horiz-adv-x="272" 
d="M181 842v-272h64q7 0 7 -7v-54q0 -6 -7 -6h-202q-7 0 -7 7v53q0 7 7 7h65v253q0 29 -34 29h-36q-7 0 -7 6v42q0 8 7 9q37 5 53 5q45 0 67.5 -15.5t22.5 -56.5z" />
    <glyph glyph-name="ograve" unicode="&#xba;" horiz-adv-x="413" 
d="M206 762q89 0 117 -34q29 -35 29 -135q0 -102 -29 -137q-29 -33 -117 -33q-89 0 -117 34t-28 136q0 100 29 135q28 34 116 34zM206 699q-45 0 -60 -21q-14 -22 -14 -85t14 -86q15 -21 60 -21q46 0 60 21q14 22 14 86q0 65 -14 85q-14 21 -60 21zM95 365h222q15 0 15 -15
v-29q0 -15 -15 -15h-222q-15 0 -15 15v29q0 15 15 15z" />
    <glyph glyph-name="ocircumflex" unicode="&#xbb;" horiz-adv-x="509" 
d="M70 466h65q11 0 18 -9l111 -145q7 -11 7 -20v-38q0 -9 -7 -19l-111 -145q-7 -9 -18 -9h-65q-15 0 -15 15v7q0 11 7 18l122 152l-122 153q-7 7 -7 18v7q0 15 15 15zM269 466h65q10 0 18 -9l112 -145q6 -11 6 -20v-38q0 -10 -6 -19l-112 -145q-8 -9 -18 -9h-65
q-15 0 -15 15v7q0 11 7 18l123 152l-123 153q-7 7 -7 18v7q0 15 15 15z" />
    <glyph glyph-name="odieresis" unicode="&#xbc;" horiz-adv-x="859" 
d="M562 791h31q13 0 7 -17l-345 -791q-9 -17 -23 -17h-32q-16 0 -7 17l346 791q8 17 23 17zM262 409v-54q0 -6 -7 -6h-202q-7 0 -7 7v53q0 7 7 7h66v253q0 29 -35 29h-36q-7 0 -7 6v42q0 8 7 9q37 5 53 5q45 0 67.5 -15.5t22.5 -56.5v-272h64q7 0 7 -7zM767 283v-113h60
q7 0 7 -6v-54q0 -6 -7 -6h-60v-97q0 -7 -6 -7h-64q-5 0 -5 7v97h-179q-6 0 -6 6v40q0 8 4 17l68 236q3 5 8 5h63q8 0 4 -7l-66 -231h104v91q0 5 5 7l63 21q7 1 7 -6z" />
    <glyph glyph-name="otilde" unicode="&#xbd;" horiz-adv-x="844" 
d="M562 791h31q13 0 7 -17l-345 -791q-9 -17 -23 -17h-32q-16 0 -7 17l346 791q8 17 23 17zM256 409v-54q0 -6 -7 -6h-202q-6 0 -6 7v53q0 7 6 7h66v253q0 29 -34 29h-37q-6 0 -6 6v42q0 8 6 9q37 5 53 5q45 0 67.5 -15.5t22.5 -56.5v-272h64q7 0 7 -7zM616 72v-5h189
q4 0 4 -4v-60q0 -3 -4 -3h-265q-14 0 -14 15v44q0 29 12 45.5t49 42.5l109 76q29 19 29 59v10q0 30 -18 41t-64 11h-98q-6 0 -6 7v40q0 9 11 12q43 8 101 8q75 0 112.5 -22t37.5 -76v-45q0 -35 -10.5 -55.5t-44.5 -44.5l-91 -59q-39 -27 -39 -37z" />
    <glyph glyph-name="uacute" unicode="&#xbe;" horiz-adv-x="905" 
d="M615 791h31q13 0 7 -17l-344 -791q-9 -17 -23 -17h-33q-15 0 -7 17l346 791q8 17 23 17zM172 760q146 0 146 -99v-30q0 -66 -67 -78q67 -10 67 -79v-30q0 -54 -37.5 -76t-108.5 -22q-58 0 -117 8q-10 1 -10 13v39q0 6 5 6h108q46 0 65 10t19 39v12q1 28 -19 39t-66 11
h-80q-7 0 -7 7v46q0 6 7 6h80q46 0 65.5 11t19.5 39v13q0 28 -19 38t-65 10h-108q-5 0 -5 6v40q0 11 10 12q42 9 117 9zM633 408h64q7 0 4 -7l-66 -231h103v91q0 5 6 7l63 21q7 1 7 -6v-113h59q7 0 7 -6v-54q0 -6 -7 -6h-59v-97q0 -7 -6 -7h-64q-6 0 -6 7v97h-179q-5 0 -5 6
v40q0 10 4 17l68 236q2 5 7 5z" />
    <glyph glyph-name="ugrave" unicode="&#xbf;" horiz-adv-x="512" 
d="M347 552q59 0 59 -59q0 -57 -59 -57q-60 0 -60 57q0 59 60 59zM310 358h68q9 0 9 -8l5 -61q2 -30 -8 -46t-43 -35l-147 -71q-33 -16 -45 -38t-12 -69v-37q0 -43 28 -67t66.5 -32t102.5 -8h138q15 0 15 -15v-47q0 -15 -15 -18q-75 -9 -139 -9q-128 0 -207 36
q-91 39 -91 156v42q0 79 23 117q24 38 87 66l102 49q32 15 41.5 26t11.5 36l2 25q2 8 8 8z" />
    <glyph glyph-name="ucircumflex" unicode="&#xc0;" horiz-adv-x="678" 
d="M212 959h88q9 0 12 -6l73 -121q5 -8 -3 -14l-20 -13q-7 -6 -14 0l-141 125q-5 5 -5 12v7q0 10 10 10zM337 762q77 0 100 -20q24 -20 45 -97l171 -629q2 -10 -0.5 -13t-11.5 -3h-78q-6 0 -8.5 3t-4.5 13l-62 221h-301l-63 -221q-2 -10 -4.5 -13t-8.5 -3h-78q-9 0 -11.5 3
t-0.5 13l177 629q23 78 45 97q25 20 94 20zM337 674q-21 0 -27.5 -8.5t-15.5 -44.5l-82 -296h253l-78 296q-11 37 -18 44q-7 9 -32 9z" />
    <glyph glyph-name="udieresis" unicode="&#xc1;" horiz-adv-x="678" 
d="M386 959h89q10 0 10 -10v-7q0 -7 -5 -12l-142 -125q-7 -6 -14 0l-20 13q-8 6 -3 14l73 121q3 6 12 6zM337 762q77 0 100 -20q24 -20 45 -97l171 -629q2 -10 -0.5 -13t-11.5 -3h-78q-6 0 -8.5 3t-4.5 13l-62 221h-301l-63 -221q-2 -10 -4.5 -13t-8.5 -3h-78q-9 0 -11.5 3
t-0.5 13l177 629q23 78 45 97q25 20 94 20zM337 674q-21 0 -27.5 -8.5t-15.5 -44.5l-82 -296h253l-78 296q-11 37 -18 44q-7 9 -32 9z" />
    <glyph glyph-name="dagger" unicode="&#xc2;" horiz-adv-x="678" 
d="M316 959h42q13 0 17 -7l89 -121q6 -7 -4 -14l-17 -12q-7 -6 -15 0l-91 73l-91 -73q-8 -6 -15 0l-17 12q-10 7 -4 14l89 121q4 7 17 7zM337 762q77 0 100 -20q24 -20 45 -97l171 -629q2 -10 -0.5 -13t-11.5 -3h-78q-6 0 -8.5 3t-4.5 13l-62 221h-301l-63 -221
q-2 -10 -4.5 -13t-8.5 -3h-78q-9 0 -11.5 3t-0.5 13l177 629q23 78 45 97q25 20 94 20zM337 674q-21 0 -27.5 -8.5t-15.5 -44.5l-82 -296h253l-78 296q-11 37 -18 44q-7 9 -32 9z" />
    <glyph glyph-name="degree" unicode="&#xc3;" horiz-adv-x="678" 
d="M267 940q23 0 71 -20q49 -20 64 -20q18 0 27.5 7t18.5 27q8 15 19 11l23 -6q16 -5 11 -23q-18 -57 -37 -76.5t-57 -19.5q-23 0 -72 20q-48 20 -63 20q-19 0 -28 -7t-18 -27q-8 -14 -19 -10l-23 6q-16 5 -11 22q18 58 37 77t57 19zM337 762q77 0 100 -20q24 -20 45 -97
l171 -629q2 -10 -0.5 -13t-11.5 -3h-78q-6 0 -8.5 3t-4.5 13l-62 221h-301l-63 -221q-2 -10 -4.5 -13t-8.5 -3h-78q-9 0 -11.5 3t-0.5 13l177 629q23 78 45 97q25 20 94 20zM337 674q-21 0 -27.5 -8.5t-15.5 -44.5l-82 -296h253l-78 296q-11 37 -18 44q-7 9 -32 9z" />
    <glyph glyph-name="cent" unicode="&#xc4;" horiz-adv-x="678" 
d="M244 939q61 0 61 -59q0 -61 -61 -61q-62 0 -62 61q0 59 62 59zM431 939q61 0 61 -59q0 -61 -61 -61q-62 0 -62 61q0 59 62 59zM337 762q77 0 100 -20q24 -20 45 -97l171 -629q2 -10 -0.5 -13t-11.5 -3h-78q-6 0 -8.5 3t-4.5 13l-62 221h-301l-63 -221q-2 -10 -4.5 -13
t-8.5 -3h-78q-9 0 -11.5 3t-0.5 13l177 629q23 78 45 97q25 20 94 20zM337 674q-21 0 -27.5 -8.5t-15.5 -44.5l-82 -296h253l-78 296q-11 37 -18 44q-7 9 -32 9z" />
    <glyph glyph-name="sterling" unicode="&#xc5;" horiz-adv-x="678" 
d="M231 907q0 102 106 102t106 -102t-106 -102t-106 102zM399 907q0 62 -62 62t-62 -62t62 -62t62 62zM337 762q77 0 100 -20q24 -20 45 -97l171 -629q2 -10 -0.5 -13t-11.5 -3h-78q-6 0 -8.5 3t-4.5 13l-62 221h-301l-63 -221q-2 -10 -4.5 -13t-8.5 -3h-78q-9 0 -11.5 3
t-0.5 13l177 629q23 78 45 97q25 20 94 20zM337 674q-21 0 -27.5 -8.5t-15.5 -44.5l-82 -296h253l-78 296q-11 37 -18 44q-7 9 -32 9z" />
    <glyph glyph-name="section" unicode="&#xc6;" horiz-adv-x="968" 
d="M337 762l223 -5h344q15 0 15 -15v-59q0 -15 -15 -15h-328v-257h294q15 0 15 -15v-58q0 -15 -15 -15h-294v-234h328q15 0 15 -15v-59q0 -15 -15 -15h-415q-15 0 -15 15v222h-286l-63 -221q-2 -10 -4.5 -13t-8.5 -3h-78q-9 0 -11.5 3t-1.5 13l178 629q23 78 45 97
q25 20 93 20zM474 325v349h-134q-22 0 -30 -9q-6 -7 -17 -47l-81 -293h262z" />
    <glyph glyph-name="bullet.001" unicode="&#xc7;" horiz-adv-x="599" 
d="M548 673h-187q-127 0 -165 -59t-38 -236q0 -176 38 -235t165 -59h187q15 0 15 -15v-47q0 -15 -16 -18q-59 -9 -172 -9q13 -51 13 -85q0 -42 -21.5 -59t-70.5 -17q-39 0 -60 8q-12 4 -12 18v34q0 15 15 15h36q29 0 37.5 5.5t8.5 25.5q0 11 -8 56q-151 9 -204 90
q-52 82 -52 292q0 119 13.5 188.5t47.5 113.5q34 46 90.5 64t152.5 18q119 0 186 -10q16 -1 16 -17v-47q0 -15 -15 -15z" />
    <glyph glyph-name="paragraph" unicode="&#xc8;" horiz-adv-x="629" 
d="M218 959h88q9 0 12 -6l73 -121q5 -8 -3 -14l-19 -13q-7 -6 -14 0l-142 125q-5 5 -5 12v7q0 10 10 10zM97 757h468q15 0 15 -15v-59q0 -15 -15 -15h-382v-257h348q15 0 15 -15v-58q0 -15 -15 -15h-348v-234h382q15 0 15 -15v-59q0 -15 -15 -15h-468q-15 0 -15 15v727
q0 15 15 15z" />
    <glyph glyph-name="germandbls" unicode="&#xc9;" horiz-adv-x="629" 
d="M340 959h89q10 0 10 -10v-7q0 -7 -5 -12l-142 -125q-7 -6 -14 0l-20 13q-8 6 -3 14l73 121q3 6 12 6zM97 757h468q15 0 15 -15v-59q0 -15 -15 -15h-382v-257h348q15 0 15 -15v-58q0 -15 -15 -15h-348v-234h382q15 0 15 -15v-59q0 -15 -15 -15h-468q-15 0 -15 15v727
q0 15 15 15z" />
    <glyph glyph-name="registered" unicode="&#xca;" horiz-adv-x="629" 
d="M304 959h43q12 0 16 -7l89 -121q6 -7 -3 -14l-18 -12q-7 -6 -14 0l-92 73l-91 -73q-7 -6 -14 0l-18 12q-9 7 -3 14l88 121q4 7 17 7zM97 757h468q15 0 15 -15v-59q0 -15 -15 -15h-382v-257h348q15 0 15 -15v-58q0 -15 -15 -15h-348v-234h382q15 0 15 -15v-59
q0 -15 -15 -15h-468q-15 0 -15 15v727q0 15 15 15z" />
    <glyph glyph-name="copyright" unicode="&#xcb;" horiz-adv-x="629" 
d="M233 939q60 0 60 -59q0 -61 -60 -61q-62 0 -62 61q0 59 62 59zM480 880q0 -61 -61 -61t-61 61q0 59 61 59t61 -59zM97 757h468q15 0 15 -15v-59q0 -15 -15 -15h-382v-257h348q15 0 15 -15v-58q0 -15 -15 -15h-348v-234h382q15 0 15 -15v-59q0 -15 -15 -15h-468
q-15 0 -15 15v727q0 15 15 15z" />
    <glyph glyph-name="trademark" unicode="&#xcc;" horiz-adv-x="266" 
d="M-2 959h89q9 0 12 -6l73 -121q5 -8 -3 -14l-20 -13q-7 -6 -14 0l-142 125q-5 5 -5 12v7q0 10 10 10zM97 757h72q15 0 15 -16v-726q0 -15 -15 -15h-72q-15 0 -15 15v726q0 16 15 16z" />
    <glyph glyph-name="acute" unicode="&#xcd;" horiz-adv-x="265" 
d="M176 959h89q10 0 10 -10v-7q0 -7 -5 -12l-142 -125q-7 -6 -14 0l-20 13q-8 6 -3 14l73 121q3 6 12 6zM97 757h71q15 0 15 -16v-726q0 -15 -15 -15h-71q-15 0 -15 15v726q0 16 15 16z" />
    <glyph glyph-name="dieresis" unicode="&#xce;" horiz-adv-x="265" 
d="M109 959h43q13 0 17 -7l88 -121q7 -7 -3 -14l-18 -12q-7 -6 -14 0l-91 73l-91 -73q-8 -5 -15 0l-18 12q-9 7 -3 14l89 121q4 7 16 7zM97 757h71q15 0 15 -16v-726q0 -15 -15 -15h-71q-15 0 -15 15v726q0 16 15 16z" />
    <glyph glyph-name="notequal" unicode="&#xcf;" horiz-adv-x="265" 
d="M38 939q60 0 60 -59q0 -61 -60 -61q-62 0 -62 61q0 59 62 59zM285 880q0 -61 -61 -61t-61 61q0 59 61 59t61 -59zM97 757h71q15 0 15 -16v-726q0 -15 -15 -15h-71q-15 0 -15 15v726q0 16 15 16z" />
    <glyph glyph-name="AE" unicode="&#xd0;" horiz-adv-x="749" 
d="M384 762q168 0 239 -90q72 -89 72 -293q0 -205 -72 -295q-71 -89 -239 -89q-184 0 -275 7q-9 1 -12 3.5t-3 10.5v326h-73q-15 0 -15 15v41q0 15 15 15h73v327q0 9 3 11.5t12 3.5q91 7 275 7zM195 342v-258h189q113 0 161 69t48 226q0 156 -51 225t-173 69h-174v-260h158
q15 0 15 -15v-41q0 -15 -15 -15h-158z" />
    <glyph glyph-name="Oslash" unicode="&#xd1;" horiz-adv-x="771" 
d="M315 940q23 0 72 -20t64 -20q18 0 27.5 7t18.5 27q6 15 18 11l24 -6q15 -5 10 -23q-17 -57 -36 -76.5t-57 -19.5q-23 0 -72 20q-48 20 -63 20q-19 0 -28 -7t-18 -27q-8 -14 -19 -10l-23 6q-16 5 -11 22q18 57 36 77q19 19 57 19zM603 757h71q15 0 15 -16v-726
q0 -15 -15 -15h-61q-23 0 -35 18l-395 595v-598q0 -15 -15 -15h-71q-15 0 -15 15v726q0 16 15 16h68q26 -1 35.5 -6t21.5 -23l366 -551v564q0 16 15 16z" />
    <glyph glyph-name="infinity" unicode="&#xd2;" horiz-adv-x="724" 
d="M210 959h89q9 0 12 -6l73 -121q5 -8 -3 -14l-20 -13q-7 -6 -14 0l-142 125q-5 5 -5 12v7q0 10 10 10zM667 377q0 -119 -13.5 -188t-48.5 -113q-35 -45 -91 -63t-152 -18t-152.5 18t-91.5 63q-34 45 -47.5 114t-13.5 187q0 225 62 305t243 80t243 -80t62 -305zM159 377
q0 -176 38 -235q37 -58 165 -58t165 58q38 59 38 235q0 96 -7.5 147t-29.5 86q-21 36 -59.5 49.5t-106.5 13.5t-106 -13.5t-61 -49.5q-21 -36 -28.5 -87.5t-7.5 -145.5z" />
    <glyph glyph-name="plusminus" unicode="&#xd3;" horiz-adv-x="724" 
d="M399 959h89q10 0 10 -10v-7q0 -7 -5 -12l-142 -125q-7 -6 -14 0l-20 13q-8 6 -3 14l73 121q3 6 12 6zM667 377q0 -119 -13.5 -188t-48.5 -113q-35 -45 -91 -63t-152 -18t-152.5 18t-91.5 63q-34 45 -47.5 114t-13.5 187q0 225 62 305t243 80t243 -80t62 -305zM159 377
q0 -176 38 -235q37 -58 165 -58t165 58q38 59 38 235q0 96 -7.5 147t-29.5 86q-21 36 -59.5 49.5t-106.5 13.5t-106 -13.5t-61 -49.5q-21 -36 -28.5 -87.5t-7.5 -145.5z" />
    <glyph glyph-name="lessequal.001" unicode="&#xd4;" horiz-adv-x="724" 
d="M341 959h43q12 0 16 -7l89 -121q6 -7 -3 -14l-18 -12q-8 -6 -15 0l-91 73l-91 -73q-7 -5 -15 0l-17 12q-10 7 -3 14l88 121q4 7 17 7zM667 377q0 -119 -13.5 -188t-48.5 -113q-35 -45 -91 -63t-152 -18t-152.5 18t-91.5 63q-34 45 -47.5 114t-13.5 187q0 225 62 305
t243 80t243 -80t62 -305zM159 377q0 -176 38 -235q37 -58 165 -58t165 58q38 59 38 235q0 96 -7.5 147t-29.5 86q-21 36 -59.5 49.5t-106.5 13.5t-106 -13.5t-61 -49.5q-21 -36 -28.5 -87.5t-7.5 -145.5z" />
    <glyph glyph-name="greaterequal.001" unicode="&#xd5;" horiz-adv-x="724" 
d="M292 940q23 0 71 -20q49 -20 64 -20q18 0 27.5 7t18.5 27q8 15 19 11l23 -6q16 -5 11 -23q-18 -57 -37 -76.5t-56 -19.5q-23 0 -72 20t-64 20q-19 0 -28 -7t-18 -27q-8 -14 -19 -10l-23 6q-15 6 -11 22q18 58 37 77t57 19zM667 377q0 -119 -13.5 -188t-48.5 -113
q-35 -45 -91 -63t-152 -18t-152.5 18t-91.5 63q-34 45 -47.5 114t-13.5 187q0 225 62 305t243 80t243 -80t62 -305zM159 377q0 -176 38 -235q37 -58 165 -58t165 58q38 59 38 235q0 96 -7.5 147t-29.5 86q-21 36 -59.5 49.5t-106.5 13.5t-106 -13.5t-61 -49.5
q-21 -36 -28.5 -87.5t-7.5 -145.5z" />
    <glyph glyph-name="yen" unicode="&#xd6;" horiz-adv-x="724" 
d="M270 939q60 0 60 -59q0 -61 -60 -61q-63 0 -63 61q0 59 63 59zM456 939q61 0 61 -59q0 -61 -61 -61q-62 0 -62 61q0 59 62 59zM667 377q0 -119 -13.5 -188t-48.5 -113q-35 -45 -91 -63t-152 -18t-152.5 18t-91.5 63q-34 45 -47.5 114t-13.5 187q0 225 62 305t243 80
t243 -80t62 -305zM159 377q0 -176 38 -235q37 -58 165 -58t165 58q38 59 38 235q0 96 -7.5 147t-29.5 86q-21 36 -59.5 49.5t-106.5 13.5t-106 -13.5t-61 -49.5q-21 -36 -28.5 -87.5t-7.5 -145.5z" />
    <glyph glyph-name="mu" unicode="&#xd7;" horiz-adv-x="516" 
d="M413 507l43 -41q11 -11 0 -22l-135 -134l135 -134q11 -11 0 -22l-43 -43q-11 -11 -22 0l-134 134l-134 -134q-11 -11 -22 0l-41 41q-12 12 -1 22l135 134l-133 134q-11 12 -1 22l43 42q11 11 22 0l133 -133l134 134q10 11 21 0z" />
    <glyph glyph-name="partialdiff.001" unicode="&#xd8;" horiz-adv-x="724" 
d="M362 762q134 0 199 -41l26 36q11 14 21 4l34 -23q12 -8 3 -21l-32 -46q54 -79 54 -294q0 -119 -13.5 -188t-48.5 -113q-35 -45 -91 -63t-152 -18q-132 0 -196 38l-30 -41q-9 -14 -20 -3l-34 23q-11 7 -4 20l35 49q-56 83 -56 296q0 225 62 305t243 80zM362 673
q-68 0 -106 -13.5t-61 -49.5q-21 -36 -28.5 -87.5t-7.5 -145.5q0 -141 22 -200l323 461q-44 35 -142 35zM545 574l-322 -458q44 -32 139 -32q128 0 165 58q38 59 38 235q0 140 -20 197z" />
    <glyph glyph-name="summation" unicode="&#xd9;" horiz-adv-x="747" 
d="M240 959h89q9 0 12 -6l73 -121q5 -8 -3 -14l-20 -13q-7 -6 -14 0l-142 125q-5 5 -5 12v7q0 10 10 10zM585 757h71q15 0 15 -15v-365q0 -122 -13 -191.5t-47 -113.5t-88.5 -60.5t-149.5 -16.5q-138 0 -207 46q-36 24 -55 70q-35 89 -35 266v365q0 15 15 15h71q15 0 15 -15
v-365q0 -119 17 -182q17 -61 58 -86t121 -25q118 0 157 58q40 58 40 235v365q0 15 15 15z" />
    <glyph glyph-name="product" unicode="&#xda;" horiz-adv-x="747" 
d="M411 959h89q10 0 10 -10v-7q0 -7 -5 -12l-142 -125q-7 -6 -14 0l-20 13q-8 6 -3 14l73 121q3 6 12 6zM585 757h71q15 0 15 -15v-365q0 -122 -13 -191.5t-47 -113.5t-88.5 -60.5t-149.5 -16.5q-138 0 -207 46q-36 24 -55 70q-35 89 -35 266v365q0 15 15 15h71q15 0 15 -15
v-365q0 -119 17 -182q17 -61 58 -86t121 -25q118 0 157 58q40 58 40 235v365q0 15 15 15z" />
    <glyph glyph-name="pi.001" unicode="&#xdb;" horiz-adv-x="747" 
d="M352 959h43q12 0 16 -7l89 -121q6 -7 -3 -14l-18 -12q-7 -5 -15 0l-91 73l-91 -73q-7 -6 -14 0l-18 12q-9 6 -3 14l88 121q4 7 17 7zM585 757h71q15 0 15 -15v-365q0 -122 -13 -191.5t-47 -113.5t-88.5 -60.5t-149.5 -16.5q-138 0 -207 46q-36 24 -55 70q-35 89 -35 266
v365q0 15 15 15h71q15 0 15 -15v-365q0 -119 17 -182q17 -61 58 -86t121 -25q118 0 157 58q40 58 40 235v365q0 15 15 15z" />
    <glyph glyph-name="integral" unicode="&#xdc;" horiz-adv-x="747" 
d="M281 939q60 0 60 -59q0 -61 -60 -61q-63 0 -63 61q0 59 63 59zM528 880q0 -61 -61 -61t-61 61q0 59 61 59t61 -59zM585 757h71q15 0 15 -15v-365q0 -122 -13 -191.5t-47 -113.5t-88.5 -60.5t-149.5 -16.5q-138 0 -207 46q-36 24 -55 70q-35 89 -35 266v365q0 15 15 15h71
q15 0 15 -15v-365q0 -119 17 -182q17 -61 58 -86t121 -25q118 0 157 58q40 58 40 235v365q0 15 15 15z" />
    <glyph glyph-name="ordfeminine" unicode="&#xdd;" horiz-adv-x="660" 
d="M372 959h89q10 0 10 -10v-7q0 -7 -5 -12l-142 -125q-7 -6 -14 0l-20 13q-8 6 -3 14l73 121q3 6 12 6zM564 757h77q23 0 11 -22l-271 -505v-215q0 -15 -15 -15h-72q-15 0 -15 15v215l-271 505q-12 22 11 22h78q17 0 27 -16l206 -401l207 401q7 16 27 16z" />
    <glyph glyph-name="ordmasculine" unicode="&#xde;" horiz-adv-x="639" 
d="M97 757h71q15 0 15 -15v-122q66 3 119 3q93 0 144.5 -9.5t87.5 -35.5q37 -26 52 -73t15 -127t-15 -126.5t-52 -72.5q-36 -26 -87.5 -35.5t-144.5 -9.5q-61 0 -119 2v-121q0 -15 -15 -15h-71q-15 0 -15 15v727q0 15 15 15zM293 534h-110v-312h110q128 0 166 28
q40 28 40 128t-40 128q-38 28 -166 28z" />
    <glyph glyph-name="Omega.001" unicode="&#xdf;" horiz-adv-x="595" 
d="M288 762q128 0 183 -46q56 -45 56 -164q0 -150 -85 -169v-3q105 -18 105 -180q0 -120 -60 -163q-59 -42 -187 -42q-32 0 -75 4q-18 2 -13 17l16 55q3 13 16 13h60q80 0 113 25.5t33 94.5q0 76 -34.5 104.5t-111.5 28.5h-68q-15 0 -15 15v51q0 15 16 15h67q65 0 95.5 26.5
t30.5 97.5q0 79 -32 105t-110 26q-69 0 -96 -29q-26 -29 -26 -115v-514q0 -15 -15 -15h-67q-15 0 -15 15v506q0 141 46 190q47 51 173 51z" />
    <glyph glyph-name="ae" unicode="&#xe0;" horiz-adv-x="534" 
d="M148 759h88q9 0 12 -6l73 -121q5 -8 -3 -14l-20 -13q-7 -6 -14 0l-141 125q-5 5 -5 12v7q0 10 10 10zM243 552q117 0 171.5 -37.5t54.5 -119.5v-350q0 -21 -19 -28q-57 -22 -222 -22q-105 0 -149 32q-44 33 -44 129q0 84 42.5 119t134.5 35l161 1v67q0 48 -30.5 69
t-99.5 21h-150q-9 0 -12 3t-3 12v41q0 8 2.5 11t11.5 5q71 12 151 12zM373 89v144h-159q-44 0 -64 -17.5t-20 -57.5q0 -47 25 -64t90 -17q81 0 128 12z" />
    <glyph glyph-name="oslash" unicode="&#xe1;" horiz-adv-x="534" 
d="M272 759h89q10 0 10 -10v-7q0 -7 -5 -12l-142 -125q-7 -6 -14 0l-20 13q-8 6 -3 14l73 121q3 6 12 6zM243 552q117 0 171.5 -37.5t54.5 -119.5v-350q0 -21 -19 -28q-57 -22 -222 -22q-105 0 -149 32q-44 33 -44 129q0 84 42.5 119t134.5 35l161 1v67q0 48 -30.5 69
t-99.5 21h-150q-9 0 -12 3t-3 12v41q0 8 2.5 11t11.5 5q71 12 151 12zM373 89v144h-159q-44 0 -64 -17.5t-20 -57.5q0 -47 25 -64t90 -17q81 0 128 12z" />
    <glyph glyph-name="questiondown" unicode="&#xe2;" horiz-adv-x="534" 
d="M238 759h43q13 0 17 -7l88 -121q7 -7 -3 -14l-18 -12q-7 -6 -14 0l-91 73l-91 -73q-7 -5 -15 0l-18 12q-9 7 -3 14l89 121q4 7 16 7zM243 552q117 0 171.5 -37.5t54.5 -119.5v-350q0 -21 -19 -28q-57 -22 -222 -22q-105 0 -149 32q-44 33 -44 129q0 84 42.5 119t134.5 35
l161 1v67q0 48 -30.5 69t-99.5 21h-150q-9 0 -12 3t-3 12v41q0 8 2.5 11t11.5 5q71 12 151 12zM373 89v144h-159q-44 0 -64 -17.5t-20 -57.5q0 -47 25 -64t90 -17q81 0 128 12z" />
    <glyph glyph-name="exclamdown" unicode="&#xe3;" horiz-adv-x="534" 
d="M189 740q23 0 72 -20t64 -20q18 0 27.5 7t18.5 27q6 15 19 11l23 -6q14 -5 11 -23q-18 -57 -37 -76.5t-57 -19.5q-23 0 -72 20q-48 20 -63 20q-19 0 -28 -7t-18 -27q-8 -14 -19 -10l-23 6q-16 5 -11 22q18 57 36 77q19 19 57 19zM243 552q117 0 171.5 -37.5t54.5 -119.5
v-350q0 -21 -19 -28q-57 -22 -222 -22q-105 0 -149 32q-44 33 -44 129q0 84 42.5 119t134.5 35l161 1v67q0 48 -30.5 69t-99.5 21h-150q-9 0 -12 3t-3 12v41q0 8 2.5 11t11.5 5q71 12 151 12zM373 89v144h-159q-44 0 -64 -17.5t-20 -57.5q0 -47 25 -64t90 -17q81 0 128 12z
" />
    <glyph glyph-name="logicalnot" unicode="&#xe4;" horiz-adv-x="534" 
d="M167 739q61 0 61 -59q0 -61 -61 -61q-62 0 -62 61q0 59 62 59zM353 739q62 0 62 -59q0 -61 -62 -61q-61 0 -61 61q0 59 61 59zM243 552q117 0 171.5 -37.5t54.5 -119.5v-350q0 -21 -19 -28q-57 -22 -222 -22q-105 0 -149 32q-44 33 -44 129q0 84 42.5 119t134.5 35l161 1
v67q0 48 -30.5 69t-99.5 21h-150q-9 0 -12 3t-3 12v41q0 8 2.5 11t11.5 5q71 12 151 12zM373 89v144h-159q-44 0 -64 -17.5t-20 -57.5q0 -47 25 -64t90 -17q81 0 128 12z" />
    <glyph glyph-name="radical.001" unicode="&#xe5;" horiz-adv-x="534" 
d="M154 707q0 102 106 102t106 -102t-106 -102t-106 102zM322 707q0 62 -62 62t-62 -62t62 -62t62 62zM243 552q117 0 171.5 -37.5t54.5 -119.5v-350q0 -21 -19 -28q-57 -22 -222 -22q-105 0 -149 32q-44 33 -44 129q0 84 42.5 119t134.5 35l161 1v67q0 48 -30.5 69
t-99.5 21h-150q-9 0 -12 3t-3 12v41q0 8 2.5 11t11.5 5q71 12 151 12zM373 89v144h-159q-44 0 -64 -17.5t-20 -57.5q0 -47 25 -64t90 -17q81 0 128 12z" />
    <glyph glyph-name="florin.001" unicode="&#xe6;" horiz-adv-x="865" 
d="M601 552q133 0 177 -53q45 -54 46 -211v-29q0 -16 -7 -22t-29 -6h-318q3 -93 28 -122q26 -30 106 -30h164q15 0 15 -15v-44q0 -14 -14 -16q-66 -9 -168 -9q-44 0 -96 11q-49 12 -73 30q-77 -41 -203 -41q-104 0 -150 32q-44 33 -44 129q0 84 42.5 119t135.5 35l161 1v67
q0 47 -31 68.5t-100 21.5h-149q-9 0 -12 3t-3 12v41q0 8 2.5 11t11.5 5q71 12 150 12q131 0 183 -49q48 49 175 49zM601 468q-80 0 -105 -31q-25 -32 -26 -128h258q-2 97 -26 127q-24 32 -101 32zM374 233h-159q-45 0 -64.5 -17t-19.5 -58q0 -47 24.5 -64t89.5 -17
q97 0 150 25q-21 45 -21 131z" />
    <glyph glyph-name="approxequal" unicode="&#xe7;" horiz-adv-x="486" 
d="M436 468h-151q-88 0 -112 -37t-24 -158q0 -119 24 -157q24 -37 112 -37h151q15 0 15 -15v-43q0 -15 -14 -17q-47 -8 -124 -9q14 -51 14 -85q0 -42 -21.5 -59t-70.5 -17q-39 0 -60 8q-12 4 -12 18v34q0 15 15 15h35q29 0 38 5.5t9 25.5q0 11 -8 56q-122 5 -161 60
q-38 58 -38 217q0 92 9 141t34 81q26 33 68.5 45t120.5 12q86 0 152 -9q14 -2 14 -17v-43q0 -15 -15 -15z" />
    <glyph glyph-name="increment" unicode="&#xe8;" horiz-adv-x="544" 
d="M149 759h89q9 0 12 -6l73 -121q5 -8 -3 -14l-20 -13q-7 -6 -14 0l-142 125q-5 5 -5 12v7q0 10 10 10zM280 552q133 0 177 -53q45 -54 46 -211v-29q0 -16 -7.5 -22t-28.5 -6h-318q2 -92 27 -122q26 -30 106 -30h164q15 0 15 -15v-44q0 -14 -14 -16q-66 -9 -167 -9
q-140 0 -184 54q-44 56 -44 224t44 224q43 55 184 55zM280 468q-79 0 -105 -32t-27 -127h259q-1 96 -26 128q-24 31 -101 31z" />
    <glyph glyph-name="guillemotleft" unicode="&#xe9;" horiz-adv-x="544" 
d="M306 759h89q10 0 10 -10v-7q0 -7 -5 -12l-142 -125q-7 -6 -14 0l-20 13q-8 6 -3 14l73 121q3 6 12 6zM280 552q133 0 177 -53q45 -54 46 -211v-29q0 -16 -7.5 -22t-28.5 -6h-318q2 -92 27 -122q26 -30 106 -30h164q15 0 15 -15v-44q0 -14 -14 -16q-66 -9 -167 -9
q-140 0 -184 54q-44 56 -44 224t44 224q43 55 184 55zM280 468q-79 0 -105 -32t-27 -127h259q-1 96 -26 128q-24 31 -101 31z" />
    <glyph glyph-name="guillemotright" unicode="&#xea;" horiz-adv-x="544" 
d="M257 759h43q12 0 16 -7l89 -121q6 -7 -3 -14l-18 -12q-8 -5 -15 0l-91 73l-91 -73q-7 -6 -14 0l-18 12q-10 7 -3 14l88 121q4 7 17 7zM280 552q133 0 177 -53q45 -54 46 -211v-29q0 -16 -7.5 -22t-28.5 -6h-318q2 -92 27 -122q26 -30 106 -30h164q15 0 15 -15v-44
q0 -14 -14 -16q-66 -9 -167 -9q-140 0 -184 54q-44 56 -44 224t44 224q43 55 184 55zM280 468q-79 0 -105 -32t-27 -127h259q-1 96 -26 128q-24 31 -101 31z" />
    <glyph glyph-name="ellipsis" unicode="&#xeb;" horiz-adv-x="544" 
d="M186 739q60 0 60 -59q0 -61 -60 -61q-63 0 -63 61q0 59 63 59zM372 739q61 0 61 -59q0 -61 -61 -61q-62 0 -62 61q0 59 62 59zM280 552q133 0 177 -53q45 -54 46 -211v-29q0 -16 -7.5 -22t-28.5 -6h-318q2 -92 27 -122q26 -30 106 -30h164q15 0 15 -15v-44q0 -14 -14 -16
q-66 -9 -167 -9q-140 0 -184 54q-44 56 -44 224t44 224q43 55 184 55zM280 468q-79 0 -105 -32t-27 -127h259q-1 96 -26 128q-24 31 -101 31z" />
    <glyph glyph-name="nbspace" unicode="&#xec;" horiz-adv-x="233" 
d="M-20 759h88q9 0 12 -6l73 -121q5 -8 -3 -14l-19 -13q-8 -5 -14 0l-142 125q-5 5 -5 12v7q0 10 10 10zM84 547h65q15 0 15 -15v-517q0 -15 -15 -15h-65q-15 0 -15 15v517q0 15 15 15z" />
    <glyph glyph-name="Agrave" unicode="&#xed;" horiz-adv-x="234" 
d="M164 759h88q10 0 10 -10v-7q0 -7 -5 -12l-142 -125q-6 -5 -14 0l-19 13q-8 6 -3 14l73 121q3 6 12 6zM84 547h66q15 0 15 -15v-517q0 -15 -15 -15h-66q-15 0 -15 15v517q0 15 15 15z" />
    <glyph glyph-name="Atilde" unicode="&#xee;" horiz-adv-x="234" 
d="M96 759h42q13 0 17 -7l88 -121q7 -7 -3 -14l-17 -12q-7 -5 -15 0l-91 73l-91 -73q-8 -6 -15 0l-18 12q-9 7 -3 14l89 121q4 7 17 7zM150 0h-66q-15 0 -15 15v517q0 15 15 15h66q15 0 15 -15v-517q0 -15 -15 -15z" />
    <glyph glyph-name="Otilde" unicode="&#xef;" horiz-adv-x="234" 
d="M24 739q60 0 60 -59q0 -61 -60 -61q-62 0 -62 61q0 59 62 59zM271 680q0 -61 -61 -61t-61 61q0 59 61 59t61 -59zM84 547h66q15 0 15 -15v-517q0 -15 -15 -15h-66q-15 0 -15 15v517q0 15 15 15z" />
    <glyph glyph-name="OE" unicode="&#xf0;" horiz-adv-x="566" 
d="M207 756h71q12 0 18 -10l29 -50l87 32q15 6 19 -9l10 -26q5 -14 -9 -19l-77 -28l134 -226q27 -44 27 -173q0 -81 -10 -126t-36 -74t-68.5 -40.5t-118.5 -11.5q-75 0 -118 11.5t-69 40.5t-35.5 74.5t-9.5 125.5t9.5 125t35.5 74t67.5 40.5t115.5 11.5q35 0 63 -3l-72 120
l-87 -31q-15 -6 -19 9l-10 26q-5 14 9 19l77 28l-43 72q-11 18 10 18zM283 415q-85 0 -111 -33q-23 -32 -25 -135q2 -103 25 -135q26 -33 111 -33q87 0 111 33q24 32 26 135q-2 105 -26 135q-24 33 -111 33z" />
    <glyph glyph-name="oe.001" unicode="&#xf1;" horiz-adv-x="588" 
d="M225 740q23 0 71 -20q49 -20 64 -20q18 0 27.5 7t18.5 27q8 15 19 11l23 -6q16 -5 11 -23q-18 -57 -37 -76.5t-56 -19.5q-23 0 -72 20t-64 20q-18 0 -27.5 -7t-18.5 -27q-6 -14 -18 -10l-24 6q-14 6 -10 22q17 58 36 77t57 19zM291 552q77 0 113 -7q40 -6 69 -31
q29 -23 39.5 -67.5t10.5 -128.5v-303q0 -15 -17 -15h-64q-15 0 -15 15v295q0 80 -16 121q-7 18 -25 25q-26 12 -85 12h-137v-453q0 -15 -15 -15h-66q-15 0 -15 15v505q0 6 2 9.5t4.5 4.5t8.5 2q80 16 208 16z" />
    <glyph glyph-name="endash.001" unicode="&#xf2;" horiz-adv-x="569" 
d="M142 759h88q9 0 12 -6l73 -121q5 -8 -3 -14l-20 -13q-7 -6 -14 0l-141 125q-5 5 -5 12v7q0 10 10 10zM167 540q44 12 118 12q75 0 118 -12q88 -22 105 -129q9 -49 9 -138q0 -88 -9 -139q-17 -103 -105 -128q-46 -11 -118 -11q-73 0 -119 11q-86 24 -105 128q-9 51 -9 139
q0 89 9 138q19 107 106 129zM285 468q-89 0 -113 -37t-24 -158q0 -119 24 -157q24 -37 113 -37q88 0 112 37q24 38 24 157q0 121 -24 158t-112 37z" />
    <glyph glyph-name="emdash.001" unicode="&#xf3;" horiz-adv-x="569" 
d="M329 759h89q10 0 10 -10v-7q0 -4 -5 -12l-142 -125q-7 -6 -14 0l-20 13q-8 6 -3 14l73 121q3 6 12 6zM167 540q44 12 118 12q75 0 118 -12q88 -22 105 -129q9 -49 9 -138q0 -88 -9 -139q-17 -103 -105 -128q-46 -11 -118 -11q-73 0 -119 11q-86 24 -105 128q-9 51 -9 139
q0 89 9 138q19 107 106 129zM285 468q-89 0 -113 -37t-24 -158q0 -119 24 -157q24 -37 113 -37q88 0 112 37q24 38 24 157q0 121 -24 158t-112 37z" />
    <glyph glyph-name="quotedblleft" unicode="&#xf4;" horiz-adv-x="569" 
d="M263 759h43q13 0 17 -7l88 -121q6 -7 -3 -14l-18 -12q-7 -6 -14 0l-91 73l-92 -73q-7 -6 -14 0l-18 12q-9 7 -3 14l89 121q4 7 16 7zM167 540q44 12 118 12q75 0 118 -12q88 -22 105 -129q9 -49 9 -138q0 -88 -9 -139q-17 -103 -105 -128q-46 -11 -118 -11q-73 0 -119 11
q-86 24 -105 128q-9 51 -9 139q0 89 9 138q19 107 106 129zM285 468q-89 0 -113 -37t-24 -158q0 -119 24 -157q24 -37 113 -37q88 0 112 37q24 38 24 157q0 121 -24 158t-112 37z" />
    <glyph glyph-name="quotedblright.001" unicode="&#xf5;" horiz-adv-x="569" 
d="M214 740q23 0 72 -20t64 -20q18 0 27.5 7t17.5 27q8 15 19 11l23 -6q16 -5 11 -23q-18 -57 -36.5 -76.5t-56.5 -19.5q-23 0 -72 20t-64 20q-18 0 -27 -7t-18 -27q-8 -14 -19 -10l-23 6q-16 5 -11 22q18 57 36 77q19 19 57 19zM167 540q44 12 118 12q75 0 118 -12
q88 -22 105 -129q9 -49 9 -138q0 -88 -9 -139q-17 -103 -105 -128q-46 -11 -118 -11q-73 0 -119 11q-86 24 -105 128q-9 51 -9 139q0 89 9 138q19 107 106 129zM285 468q-89 0 -113 -37t-24 -158q0 -119 24 -157q24 -37 113 -37q88 0 112 37q24 38 24 157q0 121 -24 158
t-112 37z" />
    <glyph glyph-name="quoteleft" unicode="&#xf6;" horiz-adv-x="569" 
d="M192 739q60 0 60 -59q0 -61 -60 -61q-62 0 -62 61q0 59 62 59zM439 680q0 -61 -61 -61t-61 61q0 59 61 59t61 -59zM167 540q44 12 118 12q75 0 118 -12q88 -22 105 -129q9 -49 9 -138q0 -88 -9 -139q-17 -103 -105 -128q-46 -11 -118 -11q-73 0 -119 11q-86 24 -105 128
q-9 51 -9 139q0 89 9 138q19 107 106 129zM285 468q-89 0 -113 -37t-24 -158q0 -119 24 -157q24 -37 113 -37q88 0 112 37q24 38 24 157q0 121 -24 158t-112 37z" />
    <glyph glyph-name="quoteright.001" unicode="&#xf7;" horiz-adv-x="570" 
d="M286 526q59 0 59 -57q0 -59 -59 -59q-60 0 -60 59q0 57 60 57zM63 352h444q15 0 15 -15v-60q0 -15 -15 -15h-444q-15 0 -15 15v60q0 15 15 15zM286 203q59 0 59 -57q0 -59 -59 -59q-60 0 -60 59q0 57 60 57z" />
    <glyph glyph-name="divide" unicode="&#xf8;" horiz-adv-x="569" 
d="M285 552q85 0 133 -17l16 22q11 14 21 4l34 -23q12 -8 3 -21l-17 -24q42 -52 42 -220q0 -92 -9 -141t-35 -81t-68.5 -44t-119.5 -12q-99 0 -144 22l-19 -27q-9 -14 -20 -3l-34 23q-13 7 -4 20l23 33q-35 56 -35 210q0 91 9.5 140.5t34.5 81.5q26 33 68.5 45t120.5 12z
M285 468q-89 0 -113 -37t-24 -158q0 -82 7 -113l209 297q-30 11 -79 11zM410 401l-215 -306q28 -16 90 -16q88 0 112 37q24 38 24 157q0 92 -11 128z" />
    <glyph glyph-name="lozenge" unicode="&#xf9;" horiz-adv-x="589" 
d="M160 759h89q9 0 12 -6l73 -121q5 -8 -3 -14l-20 -13q-7 -6 -14 0l-142 125q-5 5 -5 12v7q0 10 10 10zM439 547h66q15 0 15 -15v-506q0 -6 -2 -9t-4.5 -4t-8.5 -2q-81 -16 -208 -16q-74 0 -113 6q-41 8 -69 32q-29 24 -39.5 68.5t-10.5 128.5v302q0 15 17 15h64
q15 0 15 -15v-295q0 -61 5.5 -91t21.5 -45q17 -14 36 -18t63 -4h137v453q0 15 15 15z" />
    <glyph glyph-name="ydieresis" unicode="&#xfa;" horiz-adv-x="589" 
d="M327 759h89q10 0 10 -10v-7q0 -7 -5 -12l-142 -125q-7 -6 -14 0l-20 13q-8 6 -3 14l73 121q3 6 12 6zM439 547h66q15 0 15 -15v-506q0 -6 -2 -9t-4.5 -4t-8.5 -2q-81 -16 -208 -16q-74 0 -113 6q-41 8 -69 32q-29 24 -39.5 68.5t-10.5 128.5v302q0 15 17 15h64
q15 0 15 -15v-295q0 -61 5.5 -91t21.5 -45q17 -14 36 -18t63 -4h137v453q0 15 15 15z" />
    <glyph glyph-name="Ydieresis.001" unicode="&#xfb;" horiz-adv-x="589" 
d="M271 759h43q13 0 17 -7l88 -121q7 -7 -3 -14l-17 -12q-7 -5 -15 0l-91 73l-91 -73q-8 -6 -15 0l-18 12q-9 7 -3 14l89 121q4 7 16 7zM439 547h66q15 0 15 -15v-506q0 -6 -2 -9t-4.5 -4t-8.5 -2q-81 -16 -208 -16q-74 0 -113 6q-41 8 -69 32q-29 24 -39.5 68.5
t-10.5 128.5v302q0 15 17 15h64q15 0 15 -15v-295q0 -61 5.5 -91t21.5 -45q17 -14 36 -18t63 -4h137v453q0 15 15 15z" />
    <glyph glyph-name="fraction" unicode="&#xfc;" horiz-adv-x="589" 
d="M199 739q60 0 60 -59q0 -61 -60 -61q-62 0 -62 61q0 59 62 59zM446 680q0 -61 -61 -61t-61 61q0 59 61 59t61 -59zM439 547h66q15 0 15 -15v-506q0 -6 -2 -9t-4.5 -4t-8.5 -2q-81 -16 -208 -16q-74 0 -113 6q-41 8 -69 32q-29 24 -39.5 68.5t-10.5 128.5v302q0 15 17 15
h64q15 0 15 -15v-295q0 -61 5.5 -91t21.5 -45q17 -14 36 -18t63 -4h137v453q0 15 15 15z" />
    <glyph glyph-name="currency" unicode="&#xfd;" horiz-adv-x="590" 
d="M336 759h89q10 0 10 -10v-7q0 -7 -5 -12l-142 -125q-7 -6 -14 0l-20 13q-8 6 -3 14l73 121q3 6 12 6zM440 547h66q15 0 15 -15v-482q0 -80 -9.5 -124.5t-34.5 -74.5q-26 -30 -69 -42t-118 -12q-84 0 -151 9q-14 2 -14 16v43q0 15 15 15h148q83 0 110 24t27 93v6
q-53 -8 -132 -8q-140 0 -185 54q-44 56 -44 219v264q0 15 15 15h65q15 0 15 -15v-258q0 -120 24 -158q25 -37 116 -37q74 0 126 7v446q0 15 15 15z" />
    <glyph glyph-name="guilsinglleft.001" unicode="&#xfe;" horiz-adv-x="578" 
d="M84 756h65q15 0 15 -15v-196q50 7 133 7q75 0 117 -12.5t68 -45.5q25 -32 34.5 -82t9.5 -140q0 -167 -45 -223q-45 -54 -189 -54q-74 0 -128 6v-184q0 -15 -15 -15h-65q-15 0 -15 15v924q0 15 15 15zM292 468h-128v-381q69 -8 129 -8q89 0 113 37q24 38 24 157
q0 122 -24 158q-24 37 -114 37z" />
    <glyph glyph-name="guilsinglright.001" unicode="&#xff;" horiz-adv-x="590" 
d="M208 739q61 0 61 -59q0 -61 -61 -61q-62 0 -62 61q0 59 62 59zM395 739q61 0 61 -59q0 -61 -61 -61q-62 0 -62 61q0 59 62 59zM440 547h66q15 0 15 -15v-482q0 -80 -9.5 -124.5t-34.5 -74.5q-26 -30 -69 -42t-118 -12q-84 0 -151 9q-14 2 -14 16v43q0 15 15 15h148
q83 0 110 24t27 93v6q-53 -8 -132 -8q-140 0 -185 54q-44 56 -44 219v264q0 15 15 15h65q15 0 15 -15v-258q0 -120 24 -158q25 -37 116 -37q74 0 126 7v446q0 15 15 15z" />
    <glyph glyph-name="fi" unicode="&#x100;" horiz-adv-x="678" 
d="M208 906h257q15 0 15 -15v-41q0 -15 -15 -15h-257q-15 0 -15 15v41q0 15 15 15zM337 762q77 0 100 -20q24 -20 45 -97l171 -629q2 -10 -0.5 -13t-11.5 -3h-78q-6 0 -8.5 3t-4.5 13l-62 221h-301l-63 -221q-2 -10 -4.5 -13t-8.5 -3h-78q-9 0 -11.5 3t-0.5 13l177 629
q23 78 45 97q25 20 94 20zM337 674q-21 0 -27.5 -8.5t-15.5 -44.5l-82 -296h253l-78 296q-11 37 -18 44q-7 9 -32 9z" />
    <glyph glyph-name="fl.001" unicode="&#x101;" horiz-adv-x="534" 
d="M131 706h257q15 0 15 -15v-41q0 -15 -15 -15h-257q-15 0 -15 15v41q0 15 15 15zM243 552q117 0 171.5 -37.5t54.5 -119.5v-350q0 -21 -19 -28q-57 -22 -222 -22q-105 0 -149 32q-44 33 -44 129q0 84 42.5 119t134.5 35l161 1v67q0 48 -30.5 69t-99.5 21h-150q-9 0 -12 3
t-3 12v41q0 8 2.5 11t11.5 5q71 12 151 12zM373 89v144h-159q-44 0 -64 -17.5t-20 -57.5q0 -47 25 -64t90 -17q81 0 128 12z" />
    <glyph glyph-name="daggerdbl.001" unicode="&#x102;" horiz-adv-x="678" 
d="M441 950h33q17 0 14 -16q-10 -69 -43 -95q-31 -25 -108 -25t-108 25q-33 26 -43 95q-3 16 14 16h33q13 0 17 -12q13 -32 31.5 -44t55.5 -12t55.5 12t31.5 44q4 12 17 12zM337 762q77 0 100 -20q24 -20 45 -97l171 -629q2 -10 -0.5 -13t-11.5 -3h-78q-6 0 -8.5 3t-4.5 13
l-62 221h-301l-63 -221q-2 -10 -4.5 -13t-8.5 -3h-78q-9 0 -11.5 3t-0.5 13l177 629q23 78 45 97q25 20 94 20zM337 674q-21 0 -27.5 -8.5t-15.5 -44.5l-82 -296h253l-78 296q-11 37 -18 44q-7 9 -32 9z" />
    <glyph glyph-name="middot" unicode="&#x103;" horiz-adv-x="534" 
d="M364 750h33q17 0 14 -16q-10 -69 -43 -95q-31 -25 -108 -25t-108 25q-33 26 -43 95q-3 16 14 16h32q13 0 17 -12q14 -32 32.5 -44t55.5 -12t55 12t32 44q5 12 17 12zM243 552q117 0 171.5 -37.5t54.5 -119.5v-350q0 -21 -19 -28q-57 -22 -222 -22q-105 0 -149 32
q-44 33 -44 129q0 84 42.5 119t134.5 35l161 1v67q0 48 -30.5 69t-99.5 21h-150q-9 0 -12 3t-3 12v41q0 8 2.5 11t11.5 5q71 12 151 12zM373 89v144h-159q-44 0 -64 -17.5t-20 -57.5q0 -47 25 -64t90 -17q81 0 128 12z" />
    <glyph glyph-name="quotesinglbase.001" unicode="&#x104;" horiz-adv-x="678" 
d="M336 762q77 0 100 -20q24 -20 45 -97l171 -629q2 -10 -0.5 -13t-11.5 -3h-35q-9 -44 -9 -60q0 -20 9 -25.5t38 -5.5h36q15 0 15 -15v-34q0 -14 -12 -18q-21 -8 -60 -8q-49 0 -70.5 17t-21.5 59q0 50 20 101l-63 226h-301l-63 -221q-2 -10 -4.5 -13t-8.5 -3h-78
q-9 0 -11.5 3t-0.5 13l177 629q23 78 45 97q25 20 94 20zM336 674q-21 0 -27.5 -8.5t-15.5 -44.5l-82 -296h253l-78 296q-11 37 -18 44q-8 9 -32 9z" />
    <glyph glyph-name="quotedblbase.001" unicode="&#x105;" horiz-adv-x="534" 
d="M423 -91h36q14 0 14 -15v-34q0 -14 -12 -18q-21 -8 -60 -8q-49 0 -70 17t-21 59q0 35 13 88q-43 -3 -95 -3q-105 0 -149 32q-44 33 -44 129q0 84 42.5 119t134.5 35l161 1v67q0 48 -30.5 69t-99.5 21h-150q-9 0 -12 3t-3 12v41q0 8 2.5 11t11.5 5q71 12 151 12
q117 0 171.5 -37.5t54.5 -119.5v-350q0 -21 -19 -28q-22 -8 -65 -13q-9 -42 -9 -64q0 -20 9 -25.5t38 -5.5zM130 158q0 -47 25 -64t90 -17q81 0 128 12v144h-159q-44 0 -64 -17.5t-20 -57.5z" />
    <glyph glyph-name="perthousand" unicode="&#x106;" horiz-adv-x="599" 
d="M374 959h89q10 0 10 -10v-7q0 -7 -5 -12l-142 -125q-7 -6 -14 0l-20 13q-8 6 -3 14l73 121q3 6 12 6zM361 762q119 0 186 -10q16 -1 16 -17v-47q0 -15 -15 -15h-187q-127 0 -165 -59t-38 -236q0 -176 38 -235t165 -59h187q15 0 15 -15v-47q0 -15 -16 -18q-65 -9 -186 -9
q-96 0 -152 18t-91 63q-34 44 -47.5 113.5t-13.5 188.5t13.5 188.5t47.5 113.5q34 46 90.5 64t152.5 18z" />
    <glyph glyph-name="Acircumflex" unicode="&#x107;" horiz-adv-x="486" 
d="M301 759h89q10 0 10 -10v-7q0 -7 -5 -12l-142 -125q-7 -6 -14 0l-20 13q-8 6 -3 14l73 121q3 6 12 6zM285 552q86 0 152 -9q14 -2 14 -17v-43q0 -15 -15 -15h-151q-88 0 -112 -37t-24 -158q0 -119 24 -157q24 -37 112 -37h151q15 0 15 -15v-43q0 -15 -14 -17
q-66 -9 -152 -9q-78 0 -120.5 12t-68.5 44q-25 32 -34 81t-9 141t9 141t34 81q26 33 68.5 45t120.5 12z" />
    <glyph glyph-name="Ecircumflex" unicode="&#x108;" horiz-adv-x="599" 
d="M327 959h43q12 0 16 -7l89 -121q6 -7 -3 -14l-18 -12q-7 -6 -14 0l-92 73l-91 -73q-7 -6 -14 0l-18 12q-9 7 -3 14l88 121q7 7 17 7zM361 762q119 0 186 -10q16 -1 16 -17v-47q0 -15 -15 -15h-187q-127 0 -165 -59t-38 -236q0 -176 38 -235t165 -59h187q15 0 15 -15v-47
q0 -15 -16 -18q-65 -9 -186 -9q-96 0 -152 18t-91 63q-34 44 -47.5 113.5t-13.5 188.5t13.5 188.5t47.5 113.5q34 46 90.5 64t152.5 18z" />
    <glyph glyph-name="Aacute" unicode="&#x109;" horiz-adv-x="486" 
d="M247 759h42q13 0 17 -7l89 -121q6 -7 -4 -14l-17 -12q-8 -6 -15 0l-91 73l-91 -73q-7 -5 -15 0l-17 12q-10 7 -4 14l89 121q4 7 17 7zM285 552q86 0 152 -9q14 -2 14 -17v-43q0 -15 -15 -15h-151q-88 0 -112 -37t-24 -158q0 -119 24 -157q24 -37 112 -37h151q15 0 15 -15
v-43q0 -15 -14 -17q-66 -9 -152 -9q-78 0 -120.5 12t-68.5 44q-25 32 -34 81t-9 141t9 141t34 81q26 33 68.5 45t120.5 12z" />
    <glyph glyph-name="Edieresis" unicode="&#x10a;" horiz-adv-x="599" 
d="M346 940q61 0 61 -60q0 -61 -61 -61q-62 0 -62 61q0 60 62 60zM361 762q119 0 186 -10q16 -1 16 -17v-47q0 -15 -15 -15h-187q-127 0 -165 -59t-38 -236q0 -176 38 -235t165 -59h187q15 0 15 -15v-47q0 -15 -16 -18q-65 -9 -186 -9q-96 0 -152 18t-91 63
q-34 44 -47.5 113.5t-13.5 188.5t13.5 188.5t47.5 113.5q34 46 90.5 64t152.5 18z" />
    <glyph glyph-name="Egrave" unicode="&#x10b;" horiz-adv-x="486" 
d="M264 740q61 0 61 -60q0 -61 -61 -61q-62 0 -62 61q0 60 62 60zM285 552q86 0 152 -9q14 -2 14 -17v-43q0 -15 -15 -15h-151q-88 0 -112 -37t-24 -158q0 -119 24 -157q24 -37 112 -37h151q15 0 15 -15v-43q0 -15 -14 -17q-66 -9 -152 -9q-78 0 -120.5 12t-68.5 44
q-25 32 -34 81t-9 141t9 141t34 81q26 33 68.5 45t120.5 12z" />
    <glyph glyph-name="Iacute" unicode="&#x10c;" horiz-adv-x="599" 
d="M444 956l18 -12q9 -7 3 -14l-88 -121q-7 -7 -17 -7h-43q-10 0 -17 7l-88 121q-6 7 3 14l18 12q7 6 14 0l92 -73l91 73q7 6 14 0zM361 762q119 0 186 -10q16 -1 16 -17v-47q0 -15 -15 -15h-187q-127 0 -165 -59t-38 -236q0 -176 38 -235t165 -59h187q15 0 15 -15v-47
q0 -15 -16 -18q-65 -9 -186 -9q-96 0 -152 18t-91 63q-34 44 -47.5 113.5t-13.5 188.5t13.5 188.5t47.5 113.5q34 46 90.5 64t152.5 18z" />
    <glyph glyph-name="Icircumflex" unicode="&#x10d;" horiz-adv-x="486" 
d="M383 756l18 -12q10 -7 3 -14l-88 -121q-4 -7 -17 -7h-43q-12 0 -16 7l-89 121q-6 7 3 14l18 12q8 4 15 0l91 -73l91 73q7 6 14 0zM285 552q86 0 152 -9q14 -2 14 -17v-43q0 -15 -15 -15h-151q-88 0 -112 -37t-24 -158q0 -119 24 -157q24 -37 112 -37h151q15 0 15 -15v-43
q0 -15 -14 -17q-66 -9 -152 -9q-78 0 -120.5 12t-68.5 44q-25 32 -34 81t-9 141t9 141t34 81q26 33 68.5 45t120.5 12z" />
    <glyph glyph-name="Idieresis" unicode="&#x10e;" horiz-adv-x="737" 
d="M441 956l17 -12q10 -7 4 -14l-89 -121q-4 -7 -17 -7h-42q-13 0 -17 7l-89 121q-6 7 3 14l18 12q7 6 15 0l91 -73l91 73q8 4 15 0zM372 762q168 0 239 -90q72 -89 72 -293q0 -205 -72 -295q-71 -89 -239 -89q-183 0 -275 7q-9 1 -12 3.5t-3 10.5v724q0 9 3 11.5t12 3.5
q92 7 275 7zM358 673h-175v-589h189q114 0 161 68q48 69 48 227q0 156 -51 225t-172 69z" />
    <glyph glyph-name="Igrave" unicode="&#x10f;" horiz-adv-x="608" 
d="M429 756h66q15 0 15 -15v-713q0 -15 -16 -16q-110 -17 -208 -17q-113 0 -166 33q-39 29 -52.5 83t-14.5 161q0 168 44 224t184 56q84 0 133 -7v196q0 15 15 15zM613 756h81q10 0 10 -10v-7q0 -7 -5 -12l-99 -125q-5 -8 -14 0l-18 13q-6 5 -3 14l36 121q1 6 12 6zM414 87
v381h-127q-90 0 -114 -37q-24 -36 -24 -158q0 -119 23 -157q24 -37 114 -37q59 0 128 8z" />
    <glyph glyph-name="Oacute" unicode="&#x110;" horiz-adv-x="749" 
d="M384 762q168 0 239 -90q72 -89 72 -293q0 -205 -72 -295q-71 -89 -239 -89q-184 0 -275 7q-9 1 -12 3.5t-3 10.5v326h-73q-15 0 -15 15v41q0 15 15 15h73v327q0 9 3 11.5t12 3.5q91 7 275 7zM195 342v-258h189q113 0 161 69t48 226q0 156 -51 225t-173 69h-174v-260h158
q15 0 15 -15v-41q0 -15 -15 -15h-158z" />
    <glyph glyph-name="Ocircumflex" unicode="&#x111;" horiz-adv-x="579" 
d="M510 741v-60h62q15 0 15 -15v-28q0 -15 -15 -15h-62v-595q0 -15 -16 -16q-110 -17 -208 -17q-113 0 -166 33q-39 29 -52.5 83t-14.5 161q0 168 44 224t184 56q84 0 133 -7v78h-144q-15 0 -15 15v28q0 15 15 15h144v60q0 15 15 15h66q15 0 15 -15zM414 87v381h-127
q-90 0 -114 -37q-24 -36 -24 -158q0 -119 23 -157q24 -37 114 -37q59 0 128 8z" />
    <glyph glyph-name="apple" unicode="&#x112;" horiz-adv-x="629" 
d="M196 906h258q15 0 15 -15v-41q0 -15 -15 -15h-258q-15 0 -15 15v41q0 15 15 15zM97 757h468q15 0 15 -15v-59q0 -15 -15 -15h-382v-257h348q15 0 15 -15v-58q0 -15 -15 -15h-348v-234h382q15 0 15 -15v-59q0 -15 -15 -15h-468q-15 0 -15 15v727q0 15 15 15z" />
    <glyph glyph-name="Ograve" unicode="&#x113;" horiz-adv-x="544" 
d="M149 706h258q15 0 15 -15v-41q0 -15 -15 -15h-258q-15 0 -15 15v41q0 15 15 15zM280 552q133 0 177 -53q45 -54 46 -211v-29q0 -16 -7.5 -22t-28.5 -6h-318q2 -92 27 -122q26 -30 106 -30h164q15 0 15 -15v-44q0 -14 -14 -16q-66 -9 -167 -9q-140 0 -184 54
q-44 56 -44 224t44 224q43 55 184 55zM280 468q-79 0 -105 -32t-27 -127h259q-1 96 -26 128q-24 31 -101 31z" />
    <glyph glyph-name="Uacute" unicode="&#x114;" horiz-adv-x="629" 
d="M443 950h32q17 0 14 -16q-10 -69 -43 -95q-31 -25 -107 -25q-77 0 -108 25q-33 26 -43 95q-3 16 14 16h32q12 0 17 -12q14 -32 32.5 -44t55.5 -12t55 12t32 44q4 12 17 12zM97 757h468q15 0 15 -15v-59q0 -15 -15 -15h-382v-257h348q15 0 15 -15v-58q0 -15 -15 -15h-348
v-234h382q15 0 15 -15v-59q0 -15 -15 -15h-468q-15 0 -15 15v727q0 15 15 15z" />
    <glyph glyph-name="Ucircumflex" unicode="&#x115;" horiz-adv-x="544" 
d="M383 750h32q17 0 14 -16q-10 -69 -43 -95q-31 -25 -108 -25t-108 25t-42 95q-3 16 14 16h32q12 0 17 -12q14 -32 32 -44t55 -12t55.5 12t32.5 44q4 12 17 12zM280 552q133 0 177 -53q45 -54 46 -211v-29q0 -16 -7.5 -22t-28.5 -6h-318q2 -92 27 -122q26 -30 106 -30h164
q15 0 15 -15v-44q0 -14 -14 -16q-66 -9 -167 -9q-140 0 -184 54q-44 56 -44 224t44 224q43 55 184 55zM280 468q-79 0 -105 -32t-27 -127h259q-1 96 -26 128q-24 31 -101 31z" />
    <glyph glyph-name="Ugrave" unicode="&#x116;" horiz-adv-x="629" 
d="M387 880q0 -61 -62 -61t-62 61q0 60 62 60t62 -60zM97 757h468q15 0 15 -15v-59q0 -15 -15 -15h-382v-257h348q15 0 15 -15v-58q0 -15 -15 -15h-348v-234h382q15 0 15 -15v-59q0 -15 -15 -15h-468q-15 0 -15 15v727q0 15 15 15z" />
    <glyph glyph-name="dotlessi" unicode="&#x117;" horiz-adv-x="544" 
d="M340 680q0 -61 -62 -61t-62 61q0 60 62 60t62 -60zM280 552q133 0 177 -53q45 -54 46 -211v-29q0 -16 -7.5 -22t-28.5 -6h-318q2 -92 27 -122q26 -30 106 -30h164q15 0 15 -15v-44q0 -14 -14 -16q-66 -9 -167 -9q-140 0 -184 54q-44 56 -44 224t44 224q43 55 184 55z
M280 468q-79 0 -105 -32t-27 -127h259q-1 96 -26 128q-24 31 -101 31z" />
    <glyph glyph-name="circumflex" unicode="&#x118;" horiz-adv-x="629" 
d="M97 757h468q15 0 15 -15v-59q0 -15 -15 -15h-382v-257h348q15 0 15 -15v-58q0 -15 -15 -15h-348v-234h382q15 0 15 -15v-59q0 -15 -15 -15h-85q-9 -44 -9 -60q0 -20 8.5 -25.5t37.5 -5.5h36q15 0 15 -15v-34q0 -14 -12 -18q-21 -8 -60 -8q-49 0 -70.5 17t-21.5 59
q0 34 15 90h-322q-15 0 -15 15v727q0 15 15 15z" />
    <glyph glyph-name="tilde.001" unicode="&#x119;" horiz-adv-x="544" 
d="M280 552q133 0 177 -53q45 -54 46 -211v-29q0 -16 -7.5 -22t-28.5 -6h-318q2 -92 27 -122q26 -30 106 -30h164q15 0 15 -15v-44q0 -14 -14 -16q-53 -6 -56 -6q-8 -46 -8 -58q0 -20 9 -25.5t38 -5.5h36q14 0 14 -15v-34q0 -14 -12 -18q-21 -8 -60 -8q-49 0 -70 17t-21 59
q0 38 13 86l-50 -1q-140 0 -184 54q-44 56 -44 224t44 224q43 55 184 55zM280 468q-79 0 -105 -32t-27 -127h259q-1 96 -26 128q-24 31 -101 31z" />
    <glyph glyph-name="overscore" unicode="&#x11a;" horiz-adv-x="629" 
d="M431 956l18 -12q9 -7 3 -14l-89 -121q-4 -7 -16 -7h-43q-13 0 -17 7l-88 121q-6 7 3 14l18 12q7 6 14 0l91 -73l92 73q7 6 14 0zM97 757h468q15 0 15 -15v-59q0 -15 -15 -15h-382v-257h348q15 0 15 -15v-58q0 -15 -15 -15h-348v-234h382q15 0 15 -15v-59q0 -15 -15 -15
h-468q-15 0 -15 15v727q0 15 15 15z" />
    <glyph glyph-name="breve" unicode="&#x11b;" horiz-adv-x="544" 
d="M384 756l18 -12q9 -7 3 -14l-89 -121q-4 -7 -16 -7h-43q-13 0 -17 7l-88 121q-7 7 3 14l18 12q7 6 14 0l91 -73l91 73q7 4 15 0zM280 552q133 0 177 -53q45 -54 46 -211v-29q0 -16 -7.5 -22t-28.5 -6h-318q2 -92 27 -122q26 -30 106 -30h164q15 0 15 -15v-44
q0 -14 -14 -16q-66 -9 -167 -9q-140 0 -184 54q-44 56 -44 224t44 224q43 55 184 55zM280 468q-79 0 -105 -32t-27 -127h259q-1 96 -26 128q-24 31 -101 31z" />
    <glyph glyph-name="dotaccent" unicode="&#x11c;" horiz-adv-x="662" 
d="M319 959h43q13 0 17 -7l88 -121q6 -8 -3 -14l-18 -12q-7 -6 -14 0l-91 73l-91 -73q-8 -5 -15 0l-18 12q-9 7 -3 14l89 121q4 7 16 7zM361 762q125 0 192 -10q16 -1 16 -17v-47q0 -15 -15 -15h-193q-68 0 -106 -13.5t-61 -49.5q-21 -36 -28.5 -87.5t-7.5 -145.5
q0 -176 38 -235q37 -58 165 -58h152v274q0 16 15 16h66q15 0 15 -16v-298q0 -12 -3 -20q-14 -32 -100 -40l-70 -4q-19 -1 -75 -1q-141 0 -212 49q-52 40 -71.5 116t-20.5 217q0 120 13.5 189t47.5 114q34 46 90.5 64t152.5 18z" />
    <glyph glyph-name="ring.001" unicode="&#x11d;" horiz-adv-x="577" 
d="M269 759h43q13 0 17 -7l88 -121q6 -8 -3 -14l-18 -12q-7 -6 -14 0l-91 73l-91 -73q-8 -5 -15 0l-18 12q-9 7 -3 14l89 121q4 7 16 7zM286 552q124 0 207 -17q16 -1 16 -17v-468q0 -80 -9.5 -124.5t-34.5 -74.5q-26 -30 -69 -42t-118 -12q-78 0 -145 9q-13 1 -13 16v43
q0 15 14 15h142q83 0 110 24t27 93v6q-53 -8 -132 -8q-142 0 -185 55q-44 56 -44 225q0 90 9.5 139.5t35.5 81.5t68.5 44t120.5 12zM413 86v382h-128q-89 0 -113 -37q-24 -36 -24 -157q0 -120 24 -158q25 -37 115 -37q74 0 126 7z" />
    <glyph glyph-name="cedilla" unicode="&#x11e;" horiz-adv-x="662" 
d="M451 950h33q17 0 14 -16q-10 -69 -43 -95q-31 -25 -108 -25t-108 25q-33 26 -43 95q-3 16 14 16h32q12 0 17 -12q14 -32 32.5 -44t55.5 -12t55 12t32 44q4 12 17 12zM361 762q125 0 192 -10q16 -1 16 -17v-47q0 -15 -15 -15h-193q-68 0 -106 -13.5t-61 -49.5
q-21 -36 -28.5 -87.5t-7.5 -145.5q0 -176 38 -235q37 -58 165 -58h152v274q0 16 15 16h66q15 0 15 -16v-298q0 -12 -3 -20q-14 -32 -100 -40l-70 -4q-19 -1 -75 -1q-141 0 -212 49q-52 40 -71.5 116t-20.5 217q0 120 13.5 189t47.5 114q34 46 90.5 64t152.5 18z" />
    <glyph glyph-name="hungarumlaut" unicode="&#x11f;" horiz-adv-x="577" 
d="M395 750h32q17 0 14 -16q-11 -70 -42 -95t-108 -25t-108 25q-33 26 -43 95q-3 16 14 16h32q12 0 17 -12q14 -32 32.5 -44t55.5 -12t55 12t32 44q4 12 17 12zM286 552q124 0 207 -17q16 -1 16 -17v-468q0 -80 -9.5 -124.5t-34.5 -74.5q-26 -30 -69 -42t-118 -12
q-78 0 -145 9q-13 1 -13 16v43q0 15 14 15h142q83 0 110 24t27 93v6q-53 -8 -132 -8q-142 0 -185 55q-44 56 -44 225q0 90 9.5 139.5t35.5 81.5t68.5 44t120.5 12zM413 86v382h-128q-89 0 -113 -37q-24 -36 -24 -157q0 -120 24 -158q25 -37 115 -37q74 0 126 7z" />
    <glyph glyph-name="ogonek.001" unicode="&#x120;" horiz-adv-x="662" 
d="M348 940q61 0 61 -60q0 -61 -61 -61q-63 0 -63 61q0 60 63 60zM361 762q125 0 192 -10q16 -1 16 -17v-47q0 -15 -15 -15h-193q-68 0 -106 -13.5t-61 -49.5q-21 -36 -28.5 -87.5t-7.5 -145.5q0 -176 38 -235q37 -58 165 -58h152v274q0 16 15 16h66q15 0 15 -16v-298
q0 -12 -3 -20q-14 -32 -100 -40l-70 -4q-19 -1 -75 -1q-141 0 -212 49q-52 40 -71.5 116t-20.5 217q0 120 13.5 189t47.5 114q34 46 90.5 64t152.5 18z" />
    <glyph glyph-name="caron" unicode="&#x121;" horiz-adv-x="577" 
d="M291 740q61 0 61 -60q0 -61 -61 -61q-63 0 -63 61q0 60 63 60zM286 552q124 0 207 -17q16 -1 16 -17v-468q0 -80 -9.5 -124.5t-34.5 -74.5q-26 -30 -69 -42t-118 -12q-78 0 -145 9q-13 1 -13 16v43q0 15 14 15h142q83 0 110 24t27 93v6q-53 -8 -132 -8q-142 0 -185 55
q-44 56 -44 225q0 90 9.5 139.5t35.5 81.5t68.5 44t120.5 12zM413 86v382h-128q-89 0 -113 -37q-24 -36 -24 -157q0 -120 24 -158q25 -37 115 -37q74 0 126 7z" />
    <glyph glyph-name="Lslash" unicode="&#x122;" horiz-adv-x="662" 
d="M361 762q125 0 192 -10q16 -1 16 -17v-47q0 -15 -15 -15h-193q-68 0 -106 -13.5t-61 -49.5q-21 -36 -28.5 -87.5t-7.5 -145.5q0 -176 38 -235q37 -58 165 -58h152v274q0 16 15 16h66q15 0 15 -16v-298q0 -12 -3 -20q-14 -32 -100 -40l-70 -4q-19 -1 -75 -1
q-141 0 -212 49q-52 40 -71.5 116t-20.5 217q0 120 13.5 189t47.5 114q34 46 90.5 64t152.5 18zM326 -39h76q10 0 10 -10v-7q0 -7 -5 -12l-130 -123q-6 -5 -14 0l-18 13q-8 6 -3 14l72 119q3 6 12 6z" />
    <glyph glyph-name="lslash" unicode="&#x123;" horiz-adv-x="577" 
d="M390 757l18 -13q8 -6 3 -14l-72 -119q-3 -6 -12 -6h-76q-10 0 -10 10v7q0 7 5 12l130 123q7 6 14 0zM286 552q124 0 207 -17q16 -1 16 -17v-468q0 -80 -9.5 -124.5t-34.5 -74.5q-26 -30 -69 -42t-118 -12q-78 0 -145 9q-13 1 -13 16v43q0 15 14 15h142q83 0 110 24t27 93
v6q-53 -8 -132 -8q-142 0 -185 55q-44 56 -44 225q0 90 9.5 139.5t35.5 81.5t68.5 44t120.5 12zM413 86v382h-128q-89 0 -113 -37q-24 -36 -24 -157q0 -120 24 -158q25 -37 115 -37q74 0 126 7z" />
    <glyph glyph-name="Scaron.001" unicode="&#x124;" horiz-adv-x="773" 
d="M375 959h43q13 0 17 -7l88 -121q6 -7 -3 -14l-18 -12q-7 -6 -14 0l-91 73l-92 -73q-7 -6 -14 0l-18 12q-9 7 -3 14l89 121q4 7 16 7zM605 757h71q15 0 15 -16v-726q0 -15 -15 -15h-71q-15 0 -15 15v325h-407v-325q0 -15 -15 -15h-71q-15 0 -15 15v726q0 16 15 16h71
q15 0 15 -16v-312h407v312q0 16 15 16z" />
    <glyph glyph-name="scaron.001" unicode="&#x125;" horiz-adv-x="589" 
d="M91 942h43q11 0 17 -8l88 -120q6 -8 -3 -15l-18 -11q-8 -6 -14 0l-91 73l-92 -73q-6 -6 -14 0l-18 11q-9 7 -3 15l88 120q6 8 17 8zM84 756h66q15 0 15 -15v-194q55 5 127 5q77 0 113 -7q40 -6 69 -31q29 -23 39.5 -67.5t10.5 -128.5v-303q0 -15 -15 -15h-66
q-15 0 -15 15v295q0 62 -5.5 92t-22.5 44q-17 15 -35.5 19t-62.5 4h-137v-454q0 -15 -15 -15h-66q-15 0 -15 15v726q0 15 15 15z" />
    <glyph glyph-name="Zcaron" unicode="&#x126;" horiz-adv-x="780" 
d="M695 741v-82h41q15 0 15 -15v-37q0 -15 -15 -15h-41v-577q0 -15 -15 -15h-72q-15 0 -15 15v325h-406v-325q0 -15 -15 -15h-72q-15 0 -15 15v577h-42q-15 0 -15 15v37q0 15 15 15h42v82q0 16 15 16h72q15 0 15 -16v-82h406v82q0 16 15 16h72q15 0 15 -16zM187 429h406v163
h-406v-163z" />
    <glyph glyph-name="zcaron" unicode="&#x127;" horiz-adv-x="589" 
d="M292 552q77 0 113 -7q40 -6 69 -31q29 -23 39.5 -67.5t10.5 -128.5v-303q0 -15 -15 -15h-66q-15 0 -15 15v295q0 62 -5.5 92t-22.5 44q-17 15 -35.5 19t-62.5 4h-137v-454q0 -15 -15 -15h-66q-15 0 -15 15v608h-62q-15 0 -15 15v28q0 15 15 15h62v60q0 15 15 15h66
q15 0 15 -15v-60h144q15 0 15 -15v-28q0 -15 -15 -15h-144v-76q55 5 127 5z" />
    <glyph glyph-name="brokenbar" unicode="&#x128;" horiz-adv-x="265" 
d="M61 940q23 0 72 -20t64 -20q18 0 27 7t18 27q8 15 19 11l23 -6q16 -5 11 -23q-18 -57 -37 -76.5t-56 -19.5q-23 0 -72 20t-64 20q-18 0 -27 -7t-18 -27q-8 -14 -19 -10l-23 6q-16 5 -11 22q18 57 36 77q19 19 57 19zM98 757h71q15 0 15 -16v-726q0 -15 -15 -15h-71
q-15 0 -15 15v726q0 16 15 16z" />
    <glyph glyph-name="Eth" unicode="&#x129;" horiz-adv-x="234" 
d="M47 740q23 0 72 -20t64 -20q18 0 27.5 7t17.5 27q8 15 19 11l23 -6q16 -5 11 -23q-18 -57 -36.5 -76.5t-56.5 -19.5q-23 0 -72 20t-64 20q-18 0 -27 -7t-18 -27q-8 -14 -19 -10l-23 6q-16 5 -11 22q18 58 37 77q18 19 56 19zM85 547h66q15 0 15 -15v-517q0 -15 -15 -15
h-66q-15 0 -15 15v517q0 15 15 15z" />
    <glyph glyph-name="eth" unicode="&#x12a;" horiz-adv-x="265" 
d="M1 906h258q15 0 15 -15v-41q0 -15 -15 -15h-258q-15 0 -15 15v41q0 15 15 15zM97 757h71q15 0 15 -16v-726q0 -15 -15 -15h-71q-15 0 -15 15v726q0 16 15 16z" />
    <glyph glyph-name="Yacute" unicode="&#x12b;" horiz-adv-x="234" 
d="M-12 706h258q15 0 15 -15v-41q0 -15 -15 -15h-258q-15 0 -15 15v41q0 15 15 15zM84 547h66q15 0 15 -15v-517q0 -15 -15 -15h-66q-15 0 -15 15v517q0 15 15 15z" />
    <glyph glyph-name="yacute" unicode="&#x12e;" horiz-adv-x="265" 
d="M97 757h71q15 0 15 -16v-726q0 -15 -15 -15h-27q-9 -44 -9 -60q0 -20 9 -25.5t38 -5.5h36q15 0 15 -15v-34q0 -14 -12 -18q-21 -8 -60 -8q-50 0 -71 17t-21 59q0 38 16 93v738q0 16 15 16z" />
    <glyph glyph-name="Thorn" unicode="&#x12f;" horiz-adv-x="234" 
d="M119 740q61 0 61 -60q0 -61 -61 -61q-63 0 -63 61q0 60 63 60zM84 547h66q15 0 15 -15v-517q0 -15 -15 -15h-20q-9 -38 -9 -60q0 -20 8.5 -25.5t37.5 -5.5h36q15 0 15 -15v-34q0 -14 -12 -18q-21 -8 -60 -8q-49 0 -70.5 17t-21.5 59q0 36 15 92v530q0 15 15 15z" />
    <glyph glyph-name="thorn" unicode="&#x130;" horiz-adv-x="265" 
d="M131 940q61 0 61 -60q0 -61 -61 -61q-63 0 -63 61q0 60 63 60zM97 757h71q15 0 15 -16v-726q0 -15 -15 -15h-71q-15 0 -15 15v726q0 16 15 16z" />
    <glyph glyph-name="minus.001" unicode="&#x131;" horiz-adv-x="234" 
d="M84 547h66q15 0 15 -15v-517q0 -15 -15 -15h-66q-15 0 -15 15v517q0 15 15 15z" />
    <glyph glyph-name="multiply" unicode="&#x132;" horiz-adv-x="837" 
d="M97 757h71q15 0 15 -16v-726q0 -15 -15 -15h-71q-15 0 -15 15v726q0 16 15 16zM411 757h336q15 0 15 -15v-365q0 -118 -14 -187t-50 -114q-35 -45 -93.5 -63t-157.5 -18q-85 0 -150 9q-15 3 -15 18v47q0 15 15 15h150q132 0 173 59q42 59 40 234v291h-249q-15 0 -15 15
v59q0 15 15 15z" />
    <glyph glyph-name="onesuperior" unicode="&#x133;" horiz-adv-x="471" 
d="M176 707q0 -59 -59 -59t-59 59q0 58 59 58t59 -58zM84 547h66q15 0 15 -15v-517q0 -15 -15 -15h-66q-15 0 -15 15v517q0 15 15 15zM354 765q59 0 59 -58q0 -59 -59 -59q-60 0 -60 59q0 58 60 58zM321 547h66q15 0 15 -15v-650q0 -23 -7 -39.5t-16.5 -25t-26 -13t-29 -5.5
t-31.5 -1q-39 0 -55 4q-14 3 -14 16v50q0 14 16 14h23q30 0 37 7t7 36v607q0 15 15 15z" />
    <glyph glyph-name="twosuperior" unicode="&#x134;" horiz-adv-x="565" 
d="M278 959h42q13 0 17 -7l89 -121q6 -7 -3 -14l-18 -12q-7 -6 -15 0l-91 73l-91 -73q-8 -5 -15 0l-17 12q-10 7 -4 14l89 121q4 7 17 7zM139 757h336q15 0 15 -15v-365q0 -118 -14 -187t-50 -114q-35 -45 -93.5 -63t-157.5 -18q-85 0 -150 9q-15 3 -15 18v47q0 15 15 15
h150q132 0 173 59q42 59 40 234v291h-249q-15 0 -15 15v59q0 15 15 15z" />
    <glyph glyph-name="threesuperior" unicode="&#x135;" horiz-adv-x="237" 
d="M96 759h43q12 0 16 -7l89 -121q6 -7 -3 -14l-18 -12q-7 -6 -15 0l-91 73l-91 -73q-8 -5 -15 0l-17 12q-10 7 -3 14l88 121q4 7 17 7zM86 547h66q15 0 15 -15v-650q0 -23 -7 -39.5t-16.5 -25t-26 -13t-29 -5.5t-31.5 -1q-39 0 -54 4q-15 3 -15 16v50q0 14 16 14h23
q31 0 37.5 7t6.5 36v607q0 15 15 15z" />
    <glyph glyph-name="onehalf" unicode="&#x136;" horiz-adv-x="621" 
d="M498 757h81q25 0 9 -19l-297 -332l319 -379q9 -9 5 -18t-22 -9h-78q-16 0 -22 11l-309 372v-368q0 -15 -15 -15h-72q-15 0 -15 15v727q0 15 15 15h72q15 0 15 -15v-314l293 319q7 10 21 10zM298 -39h77q10 0 10 -10v-7q0 -7 -5 -12l-130 -123q-6 -5 -14 0l-18 13
q-8 6 -3 14l71 119q3 6 12 6z" />
    <glyph glyph-name="onequarter" unicode="&#x137;" horiz-adv-x="505" 
d="M84 756h65q15 0 15 -16v-387l164 184q7 10 21 10h84q25 0 9 -19l-178 -196l236 -305q9 -9 5 -18t-22 -9h-71q-13 0 -22 11l-226 298v-293q0 -16 -15 -16h-65q-15 0 -15 16v724q0 16 15 16zM237 -39h77q10 0 10 -10v-7q0 -7 -5 -12l-130 -123q-6 -5 -14 0l-19 13
q-8 6 -3 14l72 119q3 6 12 6z" />
    <glyph glyph-name="threequarters" unicode="&#x138;" horiz-adv-x="528" 
d="M402 547h82q23 0 6 -20l-211 -246l235 -264q8 -7 5.5 -13.5t-15.5 -6.5h-90q-14 0 -21 10l-222 244v-236q0 -15 -15 -15h-72q-15 0 -15 15v517q0 15 15 15h72q15 0 15 -15v-236l209 240q9 11 22 11z" />
    <glyph glyph-name="franc" unicode="&#x139;" horiz-adv-x="576" 
d="M177 959h89q10 0 10 -10v-7q0 -7 -5 -12l-142 -125q-7 -6 -14 0l-20 13q-8 6 -3 14l73 121q3 6 12 6zM97 757h71q15 0 15 -15v-653h363q15 0 15 -15v-59q0 -15 -15 -15h-449q-15 0 -15 15v727q0 15 15 15z" />
    <glyph glyph-name="Gbreve" unicode="&#x13a;" horiz-adv-x="234" 
d="M157 954h89q10 0 10 -10v-7q0 -7 -5 -12l-142 -125q-7 -6 -14 0l-20 13q-8 6 -3 14l73 121q3 6 12 6zM84 757h66q15 0 15 -15v-727q0 -15 -15 -15h-66q-15 0 -15 15v727q0 15 15 15z" />
    <glyph glyph-name="gbreve" unicode="&#x13b;" horiz-adv-x="576" 
d="M97 757h71q15 0 15 -15v-653h363q15 0 15 -15v-59q0 -15 -15 -15h-449q-15 0 -15 15v727q0 15 15 15zM309 -39h77q10 0 10 -10v-7q0 -7 -5 -12l-130 -123q-6 -5 -14 0l-19 13q-8 6 -3 14l72 119q3 6 12 6z" />
    <glyph glyph-name="Idot" unicode="&#x13c;" horiz-adv-x="233" 
d="M84 757h65q15 0 15 -15v-727q0 -15 -15 -15h-65q-15 0 -15 15v727q0 15 15 15zM76 -39h77q10 0 10 -10v-7q0 -7 -5 -12l-130 -123q-6 -5 -14 0l-19 13q-8 6 -3 14l72 119q3 6 12 6z" />
    <glyph glyph-name="Scedilla.001" unicode="&#x13d;" horiz-adv-x="576" 
d="M97 757h71q15 0 15 -15v-653h363q15 0 15 -15v-59q0 -15 -15 -15h-449q-15 0 -15 15v727q0 15 15 15zM321 756h81q10 0 10 -10v-7q0 -7 -5 -12l-99 -125q-5 -8 -14 0l-17 13q-7 4 -4 14l36 121q1 6 12 6z" />
    <glyph glyph-name="scedilla.001" unicode="&#x13e;" horiz-adv-x="263" 
d="M84 757h65q15 0 15 -15v-727q0 -15 -15 -15h-65q-15 0 -15 15v727q0 15 15 15zM255 756h80q10 0 10 -10v-7q0 -7 -5 -12l-98 -125q-5 -8 -14 0l-18 13q-6 5 -3 14l35 121q2 6 13 6z" />
    <glyph glyph-name="Cacute" unicode="&#x13f;" horiz-adv-x="576" 
d="M97 757h71q15 0 15 -15v-653h363q15 0 15 -15v-59q0 -15 -15 -15h-449q-15 0 -15 15v727q0 15 15 15zM372 396q61 0 61 -60q0 -61 -61 -61q-62 0 -62 61q0 60 62 60z" />
    <glyph glyph-name="cacute" unicode="&#x140;" horiz-adv-x="317" 
d="M84 757h65q15 0 15 -15v-727q0 -15 -15 -15h-65q-15 0 -15 15v727q0 15 15 15zM276 396q61 0 61 -60q0 -61 -61 -61q-63 0 -63 61q0 60 63 60z" />
    <glyph glyph-name="Ccaron" unicode="&#x141;" horiz-adv-x="593" 
d="M200 341v-252h363q15 0 15 -15v-59q0 -15 -15 -15h-449q-15 0 -15 15v268l-64 -37q-14 -10 -19 6l-16 29q-8 13 5 20l94 54v387q0 15 15 15h71q15 0 15 -15v-329l108 62q15 8 21 -5l16 -29q8 -12 -6 -20z" />
    <glyph glyph-name="ccaron" unicode="&#x142;" horiz-adv-x="287" 
d="M107 757h65q15 0 15 -15v-317l49 28q15 8 21 -5l17 -29q8 -12 -6 -20l-81 -46v-338q0 -15 -15 -15h-65q-15 0 -15 15v282l-45 -25q-14 -10 -19 6l-16 29q-8 13 5 20l75 43v372q0 15 15 15z" />
    <glyph glyph-name="dslash" unicode="&#x143;" horiz-adv-x="771" 
d="M398 959h89q10 0 10 -10v-7q0 -7 -5 -12l-142 -125q-7 -6 -14 0l-20 13q-8 6 -3 14l73 121q3 6 12 6zM603 757h71q15 0 15 -16v-726q0 -15 -15 -15h-61q-23 0 -35 18l-395 595v-598q0 -15 -15 -15h-71q-15 0 -15 15v726q0 16 15 16h68q26 -1 35.5 -6t21.5 -23l366 -551
v564q0 16 15 16z" />
    <glyph glyph-name="nacute" unicode="&#x144;" horiz-adv-x="588" 
d="M308 759h88q10 0 10 -10v-7q0 -7 -5 -12l-142 -125q-6 -5 -14 0l-19 13q-8 6 -3 14l73 121q3 6 12 6zM291 552q77 0 113 -7q40 -6 69 -31q29 -23 39.5 -67.5t10.5 -128.5v-303q0 -15 -17 -15h-64q-15 0 -15 15v295q0 80 -16 121q-7 18 -25 25q-26 12 -85 12h-137v-453
q0 -15 -15 -15h-66q-15 0 -15 15v505q0 6 2 9.5t4.5 4.5t8.5 2q80 16 208 16z" />
    <glyph glyph-name="uni0145" unicode="&#x145;" horiz-adv-x="771" 
d="M603 757h71q15 0 15 -16v-726q0 -15 -15 -15h-61q-23 0 -35 18l-395 595v-598q0 -15 -15 -15h-71q-15 0 -15 15v726q0 16 15 16h68q26 -1 35.5 -6t21.5 -23l366 -551v564q0 16 15 16zM345 -39h77q10 0 10 -10v-7q0 -7 -5 -12l-130 -123q-6 -5 -14 0l-18 13q-8 6 -3 14
l71 119q3 6 12 6z" />
    <glyph glyph-name="uni0146" unicode="&#x146;" horiz-adv-x="588" 
d="M291 552q77 0 113 -7q40 -6 69 -31q29 -23 39.5 -67.5t10.5 -128.5v-303q0 -15 -17 -15h-64q-15 0 -15 15v295q0 80 -16 121q-7 18 -25 25q-26 12 -85 12h-137v-453q0 -15 -15 -15h-66q-15 0 -15 15v505q0 6 2 9.5t4.5 4.5t8.5 2q80 16 208 16zM254 -39h77q10 0 10 -10
v-7q0 -7 -5 -12l-131 -123q-5 -5 -14 0l-18 13q-8 6 -3 14l72 119q3 6 12 6z" />
    <glyph glyph-name="Ncaron" unicode="&#x147;" horiz-adv-x="771" 
d="M491 956l18 -12q9 -6 3 -14l-88 -121q-4 -7 -17 -7h-43q-12 0 -16 7l-89 121q-6 7 3 14l18 12q8 4 15 0l91 -73l91 73q7 6 14 0zM603 757h71q15 0 15 -16v-726q0 -15 -15 -15h-61q-23 0 -35 18l-395 595v-598q0 -15 -15 -15h-71q-15 0 -15 15v726q0 16 15 16h68
q26 -1 35.5 -6t21.5 -23l366 -551v564q0 16 15 16z" />
    <glyph glyph-name="ncaron" unicode="&#x148;" horiz-adv-x="588" 
d="M401 756l18 -12q9 -7 3 -14l-89 -121q-4 -7 -16 -7h-43q-13 0 -17 7l-88 121q-6 8 3 14l18 12q7 6 14 0l91 -73l91 73q8 4 15 0zM291 552q77 0 113 -7q40 -6 69 -31q29 -23 39.5 -67.5t10.5 -128.5v-303q0 -15 -17 -15h-64q-15 0 -15 15v295q0 80 -16 121q-7 18 -25 25
q-26 12 -85 12h-137v-453q0 -15 -15 -15h-66q-15 0 -15 15v505q0 6 2 9.5t4.5 4.5t8.5 2q80 16 208 16z" />
    <glyph glyph-name="napostrophe" unicode="&#x149;" horiz-adv-x="588" 
d="M40 756h80q10 0 10 -10v-7q0 -7 -5 -12l-98 -125q-5 -8 -14 0l-18 13q-6 5 -3 14l35 121q1 6 13 6zM291 552q77 0 113 -7q40 -6 69 -31q29 -23 39.5 -67.5t10.5 -128.5v-303q0 -15 -17 -15h-64q-15 0 -15 15v295q0 80 -16 121q-7 18 -25 25q-26 12 -85 12h-137v-453
q0 -15 -15 -15h-66q-15 0 -15 15v505q0 6 2 9.5t4.5 4.5t8.5 2q80 16 208 16z" />
    <glyph glyph-name="Eng" unicode="&#x14a;" horiz-adv-x="771" 
d="M603 757h71q15 0 15 -16v-561q0 -81 -3 -132q-5 -122 -39 -170q-57 -84 -226 -80q-48 0 -99 8q-15 3 -15 18v48q0 15 15 15h94q98 0 135 30q38 29 35 106l-403 590v-598q0 -15 -15 -15h-71q-15 0 -15 15v726q0 16 15 16h68q26 -1 35.5 -6t21.5 -23l366 -551v564
q0 16 15 16z" />
    <glyph glyph-name="eng" unicode="&#x14b;" horiz-adv-x="588" 
d="M291 552q77 0 113 -7q40 -6 69 -31q29 -23 39.5 -67.5t10.5 -128.5v-436q0 -23 -7 -39.5t-16.5 -25t-26 -13t-29 -5.5t-31.5 -1q-39 0 -54 4q-15 3 -15 16v50q0 14 17 14h22q31 0 37.5 7t6.5 36v385q0 80 -16 121q-7 18 -25 25q-26 12 -85 12h-137v-453q0 -15 -15 -15
h-66q-15 0 -15 15v505q0 6 2 9.5t4.5 4.5t8.5 2q80 16 208 16z" />
    <glyph glyph-name="Omacron" unicode="&#x14c;" horiz-adv-x="724" 
d="M233 906h258q15 0 15 -15v-41q0 -15 -15 -15h-258q-15 0 -15 15v41q0 15 15 15zM667 377q0 -119 -13.5 -188t-48.5 -113q-35 -45 -91 -63t-152 -18t-152.5 18t-91.5 63q-34 45 -47.5 114t-13.5 187q0 225 62 305t243 80t243 -80t62 -305zM159 377q0 -176 38 -235
q37 -58 165 -58t165 58q38 59 38 235q0 96 -7.5 147t-29.5 86q-21 36 -59.5 49.5t-106.5 13.5t-106 -13.5t-61 -49.5q-21 -36 -28.5 -87.5t-7.5 -145.5z" />
    <glyph glyph-name="omacron" unicode="&#x14d;" horiz-adv-x="569" 
d="M155 706h258q15 0 15 -15v-41q0 -15 -15 -15h-258q-15 0 -15 15v41q0 15 15 15zM167 540q44 12 118 12q75 0 118 -12q88 -22 105 -129q9 -49 9 -138q0 -88 -9 -139q-17 -103 -105 -128q-46 -11 -118 -11q-73 0 -119 11q-86 24 -105 128q-9 51 -9 139q0 89 9 138
q19 107 106 129zM285 468q-89 0 -113 -37t-24 -158q0 -119 24 -157q24 -37 113 -37q88 0 112 37q24 38 24 157q0 121 -24 158t-112 37z" />
    <glyph glyph-name="Obreve" unicode="&#x14e;" horiz-adv-x="724" 
d="M467 950h32q17 0 14 -16q-10 -69 -43 -95q-31 -25 -108 -25t-108 25t-42 95q-3 16 14 16h32q12 0 17 -12q13 -32 31.5 -44t55.5 -12t55.5 12t32.5 44q4 12 17 12zM667 377q0 -119 -13.5 -188t-48.5 -113q-35 -45 -91 -63t-152 -18t-152.5 18t-91.5 63q-34 45 -47.5 114
t-13.5 187q0 225 62 305t243 80t243 -80t62 -305zM159 377q0 -176 38 -235q37 -58 165 -58t165 58q38 59 38 235q0 96 -7.5 147t-29.5 86q-21 36 -59.5 49.5t-106.5 13.5t-106 -13.5t-61 -49.5q-21 -36 -28.5 -87.5t-7.5 -145.5z" />
    <glyph glyph-name="obreve" unicode="&#x14f;" horiz-adv-x="569" 
d="M389 750h32q17 0 14 -16q-10 -69 -43 -95q-31 -25 -107 -25q-77 0 -108 25q-33 26 -43 95q-3 16 14 16h32q12 0 17 -12q14 -32 32.5 -44t55.5 -12t55 12t32 44q4 12 17 12zM167 540q44 12 118 12q75 0 118 -12q88 -22 105 -129q9 -49 9 -138q0 -88 -9 -139
q-17 -103 -105 -128q-46 -11 -118 -11q-73 0 -119 11q-86 24 -105 128q-9 51 -9 139q0 89 9 138q19 107 106 129zM285 468q-89 0 -113 -37t-24 -158q0 -119 24 -157q24 -37 113 -37q88 0 112 37q24 38 24 157q0 121 -24 158t-112 37z" />
    <glyph glyph-name="Ohungarumlaut" unicode="&#x150;" horiz-adv-x="724" 
d="M327 959h80q10 0 10 -10v-7q0 -7 -5 -12l-137 -124q-7 -6 -14 0l-16 12q-8 6 -3 14l73 121q3 6 12 6zM504 959h81q10 0 10 -10v-7q0 -4 -5 -12l-138 -124q-7 -6 -14 0l-16 12q-8 6 -3 14l73 121q3 6 12 6zM667 377q0 -119 -13.5 -188t-48.5 -113q-35 -45 -91 -63
t-152 -18t-152.5 18t-91.5 63q-34 45 -47.5 114t-13.5 187q0 225 62 305t243 80t243 -80t62 -305zM159 377q0 -176 38 -235q37 -58 165 -58t165 58q38 59 38 235q0 96 -7.5 147t-29.5 86q-21 36 -59.5 49.5t-106.5 13.5t-106 -13.5t-61 -49.5q-21 -36 -28.5 -87.5
t-7.5 -145.5z" />
    <glyph glyph-name="ohungarumlaut" unicode="&#x151;" horiz-adv-x="569" 
d="M246 759h80q10 0 10 -10v-7q0 -7 -5 -12l-137 -124q-7 -6 -14 0l-16 12q-8 6 -3 14l73 121q3 6 12 6zM423 759h80q10 0 10 -10v-7q0 -7 -5 -12l-137 -124q-7 -6 -14 0l-16 12q-8 6 -3 14l73 121q3 6 12 6zM167 540q44 12 118 12q75 0 118 -12q88 -22 105 -129
q9 -49 9 -138q0 -88 -9 -139q-17 -103 -105 -128q-46 -11 -118 -11q-73 0 -119 11q-86 24 -105 128q-9 51 -9 139q0 89 9 138q19 107 106 129zM285 468q-89 0 -113 -37t-24 -158q0 -119 24 -157q24 -37 113 -37q88 0 112 37q24 38 24 157q0 121 -24 158t-112 37z" />
    <glyph glyph-name="OE.001" unicode="&#x152;" horiz-adv-x="1046" 
d="M362 762l348 -5h272q15 0 15 -15v-59q0 -15 -15 -15h-380v-257h346q15 0 15 -15v-58q0 -15 -15 -15h-346v-234h380q15 0 15 -15v-59q0 -15 -15 -15h-272l-348 -5q-95 -1 -152.5 17t-91.5 63q-34 44 -47.5 113.5t-13.5 188.5q0 118 13.5 188t47.5 116t91 64t153 17z
M500 84v589h-138q-68 0 -106 -13.5t-61 -49.5q-21 -36 -28.5 -87.5t-7.5 -145.5q0 -176 38 -235q37 -58 165 -58h138z" />
    <glyph glyph-name="oe" unicode="&#x153;" horiz-adv-x="914" 
d="M650 552q133 0 177 -53q45 -54 46 -211v-29q0 -16 -7 -22t-30 -6h-318q3 -93 28 -122q26 -30 106 -30h164q15 0 15 -15v-44q0 -14 -14 -16q-66 -9 -167 -9q-134 0 -181 54q-45 -54 -184 -54q-78 0 -120.5 12t-68.5 44q-25 32 -34.5 81.5t-9.5 140.5t9.5 140.5t34.5 81.5
q26 33 68.5 45t120.5 12q139 0 184 -54q47 54 181 54zM148 273q0 -119 24 -157q24 -37 113 -37t113 37q24 38 24 157q0 121 -24 158t-113 37t-113 -37t-24 -158zM650 468q-79 0 -105 -32t-27 -127h259q-1 96 -26 128q-24 31 -101 31z" />
    <glyph glyph-name="Racute" unicode="&#x154;" horiz-adv-x="661" 
d="M345 959h89q10 0 10 -10v-7q0 -7 -5 -12l-142 -125q-7 -6 -14 0l-20 13q-8 6 -3 14l73 121q3 6 12 6zM310 762q94 0 145.5 -9.5t87.5 -35.5q37 -26 52 -72.5t15 -126.5q0 -119 -37 -168q-36 -49 -127 -61l169 -269q6 -8 2.5 -14t-14.5 -6h-64q-25 0 -40 22l-165 261h-151
v-268q0 -9 -3 -12t-12 -3h-71q-9 0 -12 3t-3 12v725q0 9 3 11.5t12 3.5q92 7 213 7zM301 673h-118v-304h118q49 0 64 1q66 2 87 12q32 14 44.5 43.5t11.5 90.5q0 101 -40 129q-38 28 -167 28z" />
    <glyph glyph-name="racute" unicode="&#x155;" horiz-adv-x="366" 
d="M236 759h89q10 0 10 -10v-7q0 -7 -5 -12l-142 -125q-7 -6 -14 0l-20 13q-8 6 -3 14l73 121q3 6 12 6zM225 552q79 0 112 -11q15 -5 15 -17v-42q0 -15 -16 -14h-87q-52 0 -69.5 -11t-17.5 -45v-397q0 -15 -15 -15h-65q-15 0 -15 15v420q0 61 38 90q17 12 40 18q32 9 80 9z
" />
    <glyph glyph-name="uni0156" unicode="&#x156;" horiz-adv-x="661" 
d="M310 762q94 0 145.5 -9.5t87.5 -35.5q37 -26 52 -72.5t15 -126.5q0 -119 -37 -168q-36 -49 -127 -61l169 -269q6 -8 2.5 -14t-14.5 -6h-64q-25 0 -40 22l-165 261h-151v-268q0 -9 -3 -12t-12 -3h-71q-9 0 -12 3t-3 12v725q0 9 3 11.5t12 3.5q92 7 213 7zM301 673h-118
v-304h118q49 0 64 1q66 2 87 12q32 14 44.5 43.5t11.5 90.5q0 101 -40 129q-38 28 -167 28zM304 -39h77q10 0 10 -10v-7q0 -4 -5 -12l-131 -123q-6 -5 -14 0l-18 13q-8 6 -3 14l72 119q3 6 12 6z" />
    <glyph glyph-name="uni0157" unicode="&#x157;" horiz-adv-x="366" 
d="M225 552q79 0 112 -11q15 -5 15 -17v-42q0 -15 -16 -14h-87q-52 0 -69.5 -11t-17.5 -45v-397q0 -15 -15 -15h-65q-15 0 -15 15v420q0 61 38 90q17 12 40 18q32 9 80 9zM74 -39h77q10 0 10 -10v-7q0 -7 -5 -12l-130 -123q-6 -5 -14 0l-19 13q-8 6 -3 14l72 119q3 6 12 6z
" />
    <glyph glyph-name="Rcaron" unicode="&#x158;" horiz-adv-x="661" 
d="M437 956l18 -12q9 -6 3 -14l-88 -121q-4 -7 -17 -7h-43q-12 0 -16 7l-89 121q-6 7 3 14l18 12q8 4 15 0l91 -73l91 73q7 6 14 0zM310 762q94 0 145.5 -9.5t87.5 -35.5q37 -26 52 -72.5t15 -126.5q0 -119 -37 -168q-36 -49 -127 -61l169 -269q6 -8 2.5 -14t-14.5 -6h-64
q-25 0 -40 22l-165 261h-151v-268q0 -9 -3 -12t-12 -3h-71q-9 0 -12 3t-3 12v725q0 9 3 11.5t12 3.5q92 7 213 7zM301 673h-118v-304h118q49 0 64 1q66 2 87 12q32 14 44.5 43.5t11.5 90.5q0 101 -40 129q-38 28 -167 28z" />
    <glyph glyph-name="rcaron" unicode="&#x159;" horiz-adv-x="366" 
d="M284 756l18 -12q9 -7 3 -14l-89 -121q-4 -7 -17 -7h-42q-13 0 -17 7l-88 121q-7 7 3 14l17 12q8 4 15 0l91 -73l91 73q7 6 15 0zM224 552q79 0 112 -11q15 -5 15 -17v-42q0 -15 -16 -14h-87q-52 0 -69.5 -11t-17.5 -45v-397q0 -15 -15 -15h-65q-15 0 -15 15v420
q0 61 38 90q17 12 40 18q32 9 80 9z" />
    <glyph glyph-name="Sacute" unicode="&#x15a;" horiz-adv-x="604" 
d="M348 959h88q10 0 10 -10v-7q0 -7 -5 -12l-141 -125q-7 -6 -14 0l-20 13q-8 6 -3 14l73 121q3 6 12 6zM317 762q73 0 194 -15q14 -2 14 -13v-46q0 -15 -13 -15h-225q-131 0 -131 -89v-17q0 -40 16 -62t59 -40l218 -90q63 -26 89 -67t26 -107v-32q0 -85 -52 -127
q-23 -20 -58 -30q-63 -17 -154 -17q-121 0 -244 14q-12 3 -12 16v45q0 14 14 14h274q68 0 99 20.5t31 67.5v19q0 42 -16.5 66t-59.5 42l-237 96q-52 20 -73 61.5t-21 108.5v24q0 85 50 126q20 17 58 29q58 18 154 18z" />
    <glyph glyph-name="sacute" unicode="&#x15b;" horiz-adv-x="483" 
d="M259 759h89q10 0 10 -10v-7q0 -7 -5 -12l-142 -125q-7 -6 -14 0l-20 13q-8 6 -3 14l73 121q3 6 12 6zM254 552q78 0 153 -9q14 -2 14 -16v-43q0 -15 -15 -15h-186q-73 0 -73 -52v-13q0 -47 62 -70l133 -53q59 -23 79.5 -55t20.5 -86v-11q0 -80 -47 -107t-155 -27
q-106 0 -183 9q-15 2 -15 15v44q0 15 15 15h185q62 0 83.5 10t21.5 42v12q0 23 -12.5 38t-45.5 29l-142 54q-96 37 -96 143v21q0 79 62 104q54 21 141 21z" />
    <glyph glyph-name="Scircumflex" unicode="&#x15c;" horiz-adv-x="604" 
d="M282 959h43q13 0 17 -7l88 -121q7 -7 -3 -14l-18 -12q-7 -6 -14 0l-91 73l-91 -73q-7 -5 -15 0l-18 12q-9 7 -3 14l89 121q4 7 16 7zM317 762q73 0 194 -15q14 -2 14 -13v-46q0 -15 -13 -15h-225q-131 0 -131 -89v-17q0 -40 16 -62t59 -40l218 -90q63 -26 89 -67t26 -107
v-32q0 -85 -52 -127q-23 -20 -58 -30q-63 -17 -154 -17q-121 0 -244 14q-12 3 -12 16v45q0 14 14 14h274q68 0 99 20.5t31 67.5v19q0 42 -16.5 66t-59.5 42l-237 96q-52 20 -73 61.5t-21 108.5v24q0 85 50 126q20 17 58 29q58 18 154 18z" />
    <glyph glyph-name="scircumflex" unicode="&#x15d;" horiz-adv-x="483" 
d="M222 759h43q13 0 17 -7l88 -121q6 -7 -3 -14l-18 -12q-7 -6 -14 0l-91 73l-92 -73q-7 -6 -14 0l-18 12q-9 7 -3 14l89 121q4 7 16 7zM254 552q78 0 153 -9q14 -2 14 -16v-43q0 -15 -15 -15h-186q-73 0 -73 -52v-13q0 -47 62 -70l133 -53q59 -23 79.5 -55t20.5 -86v-11
q0 -80 -47 -107t-155 -27q-106 0 -183 9q-15 2 -15 15v44q0 15 15 15h185q62 0 83.5 10t21.5 42v12q0 23 -12.5 38t-45.5 29l-142 54q-96 37 -96 143v21q0 79 62 104q54 21 141 21z" />
    <glyph glyph-name="Scedilla" unicode="&#x15e;" horiz-adv-x="604" 
d="M317 762q59 0 194 -15q14 -2 14 -13v-46q0 -15 -13 -15h-225q-131 0 -131 -89v-17q0 -40 16 -62t59 -40l218 -90q63 -26 89 -67t26 -107v-32q0 -84 -47.5 -123t-144.5 -48q14 -54 14 -88q0 -42 -21.5 -59t-70.5 -17q-39 0 -60 8q-12 4 -12 18v34q0 15 15 15h35
q29 0 38 5.5t9 25.5t-8 55h-11q-120 0 -243 14q-13 3 -13 16v45q0 14 14 14h274q68 0 99 20.5t31 67.5v19q0 42 -16.5 66t-59.5 42l-237 96q-52 20 -73 61.5t-21 108.5v24q0 85 50 126q20 17 58 29q58 18 154 18z" />
    <glyph glyph-name="scedilla" unicode="&#x15f;" horiz-adv-x="483" 
d="M209 334l133 -53q59 -23 79.5 -55t20.5 -86v-11q0 -64 -31 -94t-100 -37q14 -47 14 -88q0 -42 -21 -59t-70 -17q-39 0 -60 8q-12 4 -12 18v34q0 15 14 15h36q29 0 38 5.5t9 25.5q0 12 -8 55h-11q-106 0 -183 9q-15 2 -15 15v44q0 15 15 15h185q62 0 83.5 10t21.5 42v12
q0 23 -12.5 38t-45.5 29l-142 54q-96 37 -96 143v21q0 79 62 104q54 21 141 21q78 0 153 -9q14 -2 14 -16v-43q0 -15 -15 -15h-186q-73 0 -73 -52v-13q0 -47 62 -70z" />
    <glyph glyph-name="Scaron" unicode="&#x160;" horiz-adv-x="604" 
d="M409 956l18 -12q10 -7 3 -14l-88 -121q-4 -7 -17 -7h-43q-12 0 -16 7l-89 121q-6 7 3 14l18 12q8 4 15 0l91 -73l91 73q7 6 14 0zM317 762q73 0 194 -15q14 -2 14 -13v-46q0 -15 -13 -15h-225q-131 0 -131 -89v-17q0 -40 16 -62t59 -40l218 -90q63 -26 89 -67t26 -107
v-32q0 -85 -52 -127q-23 -20 -58 -30q-63 -17 -154 -17q-121 0 -244 14q-12 3 -12 16v45q0 14 14 14h274q68 0 99 20.5t31 67.5v19q0 42 -16.5 66t-59.5 42l-237 96q-52 20 -73 61.5t-21 108.5v24q0 85 50 126q20 17 58 29q58 18 154 18z" />
    <glyph glyph-name="scaron" unicode="&#x161;" horiz-adv-x="483" 
d="M349 756l18 -12q9 -7 3 -14l-88 -121q-4 -7 -17 -7h-43q-12 0 -16 7l-89 121q-6 7 3 14l18 12q7 6 14 0l92 -73l91 73q7 6 14 0zM254 552q78 0 153 -9q14 -2 14 -16v-43q0 -15 -15 -15h-186q-73 0 -73 -52v-13q0 -47 62 -70l133 -53q59 -23 79.5 -55t20.5 -86v-11
q0 -80 -47 -107t-155 -27q-106 0 -183 9q-15 2 -15 15v44q0 15 15 15h185q62 0 83.5 10t21.5 42v12q0 23 -12.5 38t-45.5 29l-142 54q-96 37 -96 143v21q0 79 62 104q54 21 141 21z" />
    <glyph glyph-name="uni0162" unicode="&#x162;" horiz-adv-x="613" 
d="M29 757h555q15 0 15 -15v-59q0 -15 -15 -15h-227v-653q14 -79 14 -105q0 -42 -21 -59t-70 -17q-39 0 -60 8q-12 4 -12 18v34q0 15 14 15h36q29 0 38 5.5t9 25.5q0 16 -9 60h-25q-15 0 -15 15v653h-227q-15 0 -15 15v59q0 15 15 15z" />
    <glyph glyph-name="uni0163" unicode="&#x163;" horiz-adv-x="342" 
d="M257 79h48q16 0 16 -14v-48q0 -13 -15 -16q-24 -6 -56 -6h-4q14 -51 14 -85q0 -42 -21.5 -59t-70.5 -17q-39 0 -60 8q-12 4 -12 18v34q0 15 15 15h36q29 0 37.5 5.5t8.5 25.5q0 12 -8 58q-44 7 -66.5 32.5t-22.5 78.5v360h-56q-15 0 -15 15v47q0 15 15 15h56v120
q0 13 13 16l66 16q17 5 17 -13v-139h105q16 0 16 -15v-47q0 -15 -16 -15h-105v-336q0 -33 12.5 -43.5t52.5 -10.5z" />
    <glyph glyph-name="Tcaron" unicode="&#x164;" horiz-adv-x="613" 
d="M412 956l18 -12q9 -7 3 -14l-89 -121q-4 -7 -16 -7h-43q-13 0 -17 7l-88 121q-6 8 3 14l18 12q7 6 14 0l91 -73l91 73q7 4 15 0zM29 757h555q15 0 15 -15v-59q0 -15 -15 -15h-227v-653q0 -15 -15 -15h-71q-15 0 -15 15v653h-227q-15 0 -15 15v59q0 15 15 15z" />
    <glyph glyph-name="tcaron" unicode="&#x165;" horiz-adv-x="361" 
d="M314 756h81q10 0 10 -10v-7q0 -7 -5 -12l-98 -123q-6 -7 -14 -1l-18 12q-6 5 -3 14l35 119q2 8 12 8zM109 682l66 16q17 5 17 -13v-139h105q16 0 16 -15v-47q0 -15 -16 -15h-105v-336q0 -33 12.5 -43.5t52.5 -10.5h48q16 0 16 -14v-48q0 -13 -15 -16q-24 -6 -56 -6
q-52 0 -85 8q-34 8 -50 32t-19 74v360h-56q-15 0 -15 15v47q0 15 15 15h56v120q0 13 13 16z" />
    <glyph glyph-name="Tbar" unicode="&#x166;" horiz-adv-x="635" 
d="M40 757h555q15 0 15 -15v-59q0 -15 -15 -15h-227v-238h161q15 0 15 -15v-40q0 -15 -15 -15h-161v-345q0 -15 -15 -15h-71q-15 0 -15 15v345h-161q-15 0 -15 15v40q0 15 15 15h161v238h-227q-15 0 -15 15v59q0 15 15 15z" />
    <glyph glyph-name="tbar" unicode="&#x167;" horiz-adv-x="343" 
d="M258 79h48q16 0 16 -14v-48q0 -13 -15 -16q-24 -6 -56 -6q-52 0 -85 8q-34 8 -50 32t-19 74v156h-34q-15 0 -15 15v40q0 15 15 15h34v134h-56q-15 0 -15 15v47q0 15 15 15h56v120q0 13 13 16l66 16q17 5 17 -13v-139h105q16 0 16 -15v-47q0 -15 -16 -15h-105v-134h81
q15 0 15 -15v-40q0 -15 -15 -15h-81v-132q0 -33 12.5 -43.5t52.5 -10.5z" />
    <glyph glyph-name="Utilde" unicode="&#x168;" horiz-adv-x="747" 
d="M303 940q23 0 71 -20q49 -20 64 -20q18 0 27.5 7t18.5 27q8 15 19 11l23 -6q16 -5 11 -23q-18 -57 -37 -76.5t-56 -19.5q-23 0 -72 20t-64 20q-18 0 -27.5 -7t-18.5 -27q-6 -14 -18 -10l-24 6q-14 6 -10 22q17 58 36 77t57 19zM585 757h71q15 0 15 -15v-365
q0 -122 -13 -191.5t-47 -113.5t-88.5 -60.5t-149.5 -16.5q-138 0 -207 46q-36 24 -55 70q-35 89 -35 266v365q0 15 15 15h71q15 0 15 -15v-365q0 -119 17 -182q17 -61 58 -86t121 -25q118 0 157 58q40 58 40 235v365q0 15 15 15z" />
    <glyph glyph-name="utilde" unicode="&#x169;" horiz-adv-x="589" 
d="M221 740q23 0 72 -20t64 -20q18 0 27 7t18 27q8 15 19 11l23 -6q16 -5 11 -23q-18 -57 -37 -76.5t-56 -19.5q-23 0 -72 20t-64 20q-18 0 -27.5 -7t-17.5 -27q-8 -14 -19 -10l-24 6q-14 6 -10 22q17 58 36 77t57 19zM439 547h66q15 0 15 -15v-506q0 -6 -2 -9t-4.5 -4
t-8.5 -2q-81 -16 -208 -16q-74 0 -113 6q-41 8 -69 32q-29 24 -39.5 68.5t-10.5 128.5v302q0 15 17 15h64q15 0 15 -15v-295q0 -61 5.5 -91t21.5 -45q17 -14 36 -18t63 -4h137v453q0 15 15 15z" />
    <glyph glyph-name="Umacron" unicode="&#x16a;" horiz-adv-x="747" 
d="M244 906h258q15 0 15 -15v-41q0 -15 -15 -15h-258q-15 0 -15 15v41q0 15 15 15zM585 757h71q15 0 15 -15v-365q0 -122 -13 -191.5t-47 -113.5t-88.5 -60.5t-149.5 -16.5q-138 0 -207 46q-36 24 -55 70q-35 89 -35 266v365q0 15 15 15h71q15 0 15 -15v-365q0 -119 17 -182
q17 -61 58 -86t121 -25q118 0 157 58q40 58 40 235v365q0 15 15 15z" />
    <glyph glyph-name="umacron" unicode="&#x16b;" horiz-adv-x="589" 
d="M162 706h258q15 0 15 -15v-41q0 -15 -15 -15h-258q-15 0 -15 15v41q0 15 15 15zM439 547h66q15 0 15 -15v-506q0 -6 -2 -9t-4.5 -4t-8.5 -2q-81 -16 -208 -16q-74 0 -113 6q-41 8 -69 32q-29 24 -39.5 68.5t-10.5 128.5v302q0 15 17 15h64q15 0 15 -15v-295
q0 -61 5.5 -91t21.5 -45q17 -14 36 -18t63 -4h137v453q0 15 15 15z" />
    <glyph glyph-name="Ubreve" unicode="&#x16c;" horiz-adv-x="747" 
d="M478 950h32q17 0 14 -16q-10 -69 -43 -95q-31 -25 -108 -25t-108 25t-42 95q-3 16 14 16h32q13 0 17 -12q14 -32 32 -44t55 -12t55.5 12t32.5 44q5 12 17 12zM585 757h71q15 0 15 -15v-365q0 -122 -13 -191.5t-47 -113.5t-88.5 -60.5t-149.5 -16.5q-138 0 -207 46
q-36 24 -55 70q-35 89 -35 266v365q0 15 15 15h71q15 0 15 -15v-365q0 -119 17 -182q17 -61 58 -86t121 -25q118 0 157 58q40 58 40 235v365q0 15 15 15z" />
    <glyph glyph-name="ubreve" unicode="&#x16d;" horiz-adv-x="589" 
d="M396 750h32q17 0 14 -16q-10 -69 -43 -95q-31 -25 -108 -25t-108 25t-42 95q-3 16 14 16h32q13 0 17 -12q14 -32 32 -44t55 -12t55.5 12t32.5 44q5 12 17 12zM439 547h66q15 0 15 -15v-506q0 -6 -2 -9t-4.5 -4t-8.5 -2q-81 -16 -208 -16q-74 0 -113 6q-41 8 -69 32
q-29 24 -39.5 68.5t-10.5 128.5v302q0 15 17 15h64q15 0 15 -15v-295q0 -61 5.5 -91t21.5 -45q17 -14 36 -18t63 -4h137v453q0 15 15 15z" />
    <glyph glyph-name="Uring" unicode="&#x16e;" horiz-adv-x="747" 
d="M373 1009q107 0 107 -102t-107 -102q-106 0 -106 102t106 102zM435 907q0 62 -62 62t-62 -62t62 -62t62 62zM585 757h71q15 0 15 -15v-365q0 -122 -13 -191.5t-47 -113.5t-88.5 -60.5t-149.5 -16.5q-138 0 -207 46q-36 24 -55 70q-35 89 -35 266v365q0 15 15 15h71
q15 0 15 -15v-365q0 -119 17 -182q17 -61 58 -86t121 -25q118 0 157 58q40 58 40 235v365q0 15 15 15z" />
    <glyph glyph-name="uring" unicode="&#x16f;" horiz-adv-x="589" 
d="M291 809q107 0 107 -102t-107 -102q-106 0 -106 102t106 102zM353 707q0 62 -62 62t-62 -62t62 -62t62 62zM439 547h66q15 0 15 -15v-506q0 -6 -2 -9t-4.5 -4t-8.5 -2q-81 -16 -208 -16q-74 0 -113 6q-41 8 -69 32q-29 24 -39.5 68.5t-10.5 128.5v302q0 15 17 15h64
q15 0 15 -15v-295q0 -61 5.5 -91t21.5 -45q17 -14 36 -18t63 -4h137v453q0 15 15 15z" />
    <glyph glyph-name="Uhungarumlaut" unicode="&#x170;" horiz-adv-x="747" 
d="M309 959h81q10 0 10 -10v-7q0 -7 -5 -12l-137 -124q-7 -6 -14 0l-17 12q-8 6 -3 14l73 121q3 6 12 6zM486 959h81q10 0 10 -10v-7q0 -7 -5 -12l-137 -124q-7 -6 -14 0l-17 12q-8 6 -3 14l73 121q3 6 12 6zM585 757h71q15 0 15 -15v-365q0 -122 -13 -191.5t-47 -113.5
t-88.5 -60.5t-149.5 -16.5q-138 0 -207 46q-36 24 -55 70q-35 89 -35 266v365q0 15 15 15h71q15 0 15 -15v-365q0 -119 17 -182q17 -61 58 -86t121 -25q118 0 157 58q40 58 40 235v365q0 15 15 15z" />
    <glyph glyph-name="uhungarumlaut" unicode="&#x171;" horiz-adv-x="589" 
d="M240 759h80q10 0 10 -10v-7q0 -7 -5 -12l-137 -124q-7 -6 -14 0l-16 12q-8 6 -3 14l73 121q3 6 12 6zM417 759h81q10 0 10 -10v-7q0 -4 -5 -12l-138 -124q-7 -6 -14 0l-16 12q-8 6 -3 14l73 121q3 6 12 6zM439 547h66q15 0 15 -15v-506q0 -6 -2 -9t-4.5 -4t-8.5 -2
q-81 -16 -208 -16q-74 0 -113 6q-41 8 -69 32q-29 24 -39.5 68.5t-10.5 128.5v302q0 15 17 15h64q15 0 15 -15v-295q0 -61 5.5 -91t21.5 -45q17 -14 36 -18t63 -4h137v453q0 15 15 15z" />
    <glyph glyph-name="Uogonek" unicode="&#x172;" horiz-adv-x="747" 
d="M585 757h71q15 0 15 -15v-365q0 -116 -11.5 -184t-41.5 -112q-29 -44 -77 -63t-130 -22q-9 -39 -9 -56q0 -20 9 -25.5t38 -5.5h36q15 0 15 -15v-34q0 -14 -12 -18q-21 -8 -60 -8q-49 0 -70.5 17t-21.5 59t13 85q-87 2 -137 20t-81 62t-43 113t-12 187v365q0 15 15 15h71
q15 0 15 -15v-365q0 -119 17 -182q17 -61 58 -86t121 -25q118 0 157 58q40 58 40 235v365q0 15 15 15z" />
    <glyph glyph-name="uogonek" unicode="&#x173;" horiz-adv-x="589" 
d="M439 547h66q15 0 15 -15v-506q0 -6 -2 -9t-4.5 -4t-8.5 -2l-64 -10q-10 -31 -10 -61q0 -20 9 -25.5t38 -5.5h36q15 0 15 -15v-34q0 -14 -12 -18q-21 -8 -60 -8q-49 0 -70.5 17t-21.5 59q0 39 13 87q-42 -2 -81 -2q-74 0 -113 6q-41 8 -69 32q-29 24 -39.5 68.5
t-10.5 128.5v302q0 15 17 15h64q15 0 15 -15v-295q0 -61 5.5 -91t21.5 -45q17 -14 36 -18t63 -4h137v453q0 15 15 15z" />
    <glyph glyph-name="Wcircumflex" unicode="&#x174;" horiz-adv-x="1090" 
d="M522 959h43q13 0 17 -7l88 -121q6 -8 -3 -14l-18 -12q-7 -6 -14 0l-91 73l-91 -73q-7 -5 -15 0l-18 12q-9 7 -3 14l89 121q4 7 16 7zM964 757h79q16 0 13 -16l-136 -629q-17 -78 -39 -97q-23 -20 -91 -20q-76 0 -98 19q-21 19 -40 98l-108 453l-108 -453q-13 -56 -26 -78
q-12 -22 -36 -30.5t-77 -8.5q-69 0 -92 20q-21 18 -38 97l-135 629q-3 16 12 16h79q9 0 13 -16l127 -600q7 -33 14 -43t23 -10q20 0 27.5 9t15.5 44l143 569q4 16 18 16h80q13 0 17 -16l143 -569q9 -36 16 -44.5t27 -8.5q16 0 23 10t14 43l127 600q4 16 13 16z" />
    <glyph glyph-name="wcircumflex" unicode="&#x175;" horiz-adv-x="836" 
d="M397 759h42q13 0 17 -7l89 -121q6 -7 -4 -14l-17 -12q-8 -6 -15 0l-91 73l-91 -73q-7 -6 -15 0l-17 12q-10 7 -4 14l89 121q4 7 17 7zM720 547h72q8 0 10.5 -3t1.5 -13l-88 -423q-17 -75 -36 -94t-81 -19q-64 0 -81 17q-17 19 -35 96l-65 280l-65 -280q-18 -77 -35 -96
q-17 -17 -81 -17q-61 0 -81 19q-19 19 -36 94l-88 423q-1 10 1.5 13t10.5 3h73q8 0 12 -16l82 -411q6 -25 11 -31.5t16 -6.5q13 0 17 6t10 32l97 395q4 16 14 16h84q10 0 14 -16l97 -395q6 -26 10 -32t17 -6q11 0 16 6.5t11 31.5l82 411q2 10 4.5 13t8.5 3z" />
    <glyph glyph-name="Ycircumflex" unicode="&#x176;" horiz-adv-x="660" 
d="M309 959h42q13 0 17 -7l89 -121q6 -7 -3 -14l-18 -12q-8 -6 -15 0l-91 73l-91 -73q-7 -5 -15 0l-17 12q-10 7 -3 14l88 121q4 7 17 7zM564 757h77q23 0 11 -22l-271 -505v-215q0 -15 -15 -15h-72q-15 0 -15 15v215l-271 505q-12 22 11 22h78q17 0 27 -16l206 -401
l207 401q7 16 27 16z" />
    <glyph glyph-name="ycircumflex" unicode="&#x177;" horiz-adv-x="590" 
d="M280 759h42q13 0 17 -7l89 -121q6 -7 -3 -14l-18 -12q-7 -6 -15 0l-91 73l-91 -73q-8 -5 -15 0l-17 12q-10 7 -4 14l89 121q4 7 17 7zM440 547h66q15 0 15 -15v-482q0 -80 -9.5 -124.5t-34.5 -74.5q-26 -30 -69 -42t-118 -12q-84 0 -151 9q-14 2 -14 16v43q0 15 15 15
h148q83 0 110 24t27 93v6q-53 -8 -132 -8q-140 0 -185 54q-44 56 -44 219v264q0 15 15 15h65q15 0 15 -15v-258q0 -120 24 -158q25 -37 116 -37q74 0 126 7v446q0 15 15 15z" />
    <glyph glyph-name="Ydieresis" unicode="&#x178;" horiz-adv-x="660" 
d="M237 939q61 0 61 -59q0 -61 -61 -61q-62 0 -62 61q0 59 62 59zM424 939q61 0 61 -59q0 -61 -61 -61q-62 0 -62 61q0 59 62 59zM564 757h77q23 0 11 -22l-271 -505v-215q0 -15 -15 -15h-72q-15 0 -15 15v215l-271 505q-12 22 11 22h78q17 0 27 -16l206 -401l207 401
q7 16 27 16z" />
    <glyph glyph-name="Zacute" unicode="&#x179;" horiz-adv-x="654" 
d="M339 959h89q10 0 10 -10v-7q0 -7 -5 -12l-142 -125q-7 -6 -14 0l-20 13q-8 6 -3 14l73 121q3 6 12 6zM58 757h540q15 0 15 -15v-50q0 -9 -7 -19l-442 -584h442q16 0 16 -15v-59q0 -15 -16 -15h-559q-15 0 -15 15l-1 49q0 11 7 19l443 585h-422q-16 0 -16 14l-1 60
q0 15 16 15z" />
    <glyph glyph-name="zacute" unicode="&#x17a;" horiz-adv-x="513" 
d="M268 759h88q10 0 10 -10v-7q0 -7 -5 -12l-142 -125q-7 -6 -14 0l-19 13q-8 6 -3 14l73 121q3 6 12 6zM60 547h395q16 0 16 -15v-24q0 -9 -6 -18l-295 -406h295q16 0 16 -15v-54q0 -15 -16 -15h-418q-16 0 -16 15v28q0 11 7 18l292 402h-270q-16 0 -16 15v54q0 15 16 15z
" />
    <glyph glyph-name="Zdotaccent" unicode="&#x17b;" horiz-adv-x="654" 
d="M327 940q61 0 61 -60q0 -61 -61 -61q-63 0 -63 61q0 60 63 60zM58 757h540q15 0 15 -15v-50q0 -9 -7 -19l-442 -584h442q16 0 16 -15v-59q0 -15 -16 -15h-559q-15 0 -15 15l-1 49q0 11 7 19l443 585h-422q-16 0 -16 14l-1 60q0 15 16 15z" />
    <glyph glyph-name="zdotaccent" unicode="&#x17c;" horiz-adv-x="513" 
d="M317 680q0 -61 -62 -61t-62 61q0 60 62 60t62 -60zM60 547h395q16 0 16 -15v-24q0 -9 -6 -18l-295 -406h295q16 0 16 -15v-54q0 -15 -16 -15h-418q-16 0 -16 15v28q0 11 7 18l292 402h-270q-16 0 -16 15v54q0 15 16 15z" />
    <glyph glyph-name="Zcaron.001" unicode="&#x17d;" horiz-adv-x="654" 
d="M432 956l18 -12q9 -6 3 -14l-88 -121q-4 -7 -17 -7h-43q-12 0 -16 7l-89 121q-6 7 3 14l18 12q7 4 15 0l91 -73l91 73q7 6 14 0zM58 757h540q15 0 15 -15v-50q0 -9 -7 -19l-442 -584h442q16 0 16 -15v-59q0 -15 -16 -15h-559q-15 0 -15 15l-1 49q0 11 7 19l443 585h-422
q-16 0 -16 14l-1 60q0 15 16 15z" />
    <glyph glyph-name="zcaron.001" unicode="&#x17e;" horiz-adv-x="513" 
d="M361 756l18 -12q9 -7 3 -14l-89 -121q-4 -7 -16 -7h-43q-13 0 -17 7l-88 121q-7 7 3 14l18 12q7 6 14 0l91 -73l91 73q8 4 15 0zM60 547h395q16 0 16 -15v-24q0 -9 -6 -18l-295 -406h295q16 0 16 -15v-54q0 -15 -16 -15h-418q-16 0 -16 15v28q0 11 7 18l292 402h-270
q-16 0 -16 15v54q0 15 16 15z" />
    <glyph glyph-name="florin" unicode="&#x192;" horiz-adv-x="556" 
d="M444 762q45 0 86 -10q17 -3 16 -18l-7 -43q-1 -13 -15 -13h-54q-50 0 -70 -11t-25 -45l-20 -145h118q15 0 15 -15v-47q0 -15 -15 -15h-129l-40 -290q-10 -61 -48 -90q-16 -11 -39 -17q-31 -8 -74 -8q-39 0 -86 9q-18 3 -16 18l6 44q1 13 15 13h55q49 0 69 11t25 45
l38 265h-69q-15 0 -15 17v47q0 13 15 13h80l23 170q11 80 67 100q42 15 94 15z" />
    <glyph glyph-name="uni01CD" unicode="&#x1cd;" horiz-adv-x="678" 
d="M443 956l17 -12q10 -7 4 -14l-89 -121q-4 -7 -17 -7h-42q-13 0 -17 7l-89 121q-6 7 4 14l17 12q7 6 15 0l91 -73l91 73q8 6 15 0zM337 762q77 0 100 -20q24 -20 45 -97l171 -629q2 -10 -0.5 -13t-11.5 -3h-78q-6 0 -8.5 3t-4.5 13l-62 221h-301l-63 -221q-2 -10 -4.5 -13
t-8.5 -3h-78q-9 0 -11.5 3t-0.5 13l177 629q23 78 45 97q25 20 94 20zM336 674q-21 0 -27 -8q-5 -7 -16 -45l-82 -296h253l-78 296q-11 37 -18 44q-8 9 -32 9z" />
    <glyph glyph-name="uni01CE" unicode="&#x1ce;" horiz-adv-x="534" 
d="M365 756l18 -12q10 -7 3 -14l-88 -121q-4 -7 -17 -7h-43q-12 0 -16 7l-89 121q-6 7 3 14l18 12q8 4 15 0l91 -73l91 73q7 6 14 0zM243 552q117 0 171.5 -37.5t54.5 -119.5v-350q0 -21 -19 -28q-57 -22 -222 -22q-105 0 -149 32q-44 33 -44 129q0 84 42.5 119t134.5 35
l161 1v67q0 48 -30.5 69t-99.5 21h-150q-9 0 -12 3t-3 12v41q0 8 2.5 11t11.5 5q71 12 151 12zM373 89v144h-159q-44 0 -64 -17.5t-20 -57.5q0 -47 25 -64t90 -17q81 0 128 12z" />
    <glyph glyph-name="uni01CF" unicode="&#x1cf;" horiz-adv-x="265" 
d="M236 956l18 -12q9 -7 3 -14l-88 -121q-7 -7 -17 -7h-43q-10 0 -17 7l-88 121q-6 7 3 14l18 12q7 6 14 0l92 -73l91 73q7 6 14 0zM97 757h71q15 0 15 -16v-726q0 -15 -15 -15h-71q-15 0 -15 15v726q0 16 15 16z" />
    <glyph glyph-name="uni01D0" unicode="&#x1d0;" horiz-adv-x="234" 
d="M222 756l18 -12q9 -7 3 -14l-88 -121q-4 -7 -17 -7h-43q-12 0 -16 7l-89 121q-6 7 3 14l18 12q7 6 14 0l92 -73l91 73q7 6 14 0zM84 547h66q15 0 15 -15v-517q0 -15 -15 -15h-66q-15 0 -15 15v517q0 15 15 15z" />
    <glyph glyph-name="uni01D1" unicode="&#x1d1;" horiz-adv-x="724" 
d="M468 956l18 -12q9 -7 3 -14l-89 -121q-4 -7 -16 -7h-43q-13 0 -17 7l-88 121q-7 7 3 14l17 12q8 4 15 0l91 -73l91 73q7 6 15 0zM667 377q0 -119 -13.5 -188t-48.5 -113q-35 -45 -91 -63t-152 -18t-152.5 18t-91.5 63q-34 45 -47.5 114t-13.5 187q0 225 62 305t243 80
t243 -80t62 -305zM159 377q0 -176 38 -235q37 -58 165 -58t165 58q38 59 38 235q0 96 -7.5 147t-29.5 86q-21 36 -59.5 49.5t-106.5 13.5t-106 -13.5t-61 -49.5q-21 -36 -28.5 -87.5t-7.5 -145.5z" />
    <glyph glyph-name="uni01D2" unicode="&#x1d2;" horiz-adv-x="569" 
d="M390 756l18 -12q9 -7 3 -14l-88 -121q-4 -7 -17 -7h-43q-12 0 -16 7l-89 121q-6 7 3 14l18 12q7 6 14 0l92 -73l91 73q7 6 14 0zM167 540q44 12 118 12q75 0 118 -12q88 -22 105 -129q9 -49 9 -138q0 -88 -9 -139q-17 -103 -105 -128q-46 -11 -118 -11q-73 0 -119 11
q-86 24 -105 128q-9 51 -9 139q0 89 9 138q19 107 106 129zM285 468q-89 0 -113 -37t-24 -158q0 -119 24 -157q24 -37 113 -37q88 0 112 37q24 38 24 157q0 121 -24 158t-112 37z" />
    <glyph glyph-name="uni01D3" unicode="&#x1d3;" horiz-adv-x="747" 
d="M479 956l18 -12q9 -7 3 -14l-89 -121q-4 -7 -16 -7h-43q-13 0 -17 7l-88 121q-6 8 3 14l18 12q7 6 14 0l91 -73l91 73q8 4 15 0zM585 757h71q15 0 15 -15v-365q0 -122 -13 -191.5t-47 -113.5t-88.5 -60.5t-149.5 -16.5q-138 0 -207 46q-36 24 -55 70q-35 89 -35 266v365
q0 15 15 15h71q15 0 15 -15v-365q0 -119 17 -182q17 -61 58 -86t121 -25q118 0 157 58q40 58 40 235v365q0 15 15 15z" />
    <glyph glyph-name="uni01D4" unicode="&#x1d4;" horiz-adv-x="589" 
d="M397 756l18 -12q9 -7 3 -14l-89 -121q-4 -7 -16 -7h-43q-13 0 -17 7l-88 121q-6 7 3 14l18 12q7 6 14 0l91 -73l91 73q8 4 15 0zM439 547h66q15 0 15 -15v-506q0 -6 -2 -9t-4.5 -4t-8.5 -2q-81 -16 -208 -16q-74 0 -113 6q-41 8 -69 32q-29 24 -39.5 68.5t-10.5 128.5
v302q0 15 17 15h64q15 0 15 -15v-295q0 -61 5.5 -91t21.5 -45q17 -14 36 -18t63 -4h137v453q0 15 15 15z" />
    <glyph glyph-name="uni01D5" unicode="&#x1d5;" horiz-adv-x="747" 
d="M244 1068h258q15 0 15 -15v-41q0 -15 -15 -15h-258q-15 0 -15 15v41q0 15 15 15zM281 939q60 0 60 -59q0 -61 -60 -61q-63 0 -63 61q0 59 63 59zM528 880q0 -61 -61 -61t-61 61q0 59 61 59t61 -59zM585 757h71q15 0 15 -15v-365q0 -122 -13 -191.5t-47 -113.5
t-88.5 -60.5t-149.5 -16.5q-138 0 -207 46q-36 24 -55 70q-35 89 -35 266v365q0 15 15 15h71q15 0 15 -15v-365q0 -119 17 -182q17 -61 58 -86t121 -25q118 0 157 58q40 58 40 235v365q0 15 15 15z" />
    <glyph glyph-name="uni01D6" unicode="&#x1d6;" horiz-adv-x="589" 
d="M162 858h258q15 0 15 -15v-41q0 -15 -15 -15h-258q-15 0 -15 15v41q0 15 15 15zM199 739q60 0 60 -59q0 -61 -60 -61q-62 0 -62 61q0 59 62 59zM446 680q0 -61 -61 -61t-61 61q0 59 61 59t61 -59zM439 547h66q15 0 15 -15v-506q0 -6 -2 -9t-4.5 -4t-8.5 -2
q-81 -16 -208 -16q-74 0 -113 6q-41 8 -69 32q-29 24 -39.5 68.5t-10.5 128.5v302q0 15 17 15h64q15 0 15 -15v-295q0 -61 5.5 -91t21.5 -45q17 -14 36 -18t63 -4h137v453q0 15 15 15z" />
    <glyph glyph-name="uni01D7" unicode="&#x1d7;" horiz-adv-x="747" 
d="M431 1112h89q10 0 10 -10v-7q0 -7 -5 -12l-142 -125q-7 -6 -14 0l-20 13q-8 6 -3 14l73 121q3 6 12 6zM281 939q60 0 60 -59q0 -61 -60 -61q-63 0 -63 61q0 59 63 59zM528 880q0 -61 -61 -61t-61 61q0 59 61 59t61 -59zM585 757h71q15 0 15 -15v-365q0 -122 -13 -191.5
t-47 -113.5t-88.5 -60.5t-149.5 -16.5q-138 0 -207 46q-36 24 -55 70q-35 89 -35 266v365q0 15 15 15h71q15 0 15 -15v-365q0 -119 17 -182q17 -61 58 -86t121 -25q118 0 157 58q40 58 40 235v365q0 15 15 15z" />
    <glyph glyph-name="uni01D8" unicode="&#x1d8;" horiz-adv-x="589" 
d="M355 915h89q10 0 10 -10v-7q0 -7 -5 -12l-142 -126q-6 -5 -14 0l-20 14q-8 6 -3 14l73 121q3 6 12 6zM199 739q60 0 60 -59q0 -61 -60 -61q-62 0 -62 61q0 59 62 59zM446 680q0 -61 -61 -61t-61 61q0 59 61 59t61 -59zM439 547h66q15 0 15 -15v-506q0 -6 -2 -9t-4.5 -4
t-8.5 -2q-81 -16 -208 -16q-74 0 -113 6q-41 8 -69 32q-29 24 -39.5 68.5t-10.5 128.5v302q0 15 17 15h64q15 0 15 -15v-295q0 -61 5.5 -91t21.5 -45q17 -14 36 -18t63 -4h137v453q0 15 15 15z" />
    <glyph glyph-name="uni01D9" unicode="&#x1d9;" horiz-adv-x="747" 
d="M479 1117l18 -12q9 -7 3 -15l-89 -120q-5 -8 -16 -8h-43q-12 0 -17 8l-88 120q-7 8 3 15l18 12q7 6 14 0l91 -74l91 74q8 5 15 0zM281 939q60 0 60 -59q0 -61 -60 -61q-63 0 -63 61q0 59 63 59zM528 880q0 -61 -61 -61t-61 61q0 59 61 59t61 -59zM585 757h71q15 0 15 -15
v-365q0 -122 -13 -191.5t-47 -113.5t-88.5 -60.5t-149.5 -16.5q-138 0 -207 46q-36 24 -55 70q-35 89 -35 266v365q0 15 15 15h71q15 0 15 -15v-365q0 -119 17 -182q17 -61 58 -86t121 -25q118 0 157 58q40 58 40 235v365q0 15 15 15z" />
    <glyph glyph-name="uni01DA" unicode="&#x1da;" horiz-adv-x="589" 
d="M397 913l18 -12q9 -7 3 -14l-89 -121q-4 -7 -16 -7h-43q-13 0 -17 7l-88 121q-6 7 3 14l18 12q7 6 14 0l91 -73l91 73q8 5 15 0zM199 739q60 0 60 -59q0 -61 -60 -61q-62 0 -62 61q0 59 62 59zM446 680q0 -61 -61 -61t-61 61q0 59 61 59t61 -59zM439 547h66q15 0 15 -15
v-506q0 -6 -2 -9t-4.5 -4t-8.5 -2q-81 -16 -208 -16q-74 0 -113 6q-41 8 -69 32q-29 24 -39.5 68.5t-10.5 128.5v302q0 15 17 15h64q15 0 15 -15v-295q0 -61 5.5 -91t21.5 -45q17 -14 36 -18t63 -4h137v453q0 15 15 15z" />
    <glyph glyph-name="uni01DB" unicode="&#x1db;" horiz-adv-x="747" 
d="M230 1112h89q9 0 12 -6l73 -121q5 -8 -3 -14l-20 -13q-7 -6 -14 0l-142 125q-5 5 -5 12v7q0 10 10 10zM281 939q60 0 60 -59q0 -61 -60 -61q-63 0 -63 61q0 59 63 59zM528 880q0 -61 -61 -61t-61 61q0 59 61 59t61 -59zM585 757h71q15 0 15 -15v-365q0 -122 -13 -191.5
t-47 -113.5t-88.5 -60.5t-149.5 -16.5q-138 0 -207 46q-36 24 -55 70q-35 89 -35 266v365q0 15 15 15h71q15 0 15 -15v-365q0 -119 17 -182q17 -61 58 -86t121 -25q118 0 157 58q40 58 40 235v365q0 15 15 15z" />
    <glyph glyph-name="uni01DC" unicode="&#x1dc;" horiz-adv-x="589" 
d="M139 915h89q9 0 12 -6l73 -121q5 -8 -3 -14l-20 -14q-8 -5 -14 0l-142 126q-5 8 -5 12v7q0 10 10 10zM199 739q60 0 60 -59q0 -61 -60 -61q-62 0 -62 61q0 59 62 59zM446 680q0 -61 -61 -61t-61 61q0 59 61 59t61 -59zM439 547h66q15 0 15 -15v-506q0 -6 -2 -9t-4.5 -4
t-8.5 -2q-81 -16 -208 -16q-74 0 -113 6q-41 8 -69 32q-29 24 -39.5 68.5t-10.5 128.5v302q0 15 17 15h64q15 0 15 -15v-295q0 -61 5.5 -91t21.5 -45q17 -14 36 -18t63 -4h137v453q0 15 15 15z" />
    <glyph glyph-name="Aringacute" unicode="&#x1fa;" horiz-adv-x="678" 
d="M365 1099h89q10 0 10 -10v-7q0 -9 -5 -12l-83 -66q67 -15 67 -97q0 -102 -106 -102t-106 102q0 82 70 98l52 88q3 6 12 6zM399 907q0 62 -62 62t-62 -62t62 -62t62 62zM337 762q77 0 100 -20q24 -20 45 -97l171 -629q2 -10 -0.5 -13t-11.5 -3h-78q-6 0 -8.5 3t-4.5 13
l-62 221h-301l-63 -221q-2 -10 -4.5 -13t-8.5 -3h-78q-9 0 -11.5 3t-0.5 13l177 629q23 78 45 97q25 20 94 20zM337 674q-21 0 -27.5 -8.5t-15.5 -44.5l-82 -296h253l-78 296q-11 37 -18 44q-7 9 -32 9z" />
    <glyph glyph-name="aringacute" unicode="&#x1fb;" horiz-adv-x="534" 
d="M288 899h89q10 0 10 -10v-7q0 -9 -5 -12l-84 -66q68 -17 68 -97q0 -102 -106 -102t-106 102q0 81 69 98l53 88q3 6 12 6zM322 707q0 62 -62 62t-62 -62t62 -62t62 62zM243 552q117 0 171.5 -37.5t54.5 -119.5v-350q0 -21 -19 -28q-57 -22 -222 -22q-105 0 -149 32
q-44 33 -44 129q0 84 42.5 119t134.5 35l161 1v67q0 48 -30.5 69t-99.5 21h-150q-9 0 -12 3t-3 12v41q0 8 2.5 11t11.5 5q71 12 151 12zM373 89v144h-159q-44 0 -64 -17.5t-20 -57.5q0 -47 25 -64t90 -17q81 0 128 12z" />
    <glyph glyph-name="AEacute" unicode="&#x1fc;" horiz-adv-x="968" 
d="M583 959h88q10 0 10 -10v-7q0 -7 -5 -12l-142 -125q-7 -6 -14 0l-19 13q-8 6 -3 14l73 121q3 6 12 6zM337 762l223 -5h344q15 0 15 -15v-59q0 -15 -15 -15h-328v-257h294q15 0 15 -15v-58q0 -15 -15 -15h-294v-234h328q15 0 15 -15v-59q0 -15 -15 -15h-415q-15 0 -15 15
v222h-286l-63 -221q-2 -10 -4.5 -13t-8.5 -3h-78q-9 0 -11.5 3t-1.5 13l178 629q23 78 45 97q25 20 93 20zM474 325v349h-134q-22 0 -30 -9q-6 -7 -17 -47l-81 -293h262z" />
    <glyph glyph-name="aeacute" unicode="&#x1fd;" horiz-adv-x="865" 
d="M482 759h88q10 0 10 -10v-7q0 -7 -5 -12l-142 -125q-6 -5 -14 0l-19 13q-8 6 -3 14l73 121q3 6 12 6zM601 552q133 0 177 -53q45 -54 46 -211v-29q0 -16 -7 -22t-29 -6h-318q3 -93 28 -122q26 -30 106 -30h164q15 0 15 -15v-44q0 -14 -14 -16q-66 -9 -168 -9
q-44 0 -96 11q-49 12 -73 30q-77 -41 -203 -41q-104 0 -150 32q-44 33 -44 129q0 84 42.5 119t135.5 35l161 1v67q0 47 -31 68.5t-100 21.5h-149q-9 0 -12 3t-3 12v41q0 8 2.5 11t11.5 5q71 12 150 12q131 0 183 -49q48 49 175 49zM601 468q-80 0 -105 -31q-25 -32 -26 -128
h258q-2 97 -26 127q-24 32 -101 32zM374 233h-159q-45 0 -64.5 -17t-19.5 -58q0 -47 24.5 -64t89.5 -17q97 0 150 25q-21 45 -21 131z" />
    <glyph glyph-name="Oslashacute" unicode="&#x1fe;" horiz-adv-x="724" 
d="M422 959h89q10 0 10 -10v-7q0 -7 -5 -12l-142 -125q-7 -6 -14 0l-20 13q-8 6 -3 14l73 121q3 6 12 6zM667 377q0 -119 -13.5 -188t-48.5 -113q-35 -45 -91 -63t-152 -18q-132 0 -196 38l-30 -41q-9 -14 -20 -3l-34 23q-11 7 -4 20l35 49q-56 83 -56 296q0 225 62 305
t243 80q134 0 199 -41l26 36q11 14 21 4l34 -23q12 -8 3 -21l-32 -46q54 -79 54 -294zM362 673q-68 0 -106 -13.5t-61 -49.5q-21 -36 -28.5 -87.5t-7.5 -145.5q0 -141 22 -200l323 461q-44 35 -142 35zM565 377q0 140 -20 197l-322 -458q44 -32 139 -32q128 0 165 58
q38 59 38 235z" />
    <glyph glyph-name="oslashacute" unicode="&#x1ff;" horiz-adv-x="569" 
d="M331 759h89q10 0 10 -10v-7q0 -7 -5 -12l-142 -125q-7 -6 -14 0l-20 13q-8 6 -3 14l73 121q3 6 12 6zM517 273q0 -92 -9 -141t-35 -81t-68.5 -44t-119.5 -12q-99 0 -144 22l-19 -27q-9 -14 -20 -3l-34 23q-13 7 -4 20l23 33q-35 56 -35 210q0 91 9.5 140.5t34.5 81.5
q26 33 68.5 45t120.5 12q85 0 133 -17l16 22q11 14 21 4l34 -23q12 -8 3 -21l-17 -24q42 -52 42 -220zM285 468q-89 0 -113 -37t-24 -158q0 -82 7 -113l209 297q-30 11 -79 11zM410 401l-215 -306q28 -16 90 -16q88 0 112 37q24 38 24 157q0 92 -11 128z" />
    <glyph glyph-name="uni0218" unicode="&#x218;" horiz-adv-x="604" 
d="M317 762q73 0 194 -15q14 -2 14 -13v-46q0 -15 -13 -15h-225q-131 0 -131 -89v-17q0 -40 16 -62t59 -40l218 -90q63 -26 89 -67t26 -107v-32q0 -85 -52 -127q-23 -20 -58 -30q-63 -17 -154 -17q-121 0 -244 14q-12 3 -12 16v45q0 14 14 14h274q68 0 99 20.5t31 67.5v19
q0 42 -16.5 66t-59.5 42l-237 96q-52 20 -73 61.5t-21 108.5v24q0 85 50 126q20 17 58 29q58 18 154 18zM265 -39h76q10 0 10 -10v-7q0 -7 -5 -12l-130 -123q-6 -5 -14 0l-18 13q-8 6 -3 14l72 119q3 6 12 6z" />
    <glyph glyph-name="uni0219" unicode="&#x219;" horiz-adv-x="483" 
d="M254 552q78 0 153 -9q14 -2 14 -16v-43q0 -15 -15 -15h-186q-73 0 -73 -52v-13q0 -47 62 -70l133 -53q59 -23 79.5 -55t20.5 -86v-11q0 -80 -47 -107t-155 -27q-106 0 -183 9q-15 2 -15 15v44q0 15 15 15h185q62 0 83.5 10t21.5 42v12q0 23 -12.5 38t-45.5 29l-142 54
q-96 37 -96 143v21q0 79 62 104q54 21 141 21zM205 -39h77q10 0 10 -10v-7q0 -7 -5 -12l-130 -123q-6 -5 -14 0l-19 13q-8 6 -3 14l72 119q3 6 12 6z" />
    <glyph glyph-name="uni021A" unicode="&#x21a;" horiz-adv-x="613" 
d="M29 757h555q15 0 15 -15v-59q0 -15 -15 -15h-227v-653q0 -15 -15 -15h-71q-15 0 -15 15v653h-227q-15 0 -15 15v59q0 15 15 15zM266 -39h77q10 0 10 -10v-7q0 -7 -5 -12l-131 -123q-5 -5 -14 0l-18 13q-8 6 -3 14l72 119q3 6 12 6z" />
    <glyph glyph-name="uni021B" unicode="&#x21b;" horiz-adv-x="342" 
d="M109 682l66 16q17 5 17 -13v-139h105q16 0 16 -15v-47q0 -15 -16 -15h-105v-336q0 -33 12.5 -43.5t52.5 -10.5h48q16 0 16 -14v-48q0 -13 -15 -16q-24 -6 -56 -6q-52 0 -85 8q-34 8 -50 32t-19 74v360h-56q-15 0 -15 15v47q0 15 15 15h56v120q0 13 13 16zM174 -39h77
q10 0 10 -10v-7q0 -7 -5 -12l-131 -123q-5 -5 -14 0l-18 13q-8 6 -3 14l72 119q3 6 12 6z" />
    <glyph glyph-name="circumflex.001" unicode="&#x2c6;" horiz-adv-x="498" 
d="M227 759h43q13 0 17 -7l88 -121q7 -7 -3 -14l-18 -12q-7 -6 -14 0l-91 73l-91 -73q-8 -5 -15 0l-18 12q-9 7 -3 14l89 121q4 7 16 7z" />
    <glyph glyph-name="caron.001" unicode="&#x2c7;" horiz-adv-x="498" 
d="M354 756l18 -12q10 -7 3 -14l-88 -121q-4 -7 -17 -7h-43q-12 0 -16 7l-89 121q-6 7 3 14l18 12q7 4 15 0l91 -73l91 73q7 6 14 0z" />
    <glyph glyph-name="breve.001" unicode="&#x2d8;" horiz-adv-x="543" 
d="M376 750h32q17 0 14 -16q-11 -70 -42 -95t-108 -25t-108 25q-33 26 -43 95q-3 16 14 16h32q13 0 17 -12q14 -32 32.5 -44t55.5 -12t55 12t32 44q5 12 17 12z" />
    <glyph glyph-name="dotaccent.001" unicode="&#x2d9;" horiz-adv-x="364" 
d="M244 680q0 -61 -62 -61t-62 61q0 60 62 60t62 -60z" />
    <glyph glyph-name="ring" unicode="&#x2da;" horiz-adv-x="452" 
d="M120 707q0 102 106 102t106 -102t-106 -102t-106 102zM288 707q0 62 -62 62t-62 -62t62 -62t62 62z" />
    <glyph glyph-name="ogonek" unicode="&#x2db;" horiz-adv-x="402" 
d="M152 15h30q18 0 13 -17q-9 -41 -9 -58q0 -20 9 -25.5t38 -5.5h36q15 0 15 -15v-34q0 -14 -12 -18q-21 -8 -60 -8q-49 0 -70.5 17t-21.5 59q0 36 15 92q4 13 17 13z" />
    <glyph glyph-name="tilde" unicode="&#x2dc;" horiz-adv-x="570" 
d="M215 740q23 0 72 -20t64 -20q18 0 27.5 7t18.5 27q6 15 19 11l23 -6q14 -5 11 -23q-18 -57 -37 -76.5t-57 -19.5q-23 0 -72 20q-48 20 -63 20q-19 0 -28 -7t-18 -27q-8 -14 -19 -10l-23 6q-16 5 -11 22q18 57 36 77q19 19 57 19z" />
    <glyph glyph-name="hungarumlaut.001" unicode="&#x2dd;" horiz-adv-x="594" 
d="M207 759h80q10 0 10 -10v-7q0 -7 -5 -12l-137 -124q-7 -6 -14 0l-16 12q-8 6 -3 14l73 121q3 6 12 6zM384 759h80q10 0 10 -10v-7q0 -7 -5 -12l-137 -124q-7 -6 -14 0l-16 12q-8 6 -3 14l73 121q3 6 12 6z" />
    <glyph glyph-name="uni0326" unicode="&#x326;" horiz-adv-x="0" 
d="M207 -39h77q10 0 10 -10v-7q0 -7 -5 -12l-130 -123q-6 -5 -14 0l-19 13q-8 6 -3 14l72 119q3 6 12 6z" />
    <glyph glyph-name="pi" unicode="&#x3c0;" horiz-adv-x="642" 
d="M39 547h567q15 0 15 -15v-55q0 -15 -15 -15h-83v-447q0 -15 -15 -15h-59q-15 0 -15 15v447h-221q0 -226 -40 -447q-1 -15 -15 -15h-59q-18 0 -15 15q39 227 39 447h-84q-15 0 -15 15v55q0 15 15 15z" />
    <glyph glyph-name="uni0401" unicode="&#x401;" horiz-adv-x="629" 
d="M233 939q60 0 60 -59q0 -61 -60 -61q-62 0 -62 61q0 59 62 59zM480 880q0 -61 -61 -61t-61 61q0 59 61 59t61 -59zM97 757h468q15 0 15 -15v-59q0 -15 -15 -15h-382v-257h348q15 0 15 -15v-58q0 -15 -15 -15h-348v-234h382q15 0 15 -15v-59q0 -15 -15 -15h-468
q-15 0 -15 15v727q0 15 15 15z" />
    <glyph glyph-name="uni0410" unicode="&#x410;" horiz-adv-x="678" 
d="M337 762q77 0 100 -20q24 -20 45 -97l171 -629q2 -10 -0.5 -13t-11.5 -3h-78q-6 0 -8.5 3t-4.5 13l-62 221h-301l-63 -221q-2 -10 -4.5 -13t-8.5 -3h-78q-9 0 -11.5 3t-0.5 13l177 629q23 78 45 97q25 20 94 20zM337 674q-21 0 -27.5 -8.5t-15.5 -44.5l-82 -296h253
l-78 296q-11 37 -18 44q-7 9 -32 9z" />
    <glyph glyph-name="uni0411" unicode="&#x411;" horiz-adv-x="678" 
d="M183 668v-219h202q127 0 188 -45q61 -43 61 -163v-41q0 -119 -61 -162q-59 -43 -188 -43q-196 0 -288 7q-9 1 -12 3.5t-3 11.5v725q0 15 15 15h485q15 0 15 -15v-59q0 -15 -15 -15h-399zM533 204v31q0 71 -34 98.5t-110 27.5h-206v-277h204q81 0 113.5 25t32.5 95z" />
    <glyph glyph-name="uni0412" unicode="&#x412;" horiz-adv-x="686" 
d="M354 762q135 0 197 -46q64 -46 64 -164q0 -148 -88 -169v-3q107 -20 107 -180q0 -119 -61 -162q-59 -43 -188 -43q-196 0 -288 7q-9 1 -12 3.5t-3 11.5v723q0 9 3 11.5t12 3.5q92 7 257 7zM345 673h-162v-255h123q93 0 137 9q40 10 53 33.5t17 81.5q0 80 -39 105
q-38 26 -129 26zM389 337h-206v-253h204q81 0 113.5 25t32.5 95q0 76 -34 104.5t-110 28.5z" />
    <glyph glyph-name="uni0413" unicode="&#x413;" horiz-adv-x="545" 
d="M168 0h-71q-15 0 -15 15v727q0 15 15 15h421q15 0 15 -15v-59q0 -15 -15 -15h-335v-653q0 -15 -15 -15z" />
    <glyph glyph-name="uni0414" unicode="&#x414;" horiz-adv-x="697" 
d="M231 757h352q15 0 15 -15v-653h39q15 0 15 -15v-216q0 -15 -15 -15h-66q-15 0 -15 15v142h-431v-142q0 -15 -15 -15h-66q-15 0 -15 15v216q0 15 15 15h43q31 9 45 37.5t21 90.5l63 524q1 16 15 16zM496 89v579h-187l-58 -483q-7 -59 -24 -96h269z" />
    <glyph glyph-name="uni0415" unicode="&#x415;" horiz-adv-x="629" 
d="M97 757h468q15 0 15 -15v-59q0 -15 -15 -15h-382v-257h348q15 0 15 -15v-58q0 -15 -15 -15h-348v-234h382q15 0 15 -15v-59q0 -15 -15 -15h-468q-15 0 -15 15v727q0 15 15 15z" />
    <glyph glyph-name="uni0416" unicode="&#x416;" horiz-adv-x="941" 
d="M908 738l-281 -332l302 -379q10 -9 5.5 -18t-22.5 -9h-77q-16 0 -22 11l-292 372v-368q0 -15 -15 -15h-71q-15 0 -15 15v368l-292 -372q-6 -11 -22 -11h-77q-18 0 -22.5 9t5.5 18l302 379l-281 332q-16 19 9 19h81q14 0 21 -10l276 -319v314q0 15 15 15h71q15 0 15 -15
v-314l275 319q7 10 21 10h82q25 0 9 -19z" />
    <glyph glyph-name="uni0417" unicode="&#x417;" horiz-adv-x="601" 
d="M224 762q185 0 248 -39q63 -37 63 -160v-20q0 -135 -84 -164q84 -30 84 -163v-17q0 -123 -63 -164q-61 -40 -248 -40q-79 0 -164 8q-16 3 -16 8v64q0 9 15 9h170q127 0 166 24t39 97v5q-2 72 -25 98q-24 28 -103 28h-210q-12 0 -12 11v62q0 12 12 12h209q79 0 104 27
q25 26 25 100v13q0 71 -42 91q-40 21 -171 21h-162q-15 0 -15 9v61q0 9 16 10q75 9 164 9z" />
    <glyph glyph-name="uni0418" unicode="&#x418;" horiz-adv-x="771" 
d="M97 757h71q15 0 15 -16v-564l366 551q12 18 21.5 23t35.5 6h68q15 0 15 -16v-726q0 -15 -15 -15h-71q-15 0 -15 15v598l-394 -595q-14 -18 -36 -18h-61q-15 0 -15 15v726q0 16 15 16z" />
    <glyph glyph-name="uni0419" unicode="&#x419;" horiz-adv-x="771" 
d="M485 950h33q17 0 14 -16q-10 -69 -43 -95q-31 -25 -108 -25t-108 25q-33 26 -43 95q-3 16 14 16h32q12 0 17 -12q14 -32 32.5 -44t55.5 -12t55 12t32 44q4 12 17 12zM97 757h71q15 0 15 -16v-564l366 551q12 18 21.5 23t35.5 6h68q15 0 15 -16v-726q0 -15 -15 -15h-71
q-15 0 -15 15v598l-394 -595q-14 -18 -36 -18h-61q-15 0 -15 15v726q0 16 15 16z" />
    <glyph glyph-name="uni041A" unicode="&#x41a;" horiz-adv-x="621" 
d="M498 757h81q25 0 9 -19l-297 -332l319 -379q9 -9 5 -18t-22 -9h-78q-16 0 -22 11l-309 372v-368q0 -15 -15 -15h-72q-15 0 -15 15v727q0 15 15 15h72q15 0 15 -15v-314l293 319q7 10 21 10z" />
    <glyph glyph-name="uni041B" unicode="&#x41b;" horiz-adv-x="698" 
d="M249 757h352q15 0 15 -15v-727q0 -15 -15 -15h-72q-15 0 -15 15v653h-186l-59 -488q-13 -120 -68 -157q-40 -28 -98 -28q-33 0 -58 6q-16 3 -16 18v50q0 15 15 15h18q60 0 80 27q22 29 29 102l63 528q1 16 15 16z" />
    <glyph glyph-name="uni041C" unicode="&#x41c;" horiz-adv-x="945" 
d="M732 757h78q14 0 15 -15l65 -727q2 -15 -15 -15h-72q-13 0 -15 15l-46 568l-216 -546q-4 -12 -18 -12h-71q-15 0 -19 12l-216 546l-46 -568q-2 -15 -15 -15h-71q-16 0 -15 15l64 726q1 16 15 16h78q17 0 24.5 -7.5t16.5 -31.5l219 -568l219 568q9 24 16.5 31.5t24.5 7.5z
" />
    <glyph glyph-name="uni041D" unicode="&#x41d;" horiz-adv-x="773" 
d="M605 757h71q15 0 15 -16v-726q0 -15 -15 -15h-71q-15 0 -15 15v325h-407v-325q0 -15 -15 -15h-71q-15 0 -15 15v726q0 16 15 16h71q15 0 15 -16v-312h407v312q0 16 15 16z" />
    <glyph glyph-name="uni041E" unicode="&#x41e;" horiz-adv-x="724" 
d="M667 377q0 -119 -13.5 -188t-48.5 -113q-35 -45 -91 -63t-152 -18t-152.5 18t-91.5 63q-34 45 -47.5 114t-13.5 187q0 225 62 305t243 80t243 -80t62 -305zM159 377q0 -176 38 -235q37 -58 165 -58t165 58q38 59 38 235q0 96 -7.5 147t-29.5 86q-21 36 -59.5 49.5
t-106.5 13.5t-106 -13.5t-61 -49.5q-21 -36 -28.5 -87.5t-7.5 -145.5z" />
    <glyph glyph-name="uni041F" unicode="&#x41f;" horiz-adv-x="687" 
d="M97 757h493q15 0 15 -15v-727q0 -15 -15 -15h-72q-15 0 -15 15v653h-320v-653q0 -15 -15 -15h-71q-15 0 -15 15v727q0 15 15 15z" />
    <glyph glyph-name="uni0420" unicode="&#x420;" horiz-adv-x="648" 
d="M310 762q94 0 145.5 -9.5t87.5 -35.5q37 -26 52 -72.5t15 -126.5t-15 -125.5t-50 -71.5q-21 -15 -58 -24q-62 -14 -177 -14h-127v-268q0 -9 -3 -12t-12 -3h-71q-9 0 -12 3t-3 12v725q0 9 3 11.5t12 3.5q92 7 213 7zM301 673h-118v-304h118q49 0 64 1q66 2 87 12
q32 14 44.5 43.5t11.5 90.5q0 101 -40 129q-38 28 -167 28z" />
    <glyph glyph-name="uni0421" unicode="&#x421;" horiz-adv-x="599" 
d="M361 762q119 0 186 -10q16 -1 16 -17v-47q0 -15 -15 -15h-187q-127 0 -165 -59t-38 -236q0 -176 38 -235t165 -59h187q15 0 15 -15v-47q0 -15 -16 -18q-65 -9 -186 -9q-96 0 -152 18t-91 63q-34 44 -47.5 113.5t-13.5 188.5t13.5 188.5t47.5 113.5q34 46 90.5 64
t152.5 18z" />
    <glyph glyph-name="uni0422" unicode="&#x422;" horiz-adv-x="613" 
d="M29 757h555q15 0 15 -15v-59q0 -15 -15 -15h-227v-653q0 -15 -15 -15h-71q-15 0 -15 15v653h-227q-15 0 -15 15v59q0 15 15 15z" />
    <glyph glyph-name="uni0423" unicode="&#x423;" horiz-adv-x="598" 
d="M506 757h77q20 0 12 -17l-208 -547q-45 -119 -87 -159q-42 -39 -109 -39q-46 0 -73 7q-14 5 -14 19v48q0 15 15 15h53q32 0 54 21t46 75l-266 559q-8 18 12 18h80q12 0 17 -11l207 -441l166 440q6 12 18 12z" />
    <glyph glyph-name="uni0424" unicode="&#x424;" horiz-adv-x="847" 
d="M389 765h71q15 0 15 -15v-74q193 -4 263 -64q69 -58 69 -229q0 -91 -15.5 -144t-55.5 -86q-39 -33 -98.5 -47t-162.5 -16v-75q0 -15 -15 -15h-71q-15 0 -15 15v75q-102 2 -162 16t-100 46q-40 33 -56 86.5t-16 144.5q0 170 70 228q71 61 264 65v74q0 15 15 15zM374 179
v407q-142 -5 -187 -44q-46 -40 -46 -159q0 -64 10.5 -100.5t36.5 -59.5q47 -40 186 -44zM475 586v-407q139 4 185 44t46 160q0 119 -46 159q-44 39 -185 44z" />
    <glyph glyph-name="uni0425" unicode="&#x425;" horiz-adv-x="644" 
d="M521 757h77q24 0 11 -22l-228 -341l251 -377q15 -22 -11 -22h-77q-17 0 -27 16l-196 296l-192 -291q-12 -16 -27 -16h-78q-26 0 -11 22l249 372l-229 341q-13 22 11 22h77q17 0 27 -16l173 -261l173 261q10 16 27 16z" />
    <glyph glyph-name="uni0426" unicode="&#x426;" horiz-adv-x="720" 
d="M615 742v-653h66q15 0 15 -15v-216q0 -15 -15 -15h-66q-15 0 -15 15v142h-503q-15 0 -15 15v727q0 15 15 15h71q15 0 15 -15v-653h330v653q0 15 15 15h72q15 0 15 -15z" />
    <glyph glyph-name="uni0427" unicode="&#x427;" horiz-adv-x="645" 
d="M476 757h72q15 0 15 -16v-726q0 -15 -15 -15h-72q-15 0 -15 15v266h-108q-61 0 -101 3q-95 7 -134 35q-35 26 -50 71.5t-15 125.5v226q0 15 15 15h72q15 0 15 -15v-225q0 -93 30 -117q29 -22 63 -26q47 -4 113 -4h100v371q0 16 15 16z" />
    <glyph glyph-name="uni0428" unicode="&#x428;" horiz-adv-x="967" 
d="M799 757h71q15 0 15 -15v-727q0 -15 -15 -15h-773q-15 0 -15 15v727q0 15 15 15h72q15 0 15 -15v-653h249v653q0 15 15 15h72q15 0 15 -15v-653h249v653q0 15 15 15z" />
    <glyph glyph-name="uni0429" unicode="&#x429;" horiz-adv-x="990" 
d="M885 742v-653h66q15 0 15 -15v-216q0 -15 -15 -15h-65q-15 0 -15 15v142h-774q-15 0 -15 15v727q0 15 15 15h72q15 0 15 -15v-653h249v653q0 15 15 15h72q15 0 15 -15v-653h249v653q0 15 15 15h71q15 0 15 -15z" />
    <glyph glyph-name="uni042A" unicode="&#x42a;" horiz-adv-x="707" 
d="M220 742v-293h202q126 0 188 -45q61 -43 61 -163v-41q0 -119 -61 -162q-59 -43 -188 -43q-197 0 -288 7q-9 1 -12 3.5t-3 11.5v651h-85q-15 0 -15 15v59q0 15 15 15h171q15 0 15 -15zM569 204v31q0 72 -33.5 99t-109.5 27h-206v-277h204q80 0 112.5 25t32.5 95z" />
    <glyph glyph-name="uni042B" unicode="&#x42b;" horiz-adv-x="909" 
d="M184 742v-293h201q127 0 188 -45q61 -43 61 -163v-41q0 -119 -61 -162q-59 -43 -188 -43q-196 0 -288 7q-9 1 -12 3.5t-3 11.5v725q0 15 15 15h72q15 0 15 -15zM741 757h71q15 0 15 -16v-726q0 -15 -15 -15h-71q-15 0 -15 15v726q0 16 15 16zM533 204v31q0 71 -34 98.5
t-110 27.5h-205v-277h203q81 0 113.5 25t32.5 95z" />
    <glyph glyph-name="uni042C" unicode="&#x42c;" horiz-adv-x="670" 
d="M183 742v-293h202q127 0 188 -45q61 -43 61 -163v-41q0 -119 -61 -162q-59 -43 -188 -43q-196 0 -288 7q-9 1 -12 3.5t-3 11.5v725q0 15 15 15h71q15 0 15 -15zM533 204v31q0 71 -34 98.5t-110 27.5h-206v-277h204q81 0 113.5 25t32.5 95z" />
    <glyph glyph-name="uni042D" unicode="&#x42d;" horiz-adv-x="624" 
d="M262 762q96 0 152.5 -18t90.5 -64q35 -44 48.5 -113.5t13.5 -188.5t-13.5 -188.5t-48.5 -113.5q-35 -45 -91 -63t-152 -18q-146 0 -211 9q-16 3 -16 18v47q0 15 15 15h212q118 0 159 51q40 52 43 200h-293q-15 0 -15 15v57q0 15 15 15h293q-3 149 -43 199q-40 52 -159 52
h-212q-15 0 -15 15v47q0 16 16 17q67 10 211 10z" />
    <glyph glyph-name="uni042E" unicode="&#x42e;" horiz-adv-x="1007" 
d="M645 762q181 0 243 -80t62 -305q0 -119 -13.5 -188t-48.5 -113q-35 -45 -91 -63t-152 -18q-175 0 -238 72q-63 73 -67 273h-157v-325q0 -15 -15 -15h-71q-15 0 -15 15v726q0 16 15 16h71q15 0 15 -16v-312h158q4 191 68 262q65 71 236 71zM442 377q0 -176 38 -235
q37 -58 165 -58t165 58q38 59 38 235q0 96 -7.5 147t-29.5 86q-21 36 -59.5 49.5t-106.5 13.5t-106 -13.5t-61 -49.5q-21 -36 -28.5 -87.5t-7.5 -145.5z" />
    <glyph glyph-name="uni042F" unicode="&#x42f;" horiz-adv-x="661" 
d="M351 762q121 0 213 -7q9 -1 12 -3.5t3 -11.5v-725q0 -9 -3 -12t-12 -3h-72q-9 0 -12 3t-3 12v268h-151l-164 -261q-15 -22 -40 -22h-64q-11 0 -14.5 6t2.5 14l168 269q-91 12 -127 61q-36 50 -36 168q0 80 15 126t51 73q37 26 89 35.5t145 9.5zM477 369v304h-118
q-127 0 -167 -28q-39 -29 -39 -129q0 -93 30 -117q29 -22 63 -26q47 -4 113 -4h118z" />
    <glyph glyph-name="uni0430" unicode="&#x430;" horiz-adv-x="535" 
d="M244 552q118 0 172 -37.5t54 -119.5v-350q0 -21 -18 -28q-60 -22 -222 -22q-106 0 -150 31q-44 32 -44 124v13q0 79 43 113t135 34l161 1v67q0 47 -30.5 68.5t-100.5 21.5h-149q-9 0 -12 3t-3 12v41q0 8 2.5 11t11.5 5q70 12 150 12zM375 91v142h-156q-57 0 -73 -14
q-14 -14 -14 -62v-6q0 -46 22 -59.5t82 -13.5q90 0 139 13z" />
    <glyph glyph-name="uni0431" unicode="&#x431;" horiz-adv-x="579" 
d="M461 762h34q13 0 13 -27q0 -42 -24.5 -60.5t-87.5 -31.5q-21 -5 -53 -9q-20 -3 -49 -8q-19 -4 -39 -10q-33 -8 -61 -38q-25 -25 -31 -85q23 31 53 42.5t83 11.5q141 0 184 -55q45 -54 45 -219q0 -92 -9 -141t-35 -81t-68.5 -44t-119.5 -12q-144 0 -189 54q-45 56 -44 224
v82q-5 201 66 282q21 24 60 40q39 17 79 27q33 9 107 22q47 9 62 21q1 1 4.5 6t7.5 7t12 2zM296 464q-89 0 -113 -37q-24 -36 -24 -154q0 -119 24 -157q24 -37 113 -37q88 0 112 37q24 38 24 157q0 118 -24 154q-24 37 -112 37z" />
    <glyph glyph-name="uni0432" unicode="&#x432;" horiz-adv-x="560" 
d="M288 552q112 0 161 -35t49 -119q0 -57 -18 -86t-59 -37v-2q49 -6 70 -37t21 -91q0 -82 -47.5 -116t-154.5 -34q-171 0 -228 7q-13 1 -13 13v517q0 12 13 13q81 7 206 7zM279 465h-110v-156h87q84 0 113 13q30 14 30 63q0 45 -27.5 62.5t-92.5 17.5zM309 236h-140v-154
h139q58 0 82 16t24 58q0 46 -24.5 63t-80.5 17z" />
    <glyph glyph-name="uni0433" unicode="&#x433;" horiz-adv-x="452" 
d="M81 547h338q12 0 12 -12v-66q0 -11 -12 -11h-248v-447q0 -11 -13 -11h-77q-12 0 -12 11v524q0 12 12 12z" />
    <glyph glyph-name="uni0434" unicode="&#x434;" horiz-adv-x="573" 
d="M180 547h292q13 0 13 -12v-448h34q12 0 12 -11v-172q0 -11 -12 -11h-68q-12 0 -12 11v96h-320v-96q0 -11 -12 -11h-68q-12 0 -12 11v173q0 10 12 10h33q24 8 35 30t17 68l44 350q2 12 12 12zM385 87v373h-125l-40 -305q-8 -48 -17 -68h182z" />
    <glyph glyph-name="uni0435" unicode="&#x435;" horiz-adv-x="544" 
d="M280 552q133 0 177 -53q45 -54 46 -211v-29q0 -16 -7 -22t-30 -6h-318q3 -93 28 -122q26 -30 106 -30h164q15 0 15 -15v-44q0 -14 -14 -16q-66 -9 -167 -9q-140 0 -184 54q-44 56 -44 224t44 224q43 55 184 55zM280 468q-79 0 -105 -32t-27 -127h259q-1 96 -26 128
q-24 31 -101 31z" />
    <glyph glyph-name="uni0436" unicode="&#x436;" horiz-adv-x="810" 
d="M778 532l-217 -238l236 -276q6 -7 3.5 -12.5t-12.5 -5.5h-89q-10 0 -18 8l-226 264v-257q0 -15 -15 -15h-70q-15 0 -15 15v257l-226 -264q-8 -8 -18 -8h-89q-10 0 -12.5 5.5t3.5 12.5l236 276l-217 238q-5 6 -1.5 10.5t13.5 4.5h82q12 0 16 -7l213 -230v222q0 15 15 15
h70q15 0 15 -15v-222l213 230q4 7 16 7h82q10 0 13.5 -4.5t-1.5 -10.5z" />
    <glyph glyph-name="uni0437" unicode="&#x437;" horiz-adv-x="499" 
d="M203 552q135 0 187 -28q53 -29 53 -111v-30q0 -92 -72 -110q72 -17 72 -109v-27q0 -86 -52 -114t-188 -28q-85 0 -146 10q-14 3 -14 15v52q0 11 12 11h146q86 0 114 14q27 13 27 57v6q0 42 -18.5 57.5t-74.5 15.5h-160q-11 0 -11 13v54q0 12 11 12h159q56 0 75 15.5
t19 58.5v11q0 42 -29 54q-27 13 -117 13h-141q-12 0 -12 10v53q0 12 14 15q64 10 146 10z" />
    <glyph glyph-name="uni0438" unicode="&#x438;" horiz-adv-x="625" 
d="M483 547h61q12 0 12 -11v-525q0 -11 -12 -11h-76q-12 0 -12 11v375l-286 -370q-12 -16 -33 -16h-56q-12 0 -12 11v525q0 11 12 11h76q12 0 12 -11v-360l268 348q10 14 18.5 18.5t27.5 4.5z" />
    <glyph glyph-name="uni0439" unicode="&#x439;" horiz-adv-x="625" 
d="M422 750h32q17 0 14 -16q-10 -69 -43 -95q-31 -25 -108 -25t-108 25t-42 95q-3 16 14 16h32q12 0 17 -12q13 -32 31.5 -44t55.5 -12t55.5 12t32.5 44q5 12 17 12zM483 547h61q12 0 12 -11v-525q0 -11 -12 -11h-76q-12 0 -12 11v375l-286 -370q-12 -16 -33 -16h-56
q-12 0 -12 11v525q0 11 12 11h76q12 0 12 -11v-360l268 348q10 14 18.5 18.5t27.5 4.5z" />
    <glyph glyph-name="uni043A" unicode="&#x43a;" horiz-adv-x="521" 
d="M400 547h81q10 0 13.5 -4.5t-1.5 -10.5l-217 -238l236 -276q6 -7 3.5 -12.5t-12.5 -5.5h-89q-10 0 -18 8l-225 264v-257q0 -15 -15 -15h-72q-15 0 -15 15v517q0 15 15 15h72q15 0 15 -15v-222l212 230q6 7 17 7z" />
    <glyph glyph-name="uni043B" unicode="&#x43b;" horiz-adv-x="568" 
d="M191 547h296q12 0 12 -11v-525q0 -11 -12 -11h-77q-11 0 -11 11v448h-128l-40 -317q-18 -146 -139 -146q-21 0 -51 5q-15 5 -15 18v55q0 10 12 10h15q43 0 59.5 18.5t22.5 68.5l45 365q2 11 11 11z" />
    <glyph glyph-name="uni043C" unicode="&#x43c;" horiz-adv-x="771" 
d="M585 547h73q11 0 12 -10l53 -526q2 -11 -11 -11h-78q-10 0 -12 11l-34 365l-155 -349q-5 -9 -16 -9h-64q-11 0 -16 9l-153 349l-35 -365q-2 -11 -12 -11h-78q-13 0 -11 11l53 525q2 11 12 11h73q16 0 23.5 -6t14.5 -23l161 -369l162 370q7 17 14.5 22.5t23.5 5.5z" />
    <glyph glyph-name="uni043D" unicode="&#x43d;" horiz-adv-x="627" 
d="M472 547h71q15 0 15 -15v-517q0 -15 -15 -15h-71q-15 0 -15 15v214h-286v-214q0 -15 -15 -15h-72q-15 0 -15 15v517q0 15 15 15h72q15 0 15 -15v-214h286v214q0 15 15 15z" />
    <glyph glyph-name="uni043E" unicode="&#x43e;" horiz-adv-x="569" 
d="M167 540q44 12 118 12q75 0 118 -12q88 -22 105 -129q9 -49 9 -138q0 -88 -9 -139q-17 -103 -105 -128q-46 -11 -118 -11q-73 0 -119 11q-86 24 -105 128q-9 51 -9 139q0 89 9 138q19 107 106 129zM285 468q-89 0 -113 -37t-24 -158q0 -119 24 -157q24 -37 113 -37
q88 0 112 37q24 38 24 157q0 121 -24 158t-112 37z" />
    <glyph glyph-name="uni043F" unicode="&#x43f;" horiz-adv-x="562" 
d="M84 547h394q15 0 15 -15v-517q0 -15 -15 -15h-71q-15 0 -15 15v443h-221v-443q0 -15 -15 -15h-72q-15 0 -15 15v517q0 15 15 15z" />
    <glyph glyph-name="uni0440" unicode="&#x440;" horiz-adv-x="576" 
d="M291 552q143 0 188 -55q45 -56 45 -223q0 -168 -44 -224q-43 -55 -184 -55q-80 0 -132 6v-184q0 -15 -15 -15h-66q-15 0 -15 15v701q0 14 16 17q110 17 207 17zM292 468h-128v-381q69 -8 126 -8q90 0 114 36q25 37 25 158t-24 158t-113 37z" />
    <glyph glyph-name="uni0441" unicode="&#x441;" horiz-adv-x="486" 
d="M286 552q85 0 151 -9q14 -2 14 -17v-43q0 -15 -15 -15h-150q-89 0 -113 -37t-24 -158q0 -119 24 -157q24 -37 113 -37h150q15 0 15 -15v-43q0 -15 -14 -17q-66 -9 -151 -9q-78 0 -120.5 12t-68.5 44t-35 81t-9 141q0 132 26 194q22 48 68 65.5t139 19.5z" />
    <glyph glyph-name="uni0442" unicode="&#x442;" horiz-adv-x="505" 
d="M35 547h435q15 0 15 -15v-59q0 -15 -15 -15h-167v-443q0 -15 -15 -15h-72q-15 0 -15 15v443h-166q-15 0 -15 15v59q0 15 15 15z" />
    <glyph glyph-name="uni0443" unicode="&#x443;" horiz-adv-x="590" 
d="M440 547h66q15 0 15 -15v-482q0 -80 -9.5 -124.5t-34.5 -74.5q-26 -30 -69 -42t-118 -12q-84 0 -150 9q-14 2 -14 16v43q0 15 14 15h148q83 0 110 24t27 93v6q-53 -8 -132 -8q-140 0 -185 54q-44 56 -44 219v264q0 15 15 15h66q15 0 15 -15v-258q0 -120 24 -158
q25 -37 115 -37q74 0 126 7v446q0 15 15 15z" />
    <glyph glyph-name="uni0444" unicode="&#x444;" horiz-adv-x="761" 
d="M533 552q93 0 135 -64q42 -63 42 -215q0 -151 -42 -215q-42 -63 -135 -63q-73 0 -105 27v-205q0 -15 -15 -15h-66q-15 0 -15 15v205q-30 -27 -104 -27q-93 0 -135 63q-42 64 -42 215q0 152 42 215q42 64 135 64q71 0 104 -27v217q0 15 15 15h66q15 0 15 -15v-217
q33 27 105 27zM332 100v347q-25 20 -86 20q-60 0 -80 -41q-19 -39 -19 -153t19 -153q20 -41 80 -41t86 21zM515 467q-61 0 -86 -20v-347q25 -21 86 -21q60 0 80 41q19 39 19 153t-19 153q-20 41 -80 41z" />
    <glyph glyph-name="uni0445" unicode="&#x445;" horiz-adv-x="528" 
d="M403 547h81q8 0 10 -5.5t-3 -12.5l-171 -239l193 -272q11 -18 -8 -18h-81q-10 0 -14 9l-145 205l-147 -205q-4 -9 -14 -9h-81q-19 0 -8 18l193 272l-171 239q-5 7 -3 12.5t10 5.5h81q10 0 16 -9l124 -172l122 172q6 9 16 9z" />
    <glyph glyph-name="uni0446" unicode="&#x446;" horiz-adv-x="591" 
d="M499 532v-443h48q15 0 15 -15v-166q0 -15 -15 -15h-66q-15 0 -15 15v92h-382q-15 0 -15 15v517q0 15 15 15h71q15 0 15 -15v-443h227v443q0 15 15 15h72q15 0 15 -15z" />
    <glyph glyph-name="uni0447" unicode="&#x447;" horiz-adv-x="524" 
d="M368 547h72q15 0 15 -15v-517q0 -15 -15 -15h-72q-15 0 -15 15v177h-30q-48 0 -100 2q-90 7 -125 36q-30 27 -42.5 72t-12.5 125v105q0 15 15 15h72q15 0 15 -15v-103q0 -56 6.5 -84t24.5 -43q12 -8 34 -14q33 -7 121 -7h22v251q0 15 15 15z" />
    <glyph glyph-name="uni0448" unicode="&#x448;" horiz-adv-x="782" 
d="M626 547h72q15 0 15 -15v-517q0 -15 -15 -15h-614q-15 0 -15 15v517q0 15 15 15h72q15 0 15 -15v-444h170v444q0 15 15 15h70q15 0 15 -15v-444h170v444q0 15 15 15z" />
    <glyph glyph-name="uni0449" unicode="&#x449;" horiz-adv-x="804" 
d="M712 532v-443h48q15 0 15 -15v-166q0 -15 -15 -15h-66q-15 0 -15 15v92h-595q-15 0 -15 15v517q0 15 15 15h72q15 0 15 -15v-443h169v443q0 15 15 15h72q15 0 15 -15v-443h169v443q0 15 15 15h71q15 0 15 -15z" />
    <glyph glyph-name="uni044A" unicode="&#x44a;" horiz-adv-x="616" 
d="M238 536v-204h142q107 0 154.5 -34t47.5 -116v-37q0 -82 -47.5 -116t-154.5 -34q-174 0 -231 7q-11 2 -11 10v446h-106q-12 0 -12 11v67q0 11 12 11h194q12 0 12 -11zM481 155v18q0 43 -24 59t-77 16h-142v-166h139q58 0 81 16t23 57z" />
    <glyph glyph-name="uni044B" unicode="&#x44b;" horiz-adv-x="733" 
d="M169 536v-204h142q107 0 155 -34t48 -116v-37q0 -82 -48 -116t-155 -34q-174 0 -231 7q-11 2 -11 10v524q0 11 12 11h76q12 0 12 -11zM583 547h66q15 0 15 -15v-517q0 -15 -15 -15h-66q-15 0 -15 15v517q0 15 15 15zM413 155v18q0 43 -24 59t-77 16h-143v-166h140
q57 0 80.5 16t23.5 57z" />
    <glyph glyph-name="uni044C" unicode="&#x44c;" horiz-adv-x="547" 
d="M169 535v-203h142q107 0 155 -34t48 -116v-37q0 -82 -48 -116t-155 -34q-174 0 -231 7q-11 2 -11 13v521q0 11 12 11h76q12 0 12 -12zM413 155v18q0 43 -24 59t-77 16h-143v-166h140q57 0 80.5 16t23.5 57z" />
    <glyph glyph-name="uni044D" unicode="&#x44d;" horiz-adv-x="517" 
d="M222 552q144 0 194 -59t50 -219q0 -162 -50 -221q-49 -58 -194 -58q-107 0 -168 10q-15 1 -15 16v50q0 11 12 11h171q82 0 111 32t32 119h-222q-13 0 -13 10v61q0 10 13 10h222q-3 87 -32 119t-111 32h-171q-12 0 -12 11v49q0 14 15 17q60 10 168 10z" />
    <glyph glyph-name="uni044E" unicode="&#x44e;" horiz-adv-x="794" 
d="M510 552q78 0 120.5 -12t67.5 -45q26 -32 35.5 -81.5t9.5 -140.5t-9.5 -140.5t-35.5 -81.5q-25 -32 -67.5 -44t-120.5 -12q-134 0 -181 47q-46 46 -51 187h-107v-214q0 -15 -15 -15h-72q-15 0 -15 15v517q0 15 15 15h72q15 0 15 -15v-214h107q5 141 51 187q47 47 181 47z
M647 273q0 121 -24 158t-113 37t-113 -37t-24 -158q0 -119 24 -157q24 -37 113 -37t113 37q24 38 24 157z" />
    <glyph glyph-name="uni044F" unicode="&#x44f;" horiz-adv-x="545" 
d="M280 552q126 0 183 -7q12 -1 12 -11v-523q0 -11 -12 -11h-77q-12 0 -12 11v188h-97l-128 -183q-10 -16 -31 -16h-72q-20 0 -9 14l131 192q-68 11 -95.5 47t-27.5 116q0 107 50 145q52 38 185 38zM374 277v187h-88q-83 0 -111 -19t-28 -78q0 -58 26 -75q27 -15 113 -15h88
z" />
    <glyph glyph-name="uni0451" unicode="&#x451;" horiz-adv-x="544" 
d="M185 739q61 0 61 -59q0 -61 -61 -61q-62 0 -62 61q0 59 62 59zM372 739q61 0 61 -59q0 -61 -61 -61q-62 0 -62 61q0 59 62 59zM280 552q133 0 177 -53q45 -54 46 -211v-29q0 -16 -7 -22t-30 -6h-318q3 -93 28 -122q26 -30 106 -30h164q15 0 15 -15v-44q0 -14 -14 -16
q-66 -9 -167 -9q-140 0 -184 54q-44 56 -44 224t44 224q43 55 184 55zM280 468q-79 0 -105 -32t-27 -127h259q-1 96 -26 128q-24 31 -101 31z" />
    <glyph glyph-name="Wgrave" unicode="&#x1e80;" horiz-adv-x="1090" 
d="M402 959h88q9 0 12 -6l73 -121q5 -8 -3 -14l-19 -13q-7 -6 -14 0l-142 125q-5 5 -5 12v7q0 10 10 10zM964 757h79q16 0 13 -16l-136 -629q-17 -78 -39 -97q-23 -20 -91 -20q-76 0 -98 19q-21 19 -40 98l-108 453l-108 -453q-13 -56 -26 -78q-12 -22 -36 -30.5t-77 -8.5
q-69 0 -92 20q-21 18 -38 97l-135 629q-3 16 12 16h79q9 0 13 -16l127 -600q7 -33 14 -43t23 -10q20 0 27.5 9t15.5 44l143 569q4 16 18 16h80q13 0 17 -16l143 -569q9 -36 16 -44.5t27 -8.5q16 0 23 10t14 43l127 600q4 16 13 16z" />
    <glyph glyph-name="wgrave" unicode="&#x1e81;" horiz-adv-x="836" 
d="M275 759h88q9 0 12 -6l73 -121q5 -8 -3 -14l-19 -13q-7 -6 -14 0l-142 125q-5 5 -5 12v7q0 10 10 10zM720 547h72q8 0 10.5 -3t1.5 -13l-88 -423q-17 -75 -36 -94t-81 -19q-64 0 -81 17q-17 19 -35 96l-65 280l-65 -280q-18 -77 -35 -96q-17 -17 -81 -17q-61 0 -81 19
q-19 19 -36 94l-88 423q-1 10 1.5 13t10.5 3h73q8 0 12 -16l82 -411q6 -25 11 -31.5t16 -6.5q13 0 17 6t10 32l97 395q4 16 14 16h84q10 0 14 -16l97 -395q6 -26 10 -32t17 -6q11 0 16 6.5t11 31.5l82 411q2 10 4.5 13t8.5 3z" />
    <glyph glyph-name="Wacute" unicode="&#x1e82;" horiz-adv-x="1090" 
d="M589 959h89q10 0 10 -10v-7q0 -7 -5 -12l-142 -125q-7 -6 -14 0l-20 13q-8 6 -3 14l73 121q3 6 12 6zM964 757h79q16 0 13 -16l-136 -629q-17 -78 -39 -97q-23 -20 -91 -20q-76 0 -98 19q-21 19 -40 98l-108 453l-108 -453q-13 -56 -26 -78q-12 -22 -36 -30.5t-77 -8.5
q-69 0 -92 20q-21 18 -38 97l-135 629q-3 16 12 16h79q9 0 13 -16l127 -600q7 -33 14 -43t23 -10q20 0 27.5 9t15.5 44l143 569q4 16 18 16h80q13 0 17 -16l143 -569q9 -36 16 -44.5t27 -8.5q16 0 23 10t14 43l127 600q4 16 13 16z" />
    <glyph glyph-name="wacute" unicode="&#x1e83;" horiz-adv-x="836" 
d="M463 759h89q10 0 10 -10v-7q0 -7 -5 -12l-142 -125q-7 -6 -14 0l-20 13q-8 6 -3 14l73 121q3 6 12 6zM720 547h72q8 0 10.5 -3t1.5 -13l-88 -423q-17 -75 -36 -94t-81 -19q-64 0 -81 17q-17 19 -35 96l-65 280l-65 -280q-18 -77 -35 -96q-17 -17 -81 -17q-61 0 -81 19
q-19 19 -36 94l-88 423q-1 10 1.5 13t10.5 3h73q8 0 12 -16l82 -411q6 -25 11 -31.5t16 -6.5q13 0 17 6t10 32l97 395q4 16 14 16h84q10 0 14 -16l97 -395q6 -26 10 -32t17 -6q11 0 16 6.5t11 31.5l82 411q2 10 4.5 13t8.5 3z" />
    <glyph glyph-name="Wdieresis" unicode="&#x1e84;" horiz-adv-x="1090" 
d="M451 939q60 0 60 -59q0 -61 -60 -61q-62 0 -62 61q0 59 62 59zM637 939q62 0 62 -59q0 -61 -62 -61q-61 0 -61 61q0 59 61 59zM964 757h79q16 0 13 -16l-136 -629q-17 -78 -39 -97q-23 -20 -91 -20q-76 0 -98 19q-21 19 -40 98l-108 453l-108 -453q-13 -56 -26 -78
q-12 -22 -36 -30.5t-77 -8.5q-69 0 -92 20q-21 18 -38 97l-135 629q-3 16 12 16h79q9 0 13 -16l127 -600q7 -33 14 -43t23 -10q20 0 27.5 9t15.5 44l143 569q4 16 18 16h80q13 0 17 -16l143 -569q9 -36 16 -44.5t27 -8.5q16 0 23 10t14 43l127 600q4 16 13 16z" />
    <glyph glyph-name="wdieresis" unicode="&#x1e85;" horiz-adv-x="836" 
d="M325 739q61 0 61 -59q0 -61 -61 -61q-62 0 -62 61q0 59 62 59zM512 739q61 0 61 -59q0 -61 -61 -61q-62 0 -62 61q0 59 62 59zM720 547h72q8 0 10.5 -3t1.5 -13l-88 -423q-17 -75 -36 -94t-81 -19q-64 0 -81 17q-17 19 -35 96l-65 280l-65 -280q-18 -77 -35 -96
q-17 -17 -81 -17q-61 0 -81 19q-19 19 -36 94l-88 423q-1 10 1.5 13t10.5 3h73q8 0 12 -16l82 -411q6 -25 11 -31.5t16 -6.5q13 0 17 6t10 32l97 395q4 16 14 16h84q10 0 14 -16l97 -395q6 -26 10 -32t17 -6q11 0 16 6.5t11 31.5l82 411q2 10 4.5 13t8.5 3z" />
    <glyph glyph-name="Ygrave" unicode="&#x1ef2;" horiz-adv-x="660" 
d="M190 959h89q9 0 12 -6l73 -121q5 -8 -3 -14l-20 -13q-7 -6 -14 0l-142 125q-5 5 -5 12v7q0 10 10 10zM564 757h77q23 0 11 -22l-271 -505v-215q0 -15 -15 -15h-72q-15 0 -15 15v215l-271 505q-12 22 11 22h78q17 0 27 -16l206 -401l207 401q7 16 27 16z" />
    <glyph glyph-name="ygrave" unicode="&#x1ef3;" horiz-adv-x="590" 
d="M172 759h89q9 0 12 -6l73 -121q5 -8 -3 -14l-20 -13q-7 -6 -14 0l-142 125q-5 5 -5 12v7q0 10 10 10zM440 547h66q15 0 15 -15v-482q0 -80 -9.5 -124.5t-34.5 -74.5q-26 -30 -69 -42t-118 -12q-84 0 -151 9q-14 2 -14 16v43q0 15 15 15h148q83 0 110 24t27 93v6
q-53 -8 -132 -8q-140 0 -185 54q-44 56 -44 219v264q0 15 15 15h65q15 0 15 -15v-258q0 -120 24 -158q25 -37 116 -37q74 0 126 7v446q0 15 15 15z" />
    <glyph glyph-name="uni1EF8" unicode="&#x1ef8;" horiz-adv-x="660" 
d="M260 940q23 0 71 -20q49 -20 64 -20q18 0 27.5 7t18.5 27q8 15 19 11l23 -6q16 -5 11 -23q-18 -57 -37 -76.5t-57 -19.5q-23 0 -72 20q-48 20 -63 20q-19 0 -28 -7t-18 -27q-8 -14 -19 -10l-23 6q-16 5 -11 22q18 58 37 77t57 19zM564 757h77q23 0 11 -22l-271 -505v-215
q0 -15 -15 -15h-72q-15 0 -15 15v215l-271 505q-12 22 11 22h78q17 0 27 -16l206 -401l207 401q7 16 27 16z" />
    <glyph glyph-name="uni1EF9" unicode="&#x1ef9;" horiz-adv-x="590" 
d="M231 740q23 0 71 -20q49 -20 64 -20q18 0 27.5 7t18.5 27q8 15 19 11l23 -6q16 -5 11 -23q-18 -57 -37 -76.5t-57 -19.5q-23 0 -72 20q-48 20 -63 20q-19 0 -28 -7t-18 -27q-8 -14 -19 -10l-23 6q-16 5 -11 22q18 58 37 77t57 19zM440 547h66q15 0 15 -15v-482
q0 -80 -9.5 -124.5t-34.5 -74.5q-26 -30 -69 -42t-118 -12q-84 0 -151 9q-14 2 -14 16v43q0 15 15 15h148q83 0 110 24t27 93v6q-53 -8 -132 -8q-140 0 -185 54q-44 56 -44 219v264q0 15 15 15h65q15 0 15 -15v-258q0 -120 24 -158q25 -37 116 -37q74 0 126 7v446
q0 15 15 15z" />
    <glyph glyph-name="endash" unicode="&#x2013;" horiz-adv-x="621" 
d="M81 319h459q15 0 15 -15v-59q0 -15 -15 -15h-459q-16 0 -16 15v59q0 15 16 15z" />
    <glyph glyph-name="emdash" unicode="&#x2014;" horiz-adv-x="903" 
d="M81 319h741q15 0 15 -15v-59q0 -15 -15 -15h-741q-16 0 -16 15v59q0 15 16 15z" />
    <glyph glyph-name="quoteleft.001" unicode="&#x2018;" horiz-adv-x="256" 
d="M194 756l23 -13q7 -4 3 -14l-69 -236q-3 -8 -13 -8h-90q-10 0 -10 10v14q0 5 5 13l137 229q6 10 14 5z" />
    <glyph glyph-name="quoteright" unicode="&#x2019;" horiz-adv-x="249" 
d="M125 757h90q10 0 10 -10v-14q0 -5 -5 -13l-136 -229q-8 -9 -15 -5l-23 12q-7 4 -3 14l69 237q3 8 13 8z" />
    <glyph glyph-name="quotesinglbase" unicode="&#x201a;" horiz-adv-x="242" 
d="M88 119h91q10 0 10 -10v-14q0 -5 -5 -13l-137 -229q-6 -10 -14 -5l-24 12q-7 4 -3 14l70 236q3 9 12 9z" />
    <glyph glyph-name="quotedblleft.001" unicode="&#x201c;" horiz-adv-x="443" 
d="M194 756l24 -13q7 -4 3 -14l-69 -236q-3 -8 -13 -8h-91q-10 0 -10 10v14q0 5 5 13l137 229q6 10 14 5zM380 756l24 -13q7 -4 3 -14l-69 -236q-3 -8 -13 -8h-91q-10 0 -10 10v14q0 5 5 13l137 229q6 10 14 5z" />
    <glyph glyph-name="quotedblright" unicode="&#x201d;" horiz-adv-x="448" 
d="M125 757h90q10 0 10 -10v-14q0 -5 -5 -13l-136 -229q-8 -9 -15 -5l-23 12q-7 4 -3 14l69 237q3 8 13 8zM324 757h90q10 0 10 -10v-14q0 -5 -5 -13l-137 -229q-6 -10 -14 -5l-23 12q-7 4 -3 14l69 237q3 8 13 8z" />
    <glyph glyph-name="quotedblbase" unicode="&#x201e;" horiz-adv-x="437" 
d="M89 119h90q10 0 10 -10v-14q0 -5 -5 -13l-137 -229q-6 -10 -14 -5l-23 12q-7 4 -3 14l69 236q3 9 13 9zM283 119h91q10 0 10 -10v-14q0 -5 -5 -13l-137 -229q-6 -10 -14 -5l-24 12q-7 4 -3 14l69 236q3 9 13 9z" />
    <glyph glyph-name="dagger.001" unicode="&#x2020;" horiz-adv-x="478" 
d="M416 482h-129v-467q0 -15 -15 -15h-66q-15 0 -15 15v468h-129q-15 0 -15 15v53q0 15 15 15h129v176q0 15 15 15h66q15 0 15 -15v-176h129q15 0 15 -15v-54q0 -15 -15 -15z" />
    <glyph glyph-name="daggerdbl" unicode="&#x2021;" horiz-adv-x="478" 
d="M206 757h66q15 0 15 -15v-176h129q15 0 15 -15v-54q0 -15 -15 -15h-129v-191h129q15 0 15 -15v-54q0 -15 -15 -15h-129v-192q0 -15 -15 -15h-66q-15 0 -15 15v193h-129q-15 0 -15 15v53q0 15 15 15h129v192h-129q-15 0 -15 15v53q0 15 15 15h129v176q0 15 15 15z" />
    <glyph glyph-name="bullet" unicode="&#x2022;" horiz-adv-x="560" 
d="M280 427q72 0 112.5 -36.5t40.5 -100.5q0 -65 -40.5 -101.5t-112.5 -36.5q-73 0 -113.5 36.5t-40.5 101.5t40.5 101t113.5 36z" />
    <glyph glyph-name="ellipsis.001" unicode="&#x2026;" horiz-adv-x="599" 
d="M170 54q0 -59 -59 -59t-59 59q0 57 59 57t59 -57zM358 54q0 -59 -59 -59t-59 59q0 57 59 57t59 -57zM488 111q59 0 59 -57q0 -59 -59 -59q-60 0 -60 59q0 57 60 57z" />
    <glyph glyph-name="perthousand.001" unicode="&#x2030;" horiz-adv-x="1348" 
d="M72 718q37 43 141 43t141 -43q38 -44 38 -160t-38 -160q-37 -43 -141 -43t-141 43q-38 44 -38 160t38 160zM637 757h44q15 0 6 -15l-381 -727q-8 -15 -23 -15h-44q-15 0 -7 15l381 727q9 15 24 15zM302 558q0 70 -19 96.5t-70 26.5t-69.5 -26t-18.5 -97t18.5 -97.5
t69.5 -26.5t70 26.5t19 97.5zM704 401q104 0 141 -43q38 -44 38 -160t-38 -160q-37 -43 -141 -43t-141 43q-38 44 -38 160t38 160q37 43 141 43zM994 358q37 43 141 43t141 -43q38 -44 38 -160t-38 -160q-37 -43 -141 -43t-141 43q-38 44 -38 160t38 160zM704 322
q-50 0 -69 -26.5t-19 -97.5t19 -97.5t69 -26.5q51 0 70 26.5t19 97.5t-19 97.5t-70 26.5zM1205 295q-19 27 -70 27t-70 -27q-18 -25 -18 -97q0 -71 18 -98q20 -26 70 -26t70 26q19 26 19 98t-19 97z" />
    <glyph glyph-name="guilsinglleft" unicode="&#x2039;" horiz-adv-x="310" 
d="M175 466h65q15 0 15 -15v-7q0 -11 -7 -18l-123 -153l123 -152q7 -7 7 -18v-7q0 -15 -15 -15h-65q-11 0 -18 9l-111 145q-7 7 -7 19v38q0 10 7 20l111 145q7 9 18 9z" />
    <glyph glyph-name="guilsinglright" unicode="&#x203a;" horiz-adv-x="310" 
d="M70 466h65q11 0 18 -9l112 -145q6 -10 6 -20v-38q0 -10 -6 -19l-112 -145q-7 -9 -18 -9h-65q-15 0 -15 15v7q0 11 7 18l123 152l-123 153q-7 7 -7 18v7q0 15 15 15z" />
    <glyph glyph-name="fraction.001" unicode="&#x2044;" horiz-adv-x="140" 
d="M236 791h31q13 0 7 -17l-344 -791q-8 -17 -23 -17h-33q-16 0 -7 17l346 791q8 17 23 17z" />
    <glyph glyph-name="uni2070" unicode="&#x2070;" horiz-adv-x="389" 
d="M194 914q92 0 124 -44t32 -164t-32 -164q-32 -42 -124 -42q-93 0 -124 43t-31 163q0 121 31 164q32 44 124 44zM194 847q-46 0 -63 -30q-16 -28 -16 -111t16 -111t63 -28q48 0 64 28t16 111t-16 111q-17 30 -64 30z" />
    <glyph glyph-name="uni2074" unicode="&#x2074;" horiz-adv-x="375" 
d="M106 911h63q9 0 5 -7l-67 -231h104v91q0 5 5 7l64 21q7 1 7 -6v-113h59q7 0 7 -6v-54q0 -6 -7 -6h-59v-97q0 -7 -7 -7h-63q-6 0 -6 7v97h-179q-6 0 -6 6v40q0 8 4 17l69 236q2 5 7 5z" />
    <glyph glyph-name="uni2075" unicode="&#x2075;" horiz-adv-x="348" 
d="M63 911h230q7 0 7 -6v-55q0 -6 -7 -6h-175l-6 -98q25 5 62 5q139 0 139 -99v-53q-4 -58 -42 -79.5t-108 -19.5q-64 0 -112 8q-10 3 -10 12v40q0 7 6 7h106q46 0 65 10.5t19 38.5v18q0 29 -19 40t-65 11h-100q-12 0 -12 10v46l13 162q2 8 9 8z" />
    <glyph glyph-name="uni2076" unicode="&#x2076;" horiz-adv-x="356" 
d="M154 911h67q9 0 4 -8l-81 -161q17 7 53 7q131 0 131 -92v-61q0 -54 -36.5 -75t-110.5 -21q-76 0 -112.5 21.5t-36.5 75.5v56q0 27 9 48l106 205q2 5 7 5zM181 687q-43 0 -58 -10t-15 -40v-21q0 -29 15.5 -39t57.5 -10t56.5 9.5t14.5 39.5v21q0 30 -14.5 40t-56.5 10z" />
    <glyph glyph-name="uni2077" unicode="&#x2077;" horiz-adv-x="339" 
d="M30 911h281q7 0 7 -6v-42q0 -5 -4 -9l-182 -347q-1 -4 -6 -4h-75q-8 0 -4 7l177 334h-194q-7 0 -7 6v55q0 6 7 6z" />
    <glyph glyph-name="uni2078" unicode="&#x2078;" horiz-adv-x="381" 
d="M187 914h9q139 0 139 -112q0 -69 -56 -99q67 -25 67 -93q0 -110 -151 -110h-10q-150 0 -150 109q0 72 69 105q-31 15 -43.5 35.5t-12.5 53.5q0 111 139 111zM194 847h-5q-65 0 -65 -53q0 -38 46 -48l57 -12q32 17 32 58q0 55 -65 55zM224 669l-68 16q-45 -18 -45 -60
q0 -58 76 -58h6q77 0 77 50q0 42 -46 52z" />
    <glyph glyph-name="uni2079" unicode="&#x2079;" horiz-adv-x="356" 
d="M174 913q76 0 113 -22t37 -76v-56q0 -28 -10 -47l-106 -205q-1 -4 -7 -4h-66q-7 0 -4 7l82 161q-18 -6 -54 -6q-131 0 -131 92v60q0 54 36 75t110 21zM174 846q-41 0 -55.5 -10t-14.5 -39v-21q0 -30 14.5 -40t55.5 -10q43 0 58.5 10t15.5 40v21q0 29 -15.5 39t-58.5 10z
" />
    <glyph glyph-name="uni207D" unicode="&#x207d;" horiz-adv-x="208" 
d="M131 936h53q4 0 4 -4v-4q0 -5 -1 -6q-35 -48 -49.5 -72.5t-22.5 -54.5q-6 -25 -8 -48v-65q0 -70 12 -104q16 -41 68 -135q1 -1 1 -6v-4q0 -4 -4 -4h-53q-5 0 -8 3q-57 64 -71 108q-13 40 -13 123v19v33v31q0 41 4 53q1 2 3.5 13t5.5 21t7 15q39 61 64 84q3 4 8 4z" />
    <glyph glyph-name="uni207E" unicode="&#x207e;" horiz-adv-x="208" 
d="M24 936h53q4 0 7 -4q58 -66 72 -108q13 -40 13 -123v-19v-33v-31q0 -40 -4 -52q-1 -2 -3.5 -13t-6 -21t-7.5 -16q-37 -57 -64 -84q-3 -3 -7 -3h-53q-4 0 -4 4v4q0 5 1 6q59 78 69 117q11 41 11 122q0 31 -2 59q-1 20 -15 55q-14 34 -21 48l-42 78q-1 1 -1 6v4q0 4 4 4z
" />
    <glyph glyph-name="lira" unicode="&#x20a4;" horiz-adv-x="624" 
d="M442 757q40 0 108 -5q15 -3 15 -13v-61q0 -10 -15 -10h-120q-119 0 -159 -28q-40 -27 -40 -107v-118h247q15 0 15 -15v-30q0 -15 -15 -15h-247v-70h247q15 0 15 -15v-31q0 -15 -15 -15h-247v-135h344q15 0 15 -15v-59q0 -15 -15 -15h-529q-16 0 -13 15l10 59q3 15 17 15
h69v135h-54q-15 0 -15 15v31q0 15 15 15h54v70h-54q-15 0 -15 15v30q0 15 15 15h54v123q0 132 64 175q65 44 249 44z" />
    <glyph glyph-name="Euro" unicode="&#x20ac;" horiz-adv-x="640" 
d="M569 673h-123q-108 0 -150 -42q-42 -41 -50 -154h262q16 0 12 -15l-10 -34q-3 -15 -18 -15h-249v-35v-25h233q14 0 11 -15l-9 -34q-4 -15 -19 -15h-214q7 -117 49 -162q42 -43 152 -43h134q15 0 15 -15v-47q0 -15 -15 -18q-64 -9 -134 -9q-164 0 -229 62q-63 62 -74 232
h-105q-16 0 -11 15l10 34q3 15 19 15h85v25v35h-70q-15 0 -12 15l10 34q5 15 19 15h56q10 161 76 224q64 61 226 61q70 0 137 -10q19 -2 15 -21l-13 -43q-6 -15 -16 -15z" />
    <glyph glyph-name="uni20B9" unicode="&#x20b9;" horiz-adv-x="676" 
d="M68 756h559q15 0 15 -15v-32q0 -15 -15 -15h-178q36 -42 42 -129h136q16 0 16 -15v-32q0 -15 -16 -15h-135q-2 -111 -38 -156q-36 -46 -125 -58l169 -269q6 -8 2.5 -14t-14.5 -6h-64q-25 0 -40 22l-166 261h-148q-15 0 -15 15v56q0 15 15 15h116q47 0 62 1q64 2 86 11
q31 12 44.5 39.5t14.5 82.5h-323q-15 0 -15 15v32q0 15 15 15h320q-8 68 -50 88q-43 20 -154 20h-116q-15 0 -15 15v53q0 15 15 15z" />
    <glyph glyph-name="uni20BD" unicode="&#x20bd;" horiz-adv-x="697" 
d="M361 302h-126v-66h174q15 0 15 -15v-48q0 -15 -15 -15h-174v-143q0 -9 -3 -12t-12 -3h-72q-9 0 -12 3t-3 12v143h-77q-15 0 -15 15v48q0 15 15 15h77v75h-77q-15 0 -15 15v47q0 15 15 15h77v352q0 9 3 11.5t12 3.5q92 7 213 7q135 0 202 -22q54 -20 74.5 -66t23.5 -143
q0 -79 -15.5 -124t-49.5 -70q-21 -15 -58 -22q-60 -13 -177 -13zM235 673v-285h118q31 0 101 2q34 3 63 16q19 8 32 42q10 22 10 81q5 90 -41 124q-11 8 -40 13q-36 7 -125 7h-118z" />
    <glyph glyph-name="uni2113" unicode="&#x2113;" horiz-adv-x="416" 
d="M212 762q69 0 108 -19q48 -23 48 -95v-327q0 -73 -48 -95q-37 -18 -107 -18h-57v-78q0 -30 13.5 -42t46.5 -14h99q15 0 15 -15v-40q0 -14 -14 -16q-69 -8 -101 -8q-74 0 -111 25t-37 89v539q0 64 36 89t109 25zM218 683q-34 0 -48 -11.5t-14 -43.5v-342h61q35 2 48.5 14
t13.5 42v286q0 31 -14 43t-47 12z" />
    <glyph glyph-name="uni2116" unicode="&#x2116;" horiz-adv-x="1081" 
d="M1041 633q0 -128 -134 -128t-134 128q0 129 134 129t134 -129zM610 757h71q15 0 15 -16v-726q0 -15 -15 -15h-61q-23 0 -35 18l-395 595v-598q0 -15 -15 -15h-71q-15 0 -15 15v726q0 16 15 16h68q26 -1 35.5 -6t21.5 -23l366 -551v564q0 16 15 16zM907 700q-68 0 -68 -67
t68 -67q67 0 67 67t-67 67zM788 442h238q15 0 15 -15v-27q0 -15 -15 -15h-238q-15 0 -15 15v27q0 15 15 15z" />
    <glyph glyph-name="uni2117" unicode="&#x2117;" horiz-adv-x="864" 
d="M720 85q-92 -93 -288 -93t-288 93q-92 94 -92 290t92 290q92 93 288 93t288 -93q92 -94 92 -290t-92 -290zM432 701q-167 0 -245 -78.5t-78 -247.5q0 -167 78 -247q79 -79 245 -79t244 79q79 79 79 247t-78.5 247t-244.5 79zM595 439q0 -73 -31 -98q-32 -24 -115 -24h-62
v-133q0 -7 -6 -7h-69q-6 0 -6 7v373q0 5 6 5q54 6 137 6t114.5 -27.5t31.5 -101.5zM440 497h-53v-120h53q42 0 57 12t15 47q0 36 -15 48.5t-57 12.5z" />
    <glyph glyph-name="uni2120" unicode="&#x2120;" horiz-adv-x="1022" 
d="M231 759q61 0 125 -11q8 -2 8 -8v-46q0 -7 -8 -7h-141q-65 0 -65 -45v-8q0 -35 40 -51l117 -48q44 -17 62 -42.5t18 -72.5v-17q0 -60 -42 -85.5t-127 -25.5t-149 10q-7 3 -7 10v44q0 8 8 8h171q62 0 62 42v9q0 39 -45 56l-124 47q-36 14 -51.5 41t-15.5 75v14
q0 60 40 85.5t124 25.5zM850 756h64q7 0 7 -10l43 -442q2 -9 -9 -9h-65q-8 0 -10 9l-27 305l-114 -292q-3 -8 -12 -8h-51q-8 0 -13 8l-115 293l-27 -306q-1 -9 -9 -9h-65q-9 0 -9 8l41 443q1 9 9 9h64q13 0 19 -4.5t11 -18.5l118 -307l119 307q5 14 11.5 19t19.5 5z" />
    <glyph glyph-name="trademark.001" unicode="&#x2122;" horiz-adv-x="990" 
d="M35 756h341q10 0 10 -10v-54q0 -8 -10 -8h-129v-381q0 -8 -8 -8h-66q-8 0 -8 8v381h-130q-8 0 -8 8v54q0 10 8 10zM817 756h63q8 0 8 -11l43 -441q0 -9 -9 -9h-65q-7 0 -9 9l-27 305l-115 -292q-3 -8 -13 -8h-51q-9 0 -12 8l-115 293l-28 -306q0 -9 -8 -9h-65q-9 0 -9 9
l41 443q2 9 8 9h65q22 0 31 -23l117 -309l119 309q9 23 31 23z" />
    <glyph glyph-name="Omega" unicode="&#x2126;" horiz-adv-x="858" 
d="M429 760q193 0 284 -89.5t91 -281.5q0 -110 -53 -196q-52 -85 -156 -115h179q15 0 15 -15v-48q0 -15 -15 -15h-263q-15 0 -15 15v95q0 14 14 16q78 10 138 81t60 179q0 149 -67.5 219t-211.5 70q-143 0 -211 -70t-68 -219q0 -108 60 -179t138 -81q14 -2 14 -16v-95
q0 -15 -15 -15h-263q-15 0 -15 15v48q0 15 15 15h180q-103 30 -157 115q-53 86 -53 196q0 191 91.5 281t283.5 90z" />
    <glyph glyph-name="estimated" unicode="&#x212e;" 
d="M323 575q125 0 198 -85q75 -84 75 -206h-429v-193q66 -63 152 -63q72 0 120 31t90 96l31 -19q-47 -72 -102.5 -106.5t-138.5 -34.5q-119 0 -195 84q-76 85 -76 206q0 123 75 206q75 84 200 84zM323 542q-96 0 -156 -62v-163h309v163q-68 62 -153 62z" />
    <glyph glyph-name="oneeighth" unicode="&#x215b;" horiz-adv-x="858" 
d="M569 791h31q13 0 7 -17l-345 -791q-8 -17 -23 -17h-32q-15 0 -7 17l346 791q8 17 23 17zM257 409v-54q0 -6 -7 -6h-202q-7 0 -7 7v53q0 7 7 7h66v253q0 29 -35 29h-36q-7 0 -7 6v42q0 8 7 9q37 5 53 5q45 0 67.5 -15.5t22.5 -56.5v-272h64q7 0 7 -7zM759 200
q67 -25 67 -93q0 -110 -151 -110h-10q-150 0 -150 109q0 72 69 105q-31 15 -43.5 35.5t-12.5 53.5q0 111 139 111h9q139 0 139 -112q0 -69 -56 -99zM674 344h-5q-64 0 -64 -53q0 -37 45 -48l57 -12q32 17 32 58q0 55 -65 55zM667 64h6q77 0 77 50q0 42 -46 52l-68 16
q-45 -18 -45 -60q0 -58 76 -58z" />
    <glyph glyph-name="threeeighths" unicode="&#x215c;" horiz-adv-x="915" 
d="M606 791h31q13 0 7 -17l-344 -791q-8 -17 -23 -17h-33q-16 0 -7 17l346 791q8 17 23 17zM168 760q71 0 108 -22.5t37 -76.5v-30q0 -66 -66 -78q66 -11 66 -79v-30q0 -54 -37 -76t-108 -22q-58 0 -117 8q-11 2 -11 13v39q0 6 6 6h108q46 0 65 10t19 39v12q0 28 -19.5 39
t-65.5 11h-80q-7 0 -7 7v46q0 6 7 6h79q46 0 66 11t20 39v13q0 28 -19 38t-65 10h-108q-6 0 -6 6v40q0 10 11 12q42 9 117 9zM725 411h9q138 0 138 -112q0 -69 -55 -99q66 -26 66 -93q0 -110 -150 -110h-10q-150 0 -150 109q0 74 69 105q-31 15 -43.5 35.5t-12.5 53.5
q0 111 139 111zM732 344h-6q-64 0 -64 -53q0 -38 46 -48l56 -12q32 17 32 58q0 55 -64 55zM762 166l-68 16q-45 -18 -45 -60q0 -58 76 -58h6q76 0 76 50q0 42 -45 52z" />
    <glyph glyph-name="fiveeighths" unicode="&#x215d;" horiz-adv-x="889" 
d="M603 791h31q13 0 7 -17l-345 -791q-8 -17 -23 -17h-32q-15 0 -7 17l346 791q8 17 23 17zM65 757h231q6 0 6 -6v-55q0 -6 -6 -6h-175l-6 -98q25 5 62 5q138 0 138 -99v-53q-4 -58 -42 -79.5t-108 -19.5q-65 0 -111 8q-10 3 -10 12v40q0 7 6 7h105q46 0 65 10.5t19 38.5v18
q0 29 -19 40t-65 11h-99q-12 0 -12 10v46l13 162q0 8 8 8zM698 411h9q139 0 139 -112q0 -69 -56 -99q67 -25 67 -93q0 -110 -151 -110h-10q-150 0 -150 109q0 72 69 105q-31 15 -43.5 35.5t-12.5 53.5q0 111 139 111zM705 344h-5q-64 0 -64 -53q0 -37 45 -48l57 -12
q32 17 32 58q0 55 -65 55zM736 166l-68 16q-45 -16 -45 -60q0 -58 75 -58h6q77 0 77 50q0 42 -45 52z" />
    <glyph glyph-name="seveneighths" unicode="&#x215e;" horiz-adv-x="842" 
d="M531 791h31q13 0 7 -17l-345 -791q-8 -17 -23 -17h-32q-15 0 -7 17l346 791q8 17 23 17zM35 757h281q7 0 7 -6v-42q0 -6 -3 -9l-182 -347q-1 -4 -7 -4h-75q-7 0 -4 7l177 334h-194q-7 0 -7 6v55q0 6 7 6zM651 411h9q139 0 139 -112q0 -67 -56 -99q67 -25 67 -93
q0 -110 -151 -110h-10q-150 0 -150 109q0 72 69 105q-31 15 -43.5 35.5t-12.5 53.5q0 111 139 111zM658 344h-6q-64 0 -64 -53q0 -38 46 -48l57 -12q31 16 31 58q0 55 -64 55zM688 166l-68 16q-45 -18 -45 -60q0 -58 76 -58h6q76 0 76 50q0 42 -45 52z" />
    <glyph glyph-name="arrowleft" unicode="&#x2190;" horiz-adv-x="896" 
d="M393 489h26q9 0 9 -9v-150h372q15 0 15 -15v-55q0 -15 -15 -15h-372v-150q0 -9 -9 -9h-26q-5 0 -17 5l-294 167q-9 4 -9 18v23q0 13 9 18l295 167q13 5 16 5z" />
    <glyph glyph-name="arrowup" unicode="&#x2191;" horiz-adv-x="535" 
d="M256 659h23q13 0 18 -9l167 -294q5 -12 5 -18v-25q0 -9 -9 -9h-150v-373q0 -15 -15 -15h-55q-15 0 -15 15v373h-150q-9 0 -9 9v25q0 2 5 17l167 295q4 9 18 9z" />
    <glyph glyph-name="arrowright" unicode="&#x2192;" horiz-adv-x="896" 
d="M477 489h26q1 0 16 -5l295 -167q9 -5 9 -18v-23q0 -14 -9 -18l-294 -167q-12 -5 -17 -5h-26q-9 0 -9 9v150h-372q-15 0 -15 15v55q0 15 15 15h372v150q0 9 9 9z" />
    <glyph glyph-name="arrowdown" unicode="&#x2193;" horiz-adv-x="533" 
d="M239 659h55q15 0 15 -15v-372h150q9 0 9 -10v-25q0 -4 -5 -17l-167 -294q-4 -10 -18 -10h-23q-14 0 -18 10l-167 293q-5 12 -5 18v25q0 10 9 10h150v372q0 15 15 15z" />
    <glyph glyph-name="arrowboth" unicode="&#x2194;" horiz-adv-x="1123" 
d="M704 489h25q4 0 17 -5l295 -167q9 -5 9 -18v-23q0 -14 -9 -18l-294 -167q-12 -5 -18 -5h-25q-9 0 -9 9v150h-267v-150q0 -9 -9 -9h-26q-5 0 -17 5l-294 167q-9 4 -9 18v23q0 13 9 18l295 167q13 5 16 5h26q9 0 9 -9v-150h267v150q0 9 9 9z" />
    <glyph glyph-name="arrowupdn" unicode="&#x2195;" horiz-adv-x="555" 
d="M266 777h23q13 -1 18 -10l167 -294q5 -12 5 -17v-25q0 -10 -9 -10h-150v-266h150q9 0 9 -10v-25q0 -5 -5 -18l-167 -293q-4 -10 -18 -10h-23q-14 0 -18 10l-167 294l-5 17v25q0 10 9 10h150v266h-150q-9 0 -9 10v25q0 3 5 16l167 295q4 10 18 10z" />
    <glyph glyph-name="uni2196" unicode="&#x2196;" horiz-adv-x="697" 
d="M112 569l326 -90q10 -5 15 -9l18 -17q7 -7 0 -14l-106 -106l263 -263q12 -10 0 -21l-38 -39q-11 -11 -22 0l-263 263l-106 -106q-6 -6 -13 0l-18 18q-5 7 -8 16l-90 326q-3 10 6 19l16 17q8 9 20 6z" />
    <glyph glyph-name="uni2197" unicode="&#x2197;" horiz-adv-x="696" 
d="M258 478l326 92q11 3 20 -8l15 -15q10 -10 7 -19l-90 -326q-3 -11 -8 -16l-19 -19q-7 -6 -13 0l-105 106l-263 -263q-12 -10 -22 0l-39 39q-10 10 0 22l263 263l-106 105q-4 7 0 14l18 18q2 3 16 7z" />
    <glyph glyph-name="uni2198" unicode="&#x2198;" horiz-adv-x="697" 
d="M127 565l264 -263l105 106q6 6 13 0l19 -18q1 -1 7 -16l91 -327q3 -9 -7 -19l-15 -16q-10 -10 -20 -7l-326 91q-11 3 -16 8l-18 18q-6 8 0 14l106 105l-263 263q-10 12 0 22l38 39q12 10 22 0z" />
    <glyph glyph-name="uni2199" unicode="&#x2199;" horiz-adv-x="696" 
d="M591 565l38 -40q11 -11 0 -21l-263 -263l107 -106q7 -7 -1 -13l-18 -18q-4 -4 -15 -8l-326 -91q-10 -3 -20 7l-16 16q-10 10 -6 19l89 326q5 13 9 17l18 17q7 7 13 0l107 -105l263 263q10 11 21 0z" />
    <glyph glyph-name="partialdiff" unicode="&#x2202;" horiz-adv-x="634" 
d="M392 757h81q12 0 15 -10l98 -387q10 -50 -9 -123l-4 -20q-30 -118 -106 -170t-216 -52q-139 0 -188.5 52t-19.5 169l4 21q30 116 105.5 168t211.5 52q52 0 85 -11l-72 293q-5 18 15 18zM147 228v-4q-20 -75 9.5 -107.5t116.5 -32.5q88 0 134 32.5t66 108.5l1 3
q19 76 -10.5 108.5t-117.5 32.5q-87 0 -133 -32.5t-66 -108.5z" />
    <glyph glyph-name="Delta" unicode="&#x2206;" horiz-adv-x="680" 
d="M301 702h80q12 0 18 -12l256 -660q3 -8 3 -12v-12q0 -6 -7 -6h-621q-8 0 -8 6v12q0 4 3 12l258 660q6 12 18 12zM542 92l-202 511l-190 -511h392z" />
    <glyph glyph-name="product.001" unicode="&#x220f;" horiz-adv-x="667" 
d="M22 805h622q15 0 15 -15v-54q0 -15 -15 -15h-83v-761q0 -15 -15 -15h-60q-15 0 -15 15v761h-275v-761q0 -15 -15 -15h-60q-15 0 -15 15v761h-84q-15 0 -15 15v54q0 15 15 15z" />
    <glyph glyph-name="summation.001" unicode="&#x2211;" horiz-adv-x="581" 
d="M32 805h477q15 0 15 -15v-58q0 -15 -15 -15h-367l211 -324q5 -8 5 -18v-7q0 -11 -5 -19l-211 -323h405q15 0 15 -15v-59q0 -15 -15 -15h-516q-15 0 -15 15v41q0 9 6 18l219 338q6 9 6 18v4q0 11 -5 19l-219 341q-6 9 -6 18v41q0 15 15 15z" />
    <glyph glyph-name="minus" unicode="&#x2212;" horiz-adv-x="527" 
d="M83 350h361q15 0 15 -15v-60q0 -15 -15 -15h-361q-15 0 -15 15v60q0 15 15 15z" />
    <glyph glyph-name="radical" unicode="&#x221a;" horiz-adv-x="574" 
d="M473 815h69q18 0 13 -17l-203 -861q-3 -13 -17 -13h-72q-13 0 -17 12l-142 407l-55 -26q-14 -6 -20 8l-21 52q-6 14 9 20l138 59q14 6 19 -9l118 -346l164 701q3 13 17 13z" />
    <glyph glyph-name="infinity.001" unicode="&#x221e;" horiz-adv-x="864" 
d="M638 472q90 0 132 -41.5t42 -130.5q0 -90 -42 -132t-132 -42q-88 2 -161 73l-45 43l-44 -42q-80 -74 -162 -74q-91 0 -132.5 42t-41.5 132q0 89 41.5 130.5t132.5 41.5q81 0 160 -71l47 -44l46 44q74 71 159 71zM233 389q-94 0 -94 -90q0 -46 22.5 -67.5t71.5 -21.5
q45 0 103 54l38 35l-40 37q-56 53 -101 53zM630 389q-49 0 -96 -47l-45 -43l45 -42q47 -47 96 -47q94 0 94 89q0 90 -94 90z" />
    <glyph glyph-name="integral.001" unicode="&#x222b;" horiz-adv-x="396" 
d="M280 807q44 0 89 -9q13 -3 13 -16v-44q0 -15 -15 -15h-55q-50 0 -67 -10t-17 -43q0 -100 18 -301t18 -302q0 -61 -35 -89q-13 -12 -37 -18q-32 -10 -76 -10t-88 9q-14 3 -14 16v44q0 16 15 16h55q51 0 68 9.5t17 43.5q0 106 -19 300q-18 201 -18 302q0 62 35 90
q15 12 37 18q31 9 76 9z" />
    <glyph glyph-name="approxequal.001" unicode="&#x2248;" horiz-adv-x="622" 
d="M192 552q32 2 75 -22t82.5 -48t62.5 -22q56 0 79 48q6 15 19 5l40 -25q9 -6 5 -18q-15 -46 -52 -74.5t-88 -28.5q-41 -2 -116.5 46t-104.5 46q-54 0 -78 -49q-7 -13 -19 -5l-40 26q-9 6 -5 18q15 46 52 74.5t88 28.5zM208 355q40 2 117.5 -46t103.5 -46q55 0 78 48
q6 15 19 5l40 -25q9 -6 5 -18q-15 -46 -52 -74.5t-88 -28.5q-33 -2 -75.5 22t-81.5 48t-63 22q-57 0 -79 -49q-7 -13 -19 -5l-40 26q-9 6 -5 18q15 46 52 74.5t88 28.5z" />
    <glyph glyph-name="notequal.001" unicode="&#x2260;" horiz-adv-x="654" 
d="M457 626h37q16 0 8 -17l-56 -128h125q15 0 15 -15v-59q0 -15 -15 -15h-164l-66 -151h230q15 0 15 -15v-59q0 -15 -15 -15h-269l-50 -117q-8 -17 -23 -17h-39q-15 0 -7 17l51 117h-151q-15 0 -15 15v59q0 15 15 15h190l66 151h-256q-15 0 -15 15v59q0 15 15 15h295l56 128
q8 17 23 17z" />
    <glyph glyph-name="lessequal" unicode="&#x2264;" horiz-adv-x="572" 
d="M483 616h9q6 0 6 -6v-68q0 -12 -12 -17l-305 -104l305 -103q12 -4 12 -17v-68q0 -6 -6 -6h-9q-5 0 -7 1l-401 143q-12 5 -12 17v67q0 12 12 17l401 142q4 2 7 2zM78 172h404q15 0 15 -15v-53q0 -15 -15 -15h-404q-15 0 -15 15v53q0 15 15 15z" />
    <glyph glyph-name="greaterequal" unicode="&#x2265;" horiz-adv-x="572" 
d="M80 616h9q5 0 7 -2l401 -142q12 -5 12 -17v-67q0 -12 -12 -17l-401 -143q-1 -1 -7 -1h-9q-6 0 -6 6v68q0 13 12 17l305 103l-305 104q-12 5 -12 17v68q0 6 6 6zM90 172h404q15 0 15 -15v-53q0 -15 -15 -15h-404q-15 0 -15 15v53q0 15 15 15z" />
    <glyph glyph-name="uni2460" unicode="&#x2460;" horiz-adv-x="800" 
d="M35 380q0 179 93.5 272.5t271.5 93.5q180 0 272.5 -92.5t92.5 -273.5q0 -178 -93.5 -271.5t-271.5 -93.5t-271.5 93.5t-93.5 271.5zM715 380q0 315 -315 315t-315 -315q0 -314 315 -314t315 314zM459 514v-272h64q6 0 6 -7v-54q0 -6 -6 -6h-202q-7 0 -7 7v53q0 7 7 7h65
v254q0 28 -34 28h-36q-7 0 -7 7v42q0 6 7 9q24 4 53 4q46 0 68 -15t22 -57z" />
    <glyph glyph-name="uni2461" unicode="&#x2461;" horiz-adv-x="800" 
d="M35 380q0 179 93.5 272.5t271.5 93.5q180 0 272.5 -93t92.5 -273q0 -178 -93.5 -271.5t-271.5 -93.5t-271.5 93.5t-93.5 271.5zM715 380q0 315 -315 315t-315 -315q0 -314 315 -314t315 314zM384 586q70 1 109.5 -19.5t40.5 -78.5v-45q0 -35 -10.5 -55t-44.5 -44l-91 -60
q-38 -23 -38 -37v-5h188q4 0 4 -3v-60q0 -4 -4 -4h-265q-14 0 -14 15v45q0 29 12 46t49 41l109 77q29 20 29 58v10q0 30 -18.5 41.5t-63.5 11.5h-98q-6 0 -6 7v40q0 9 11 12q41 7 101 7z" />
    <glyph glyph-name="uni2462" unicode="&#x2462;" horiz-adv-x="800" 
d="M35 380q0 179 93.5 272.5t271.5 93.5q179 0 272 -94t93 -272t-94 -272q-93 -93 -271 -93t-271.5 93.5t-93.5 271.5zM715 380q0 315 -315 315t-315 -315q0 -314 315 -314t315 314zM391 586q146 0 146 -98v-30q0 -68 -67 -78q67 -10 67 -79v-30q0 -99 -146 -99
q-67 0 -116 9q-11 2 -11 12v40q0 6 6 6h107q47 0 65.5 10t18.5 38v13q1 28 -19 39t-66 11h-80q-6 0 -6 6v46q0 7 6 7h80q47 0 66 10.5t19 39.5v12q0 29 -19 39t-65 10h-107q-6 0 -6 6v40q0 10 11 12q48 8 116 8z" />
    <glyph glyph-name="uni2463" unicode="&#x2463;" horiz-adv-x="800" 
d="M35 380q0 179 93.5 272.5t271.5 93.5q179 0 272 -94t93 -272t-94 -272q-93 -93 -271 -93t-271.5 93.5t-93.5 271.5zM715 380q0 315 -315 315t-315 -315q0 -314 315 -314t315 314zM317 583h63q8 0 5 -7l-66 -230h103v91q0 4 5 7l64 20q7 4 7 -5v-113h59q7 0 7 -6v-54
q0 -6 -7 -6h-59v-98q0 -7 -7 -7h-63q-6 0 -6 7v98h-179q-6 0 -6 6v40q0 6 4 17l69 236q1 4 7 4z" />
    <glyph glyph-name="uni2464" unicode="&#x2464;" horiz-adv-x="800" 
d="M35 380q0 179 93.5 272.5t271.5 93.5q179 0 272 -94t93 -272t-94 -272q-93 -93 -271 -93t-271.5 93.5t-93.5 271.5zM715 380q0 315 -315 315t-315 -315q0 -314 315 -314t315 314zM286 583h230q7 0 7 -6v-55q0 -5 -7 -5h-174l-6 -98q23 5 62 5q138 0 138 -99v-53
q0 -55 -38 -77.5t-112 -22.5q-64 0 -112 8q-10 3 -10 12v41q0 6 6 6h106q46 0 65 10.5t19 39.5v18q0 29 -19 39.5t-65 10.5h-99q-13 0 -13 11v45l13 162q2 8 9 8z" />
    <glyph glyph-name="uni2465" unicode="&#x2465;" horiz-adv-x="800" 
d="M35 380q0 179 93.5 272.5t271.5 93.5q179 0 272 -94t93 -272t-94 -272q-93 -93 -271 -93t-271.5 93.5t-93.5 271.5zM715 380q0 315 -315 315t-315 -315q0 -314 315 -314t315 314zM374 583h67q8 0 5 -8l-82 -160q18 7 53 7q132 0 132 -93v-61q0 -54 -36.5 -75t-110.5 -21
q-75 0 -112 21.5t-37 76.5v56q0 27 9 48l105 205q4 4 7 4zM402 359q-43 0 -58.5 -10t-15.5 -40v-20q0 -29 16 -39.5t58 -10.5q41 0 56 10.5t15 39.5v20q0 30 -15 40t-56 10z" />
    <glyph glyph-name="uni2466" unicode="&#x2466;" horiz-adv-x="800" 
d="M35 380q0 179 93.5 272.5t271.5 93.5q179 0 272 -94t93 -272t-94 -272q-93 -93 -271 -93t-271.5 93.5t-93.5 271.5zM715 380q0 315 -315 315t-315 -315q0 -314 315 -314t315 314zM260 583h281q7 0 7 -6v-41q0 -6 -3 -10l-182 -346q-2 -5 -7 -5h-75q-7 0 -4 7l177 335
h-194q-7 0 -7 5v55q0 6 7 6z" />
    <glyph glyph-name="uni2467" unicode="&#x2467;" horiz-adv-x="800" 
d="M35 380q0 179 93.5 272.5t271.5 93.5q179 0 272 -94t93 -272t-94 -272q-93 -93 -271 -93t-271.5 93.5t-93.5 271.5zM715 380q0 315 -315 315t-315 -315q0 -314 315 -314t315 314zM397 586h9q139 0 139 -112q0 -69 -56 -99q67 -24 67 -93q0 -110 -151 -110h-10
q-150 0 -150 110q0 72 69 104q-31 15 -43.5 35.5t-12.5 54.5q0 110 139 110zM403 520h-5q-64 0 -64 -53q0 -37 45 -49l57 -12q32 18 32 58q0 56 -65 56zM435 341l-69 17q-45 -18 -45 -61q0 -58 76 -58h6q77 0 77 51q0 40 -45 51z" />
    <glyph glyph-name="uni2468" unicode="&#x2468;" horiz-adv-x="800" 
d="M35 380q0 179 93.5 272.5t271.5 93.5q179 0 272 -94t93 -272t-94 -272q-93 -93 -271 -93t-271.5 93.5t-93.5 271.5zM715 380q0 315 -315 315t-315 -315q0 -314 315 -314t315 314zM398 585q76 0 113 -21.5t38 -75.5v-56q0 -28 -11 -47l-105 -205q-2 -5 -7 -5h-66
q-8 0 -5 8l83 161q-18 -7 -54 -7q-131 0 -131 93v60q0 54 35.5 74.5t109.5 20.5zM398 519q-40 0 -55 -10t-15 -39v-22q0 -29 14.5 -39t55.5 -10q43 0 59 10t16 39v22q0 29 -16 39t-59 10z" />
    <glyph glyph-name="uni24EA" unicode="&#x24ea;" horiz-adv-x="800" 
d="M400 15q-179 0 -272.5 93.5t-93.5 271.5t94 272t272 94q181 0 273 -93t92 -273q0 -178 -93.5 -271.5t-271.5 -93.5zM400 66q315 0 315 314q0 315 -315 315q-316 0 -316 -315q0 -314 316 -314zM399 587q93 0 124 -43q32 -44 32 -164t-32 -164q-31 -43 -124 -43t-124 43
t-31 164t31 164t124 43zM399 521q-47 0 -63 -30q-16 -28 -16 -111t16 -111q17 -29 63 -29q47 0 64 29q16 28 16 111t-16 111q-17 30 -64 30z" />
    <glyph glyph-name="uni24FF" unicode="&#x24ff;" horiz-adv-x="800" 
d="M740 360q0 -168 -86 -254t-254 -86t-254.5 86t-86.5 254t86.5 254t254.5 86t254 -86.5t86 -253.5zM399 567q-93 0 -124 -43t-31 -164t31 -164t124 -43t124 43q32 44 32 164t-32 164q-31 43 -124 43zM399 501q47 0 64 -30q16 -28 16 -111t-16 -111q-17 -29 -64 -29
q-46 0 -63 29q-16 28 -16 111t16 111q16 30 63 30z" />
    <glyph glyph-name="lozenge.001" unicode="&#x25ca;" horiz-adv-x="557" 
d="M256 714h44q12 0 18 -10l211 -346q6 -10 -1 -20l-210 -328q-6 -10 -18 -10h-44q-12 0 -18 10l-209 328q-7 10 -1 20l210 346q6 10 18 10zM417 359l-129 216q-10 17 -20 0l-128 -216q-6 -10 0 -20l128 -207q10 -16 20 0l129 207q6 10 0 20z" />
    <glyph glyph-name="uni261E" unicode="&#x261e;" horiz-adv-x="882" 
d="M649 600l154 -3q50 0 67 -14t17 -56q0 -43 -17 -57t-67 -14h-53q4 -8 4 -27q0 -27 -16 -42q16 -16 16 -45q0 -27 -16 -42q16 -16 16 -45t-13.5 -41.5t-52.5 -19.5q-170 -23 -258 -22q-93 1 -215 30v-37q0 -8 -9 -8h-136q-4 0 -6 5q-1 1 -1 3q-60 195 0 390q4 7 7 7h136
q9 0 9 -7v-23q99 40 186 54q90 14 248 14zM529 494h274q27 0 36 6.5t9 26.5q0 19 -9 25.5t-38 6.5l-152 3q-160 0 -247 -15q-83 -13 -187 -58v-246q105 -30 197 -33q92 -2 258 18q26 4 35 9t9 18q0 16 -9 21t-36 5h-141q-7 0 -7 8v24q0 7 7 7h142q26 0 35 4.5t9 17.5
q0 16 -9 21.5t-36 5.5h-141q-7 0 -7 7v24q0 7 7 7h142q26 0 35 4.5t9 17.5q0 16 -9 21.5t-36 5.5h-140q-7 0 -7 7v24q0 7 7 7zM176 196v328h-82q-46 -151 -3 -328h85z" />
    <glyph glyph-name="uni267C" unicode="&#x267c;" horiz-adv-x="800" 
d="M754 380q0 -147 -104 -251q-103 -103 -250 -103t-250 103q-104 104 -104 251q0 146 104 250t250 104t250 -104t104 -250zM405 564l41 -69l-39 -24l129 1l63 112l-42 -25l-28 46q-16 25 -41 31l-8 1l-162 1q-35 -4 -52 -26l-4 -8l-57 -98l114 -65l71 125q10 10 15 -2z
M555 276l-81 -1v46l-64 -112l65 -112v49l54 1q28 0 47 21l5 6l81 140q16 33 4 58l-4 8l-57 97l-113 -64l72 -126q2 -5 -0.5 -8.5t-8.5 -2.5zM230 290l40 71l40 -23l-66 111l-128 -1l42 -24l-26 -47q-15 -27 -6 -51l3 -8l81 -140q24 -32 50 -32h8h113l-1 130h-144
q-14 2 -6 14z" />
    <glyph glyph-name="uni2776" unicode="&#x2776;" horiz-adv-x="800" 
d="M654 106q-86 -86 -254 -86t-254 86t-86 254t86 254t254 86t254 -86t86 -254t-86 -254zM523 222h-64v272q0 42 -22 57t-68 15q-29 0 -53 -4q-7 -3 -7 -9v-42q0 -7 7 -7h36q34 0 34 -28v-254h-65q-7 0 -7 -7v-53q0 -7 7 -7h202q6 0 6 6v54q0 7 -6 7z" />
    <glyph glyph-name="uni2777" unicode="&#x2777;" horiz-adv-x="800" 
d="M654 106q-86 -86 -254 -86t-254 86t-86 254t86 254t254 86t254 -86t86 -254t-86 -254zM384 566q-60 0 -101 -7q-11 -3 -11 -12v-40q0 -7 6 -7h98q45 0 63.5 -11.5t18.5 -41.5v-10q0 -38 -29 -58l-109 -77q-37 -24 -49 -41t-12 -46v-45q0 -15 14 -15h265q4 0 4 4v60
q0 3 -4 3h-188v5q0 14 38 37l91 60q34 24 44.5 44t10.5 55v45q-1 58 -40.5 78.5t-109.5 19.5z" />
    <glyph glyph-name="uni2778" unicode="&#x2778;" horiz-adv-x="800" 
d="M654 106q-86 -86 -254 -86t-254 86t-86 254t86 254t254 86t254 -86t86 -254t-86 -254zM391 566q-68 0 -116 -8q-11 -2 -11 -12v-40q0 -6 6 -6h107q46 0 65 -10t19 -39v-12q0 -29 -19 -39.5t-66 -10.5h-80q-6 0 -6 -7v-46q0 -6 6 -6h80q46 0 66 -11t19 -39v-13
q0 -28 -18.5 -38t-65.5 -10h-107q-6 0 -6 -6v-40q0 -10 11 -12q49 -9 116 -9q146 0 146 99v30q0 69 -67 79q67 10 67 78v30q0 98 -146 98z" />
    <glyph glyph-name="uni2779" unicode="&#x2779;" horiz-adv-x="800" 
d="M654 106q-86 -86 -254 -86t-254 86t-86 254t86 254t254 86t254 -86t86 -254t-86 -254zM380 563h-63q-6 0 -7 -4l-69 -236q-4 -11 -4 -17v-40q0 -6 6 -6h179v-98q0 -7 6 -7h63q7 0 7 7v98h59q7 0 7 6v54q0 6 -7 6h-59v113q0 9 -7 5l-64 -20q-5 -3 -5 -7v-91h-103l66 230
q3 7 -5 7z" />
    <glyph glyph-name="uni277A" unicode="&#x277a;" horiz-adv-x="800" 
d="M654 106q-86 -86 -254 -86t-254 86t-86 254t86 254t254 86t254 -86t86 -254t-86 -254zM516 563h-230q-7 0 -9 -8l-13 -162v-45q0 -11 13 -11h99q46 0 65 -10.5t19 -39.5v-18q0 -29 -19 -39.5t-65 -10.5h-106q-6 0 -6 -6v-41q0 -9 10 -12q48 -8 112 -8q74 0 112 22.5
t38 77.5v53q0 99 -138 99q-39 0 -62 -5l6 98h174q7 0 7 5v55q0 6 -7 6z" />
    <glyph glyph-name="uni277B" unicode="&#x277b;" horiz-adv-x="800" 
d="M654 106q-86 -86 -254 -86t-254 86t-86 254t86 254t254 86t254 -86t86 -254t-86 -254zM441 563h-67q-3 0 -7 -4l-105 -205q-9 -21 -9 -48v-56q0 -55 37 -76.5t112 -21.5q74 0 110.5 21t36.5 75v61q0 93 -132 93q-35 0 -53 -7l82 160q3 8 -5 8zM402 339q41 0 56 -10
t15 -40v-20q0 -29 -15 -39.5t-56 -10.5q-42 0 -58 10.5t-16 39.5v20q0 30 15.5 40t58.5 10z" />
    <glyph glyph-name="uni277C" unicode="&#x277c;" horiz-adv-x="800" 
d="M654 106q-86 -86 -254 -86t-254 86t-86 254t86 254t254 86t254 -86t86 -254t-86 -254zM541 563h-281q-7 0 -7 -6v-55q0 -5 7 -5h194l-177 -335q-3 -7 4 -7h75q5 0 7 5l182 346q3 4 3 10v41q0 6 -7 6z" />
    <glyph glyph-name="uni277D" unicode="&#x277d;" horiz-adv-x="800" 
d="M654 106q-86 -86 -254 -86t-254 86t-86 254t86 254t254 86t254 -86t86 -254t-86 -254zM406 566h-9q-139 0 -139 -110q0 -34 12.5 -54.5t43.5 -35.5q-69 -32 -69 -104q0 -110 150 -110h10q151 0 151 110q0 69 -67 93q56 30 56 99q0 112 -139 112zM398 500h5q65 0 65 -56
q0 -40 -32 -58l-57 12q-45 12 -45 49q0 53 64 53zM366 338l69 -17q45 -11 45 -51q0 -51 -77 -51h-6q-76 0 -76 58q0 43 45 61z" />
    <glyph glyph-name="uni277E" unicode="&#x277e;" horiz-adv-x="800" 
d="M654 106q-86 -86 -254 -86t-254 86t-86 254t86 254t254 86t254 -86t86 -254t-86 -254zM398 565q-74 0 -109.5 -20.5t-35.5 -74.5v-60q0 -93 131 -93q36 0 54 7l-83 -161q-3 -8 5 -8h66q5 0 7 5l105 205q11 19 11 47v56q-1 54 -38 75.5t-113 21.5zM398 499q43 0 59 -10
t16 -39v-22q0 -29 -16 -39t-59 -10q-41 0 -55.5 10t-14.5 39v22q0 29 15 39t55 10z" />
    <glyph glyph-name="uniF8FF" unicode="&#xf8ff;" horiz-adv-x="921" 
d="M871 20h-821v700h821v-700zM491 387q12 0 16 7h1l2 -6h8v73h-11v-19q0 -6 1 -9h-1q-5 8 -15 8t-16 -7q-13 -20 0 -40q6 -7 15 -7zM644 449q1 -1 5 -1t5 1q2 5 0 10q-1 1 -5 1t-5 -1q-2 -5 0 -10zM161 388h10l20 57h1q0 -6 -1 -10v-47h11v69h-16l-20 -55l-19 55h-16v-69
h10v33q0 19 -1 25h1zM351 396q-3 0 -5 2t-2 6v28h15v8h-15v12h-7l-4 -11l-8 -4v-5h8v-29q0 -16 15 -16h6q3 0 5 2v8q-1 -1 -8 -1zM261 434q-6 7 -18 7t-19 -7q-6 -7 -6 -20q0 -8 3 -14q3 -7 9 -10q4 -3 13 -3q12 0 18 7q15 20 0 40zM318 403q0 1 -1 3t-1 3l-4 5l-10 4l-10 5
q-2 2 -2 4q0 5 9 5q5 0 14 -3l4 8q-20 9 -33 0q-5 -3 -5 -10q0 -6 3 -9q3 -4 12 -7l8 -4q3 0 3 -2q2 -2 2 -4q0 -6 -11 -6q-6 0 -17 4v-9q6 -3 17 -3t16 4q6 5 6 12zM405 388h7v35q0 9 -5 14q-4 4 -15 4q-7 0 -9 -1t-5.5 -2.5t-4.5 -1.5l4 -8q3 3 7 3q2 1 8 1q5 0 7 -2t2 -8
v-2l-9 -1q-14 0 -18 -4q-6 -5 -6 -12q0 -11 9.5 -15t16.5 0q2 1 8 7zM461 430l1 11h-5q-6 0 -9 -3q-6 -4 -7 -7h-1l-1 9h-9v-52h11v27q0 6 4 11q5 5 11 5q4 0 5 -1zM559 387h10l8 3v9l-9 -3h-3q-3 -1 -5 -1q-8 0 -11 5q-4 3 -4 11h35v6q0 16 -14.5 22.5t-25.5 -5.5
q-7 -7 -7 -21q0 -26 26 -26zM629 403q0 6 -5 11l-10 4l-10 5q-2 2 -2 4q0 5 9 5q5 0 14 -3l4 8q-20 9 -33 0q-5 -3 -5 -10q0 -6 3 -9q3 -4 12 -7l8 -4q3 0 3 -2q1 -1 1 -4q0 -6 -10 -6q-6 0 -17 4v-9q11 -5 26 -1.5t12 14.5zM717 434v6h-18h-1q-1 1 -3 1h-5q-10 0 -15 -5
q-6 -5 -6 -13q0 -6 3 -9q3 -5 7 -6q-1 0 -5 -4q-2 -2 -2 -5l1 -4q1 -3 4 -3q-5 -2 -8 -5t-3 -8q0 -6 5 -11q7 -4 17 -4q13 0 21 5q7 4 7 14q0 7 -4 11q-4 3 -14 3h-9q-3 0 -4 1h-2q-2 2 -2 3q0 4 4 5h5q11 0 15 4q6 4 6 13q0 2 -1 3v2q-1 1 -2 4zM763 388h12v34q0 19 -19 19
q-2 0 -10 -2q-4 -1 -7 -6l-2 7h-9v-52h12v26q0 18 13 18q5 0 8 -3q2 -2 2 -9v-32zM655 388v52h-12v-52h12zM683 431q1 3 7 3t7 -3q3 -3 3 -8q0 -10 -10 -10q-1 0 -7 2q-8 8 0 16zM569 419h-24q0 7 4 10q5 6 12.5 3t7.5 -13zM229 414q0 9 4 13q3 5 10 5q13 0 13 -18t-13 -18
q-14 0 -14 18zM494 396q-6 0 -9 4q-3 5 -3 14t3 13q3 5 9 5q7 0 10 -4q4 -4 4 -14v-2q0 -9 -4 -12q-3 -4 -10 -4zM388 395q-4 0 -6 2t-2 6t3 7q8 2 12 2l6 1v-5q0 -6 -3 -9q-4 -4 -10 -4zM676 379q0 5 2 7q6 2 8 2h8q7 0 9 -2q3 -2 3 -5q0 -4 -5 -6q-5 -3 -13 -3q-3 0 -9 2
q-3 2 -3 5zM664 278h1l2 -7h8v74h-11v-19v-4q1 -3 1 -5q-6 7 -16 7t-16 -7q-13 -20 0 -40q6 -7 16 -7t15 8zM155 271v60h21v9h-52v-9h20v-60h11zM401 271v29h26v9h-26v22h28v9h-39v-69h11zM179 324l21 -53l-2 -5q-3 -9 -11 -9h-6v-8q2 -1 7 -1q15 0 21 16l22 60h-12
q-3 -10 -6 -18.5t-4.5 -12t-1.5 -5.5q-1 -1 -1 -6h-1q0 6 -3 12l-11 30h-12zM268 270q8 0 15 7q6 7 6 20q0 14 -6 20q-4 7 -15 7t-16 -8l-2 8h-9v-76h11v29q6 -7 16 -7zM327 270q7 0 9 1q5 0 8 3v9q-4 -3 -8 -3q-2 -1 -9 -1t-11 4q-4 5 -4 12h35v6q0 23 -22 23
q-16 0 -22.5 -17t4.5 -30q7 -7 20 -7zM482 317q-6 7 -18 7t-18 -7q-7 -6 -7 -20q0 -8 3 -14q4 -6 9 -10q6 -3 13 -3q16 -3 23 16t-5 31zM541 271h8v53h-11v-27q0 -9 -3 -14q-4 -4 -10 -4q-11 0 -11 12v33h-11v-35q0 -19 19 -19q2 0 10 2l7 6zM602 271h11v34q0 19 -18 19
q-6 0 -10 -2t-7 -5l-2 7h-9v-53h11v26q0 9 4 14q3 4 10 4q5 0 8 -3q2 -6 2 -9v-32zM724 314l1 10h-5q-10 0 -16 -10l-2 10h-9v-53h11v27q0 7 5 12q3 4 10 4h5zM729 324l21 -53l-2 -5q-3 -9 -11 -9h-6v-8q2 -1 7 -1q15 0 21 16l22 60h-12q-3 -10 -6 -18.5t-4.5 -12t-1.5 -5.5
q-1 -1 -1 -6h-1q0 6 -3 12l-11 30h-12zM325 316q5 0 8 -3q3 -5 3 -10h-24q1 2 2.5 5.5t1.5 4.5q3 3 9 3zM265 315q6 0 9 -4q3 -5 3 -14t-3 -13q-3 -5 -9 -5q-7 0 -10 5q-3 3 -3 13v2q0 9 3 12q3 4 10 4zM451 297q0 9 3 14q3 4 10 4q13 0 13 -18t-13 -18t-13 18zM652 279
q-9 0 -12.5 11t2.5 21q4 4 9 4q7 0 11 -4q3 -5 3 -14v-1q0 -8 -3 -13q-4 -4 -10 -4z" />
    <glyph glyph-name="u1F603" unicode="&#x1f603;" horiz-adv-x="860" 
d="M426 1q-191 0 -281 91t-90 287q0 195 89.5 286t281.5 91q196 0 287 -90.5t91 -286.5t-91 -287t-287 -91zM426 53q167 0 247 79.5t80 246.5q0 166 -80 245.5t-247 79.5q-163 0 -241.5 -79t-78.5 -246q0 -166 79 -246t241 -80zM336 405q-16 -16 -52 -16t-52 16t-16 53
q0 36 16 52t52 16t52 -16t16 -52q0 -37 -16 -53zM558 389q-37 0 -53 16.5t-16 52.5t16 52t53 16q35 0 51 -16t16 -52t-16 -52.5t-51 -16.5zM426 123q-109 0 -162.5 42.5t-51.5 122.5h416q2 -79 -48.5 -121.5t-153.5 -43.5z" />
    <glyph glyph-name="NULL" horiz-adv-x="0" 
 />
    <glyph glyph-name="CR" horiz-adv-x="333" 
 />
    <glyph glyph-name="Q.salt" horiz-adv-x="724" 
d="M492 7l123 -68q13 -7 6 -21l-30 -51q-7 -13 -20 -6l-223 134q-171 1 -232 82q-59 82 -59 300q0 225 62 305t243 80t243 -80t62 -305q0 -179 -38 -263q-38 -83 -137 -107zM159 377q0 -176 38 -235q37 -58 165 -58t165 58q38 59 38 235q0 96 -7.5 147t-29.5 86
q-21 36 -59.5 49.5t-106.5 13.5t-106 -13.5t-61 -49.5q-21 -36 -28.5 -87.5t-7.5 -145.5z" />
    <glyph glyph-name="i.locl" horiz-adv-x="234" 
d="M179 680q0 -61 -62 -61t-62 61q0 60 62 60t62 -60zM84 547h66q15 0 15 -15v-517q0 -15 -15 -15h-66q-15 0 -15 15v517q0 15 15 15z" />
    <glyph glyph-name="g.salt" horiz-adv-x="573" 
d="M498 572l38 -38q12 -10 0 -22l-37 -38q17 -40 17 -124q0 -67 -9 -102.5t-35 -58.5t-68 -31t-120 -8q-69 0 -107 7l-8 -21q-13 -32 -3 -42q10 -8 64 -13l189 -15q68 -6 86 -48q14 -32 14 -81v-5q0 -80 -47 -106q-47 -27 -160 -27q-136 0 -226 9q-15 2 -15 15v43
q0 15 15 15h232q63 0 84.5 10t21.5 42v5q0 25 -10 35t-40 13l-208 17q-46 4 -70 24t-24 45.5t9 51.5l24 57q-30 21 -42 59.5t-12 109.5q0 123 45 162q44 40 188 40q107 0 154 -19l39 39q11 10 21 0zM284 230q87 0 111 24q25 24 25 96q-2 74 -24 94t-112 24q-88 0 -113 -24
q-24 -22 -24 -94t24 -96q25 -24 113 -24z" />
    </font>
</defs>
</svg>
