<?xml version="1.0" standalone="no"?>
<!DOCTYPE svg PUBLIC "-//W3C//DTD SVG 1.1//EN" "http://www.w3.org/Graphics/SVG/1.1/DTD/svg11.dtd" >
<svg>
<metadata>
Created by FontForge 20120731 at Fri Dec 23 08:24:42 2022
 By fw_worker
Copyright (c) 2016 by Mostardesign Type Foundry. All rights reserved.
</metadata>
<defs>
<font id="UniviaPro-Medium" horiz-adv-x="646" >
  <font-face 
    font-family="Univia Pro Medium"
    font-weight="500"
    font-stretch="normal"
    units-per-em="1000"
    panose-1="0 0 6 0 0 0 0 0 0 0"
    ascent="800"
    descent="-200"
    x-height="553"
    cap-height="765"
    bbox="-142.24 -273.571 1328 1147"
    underline-thickness="0"
    underline-position="0"
    unicode-range="U+0020-1F603"
  />
<missing-glyph horiz-adv-x="445" 
d="M92 765h480q15 0 15 -15v-735q0 -15 -15 -15h-480q-15 0 -15 15v735q0 15 15 15zM321 629q-72 0 -120 -9q-13 -3 -13 -15v-45q0 -10 10 -10h123q49 0 66 -8.5t21 -41.5v-24q0 -23 -8.5 -36t-27.5 -23l-81 -39q-29 -17 -37 -30t-5 -38l4 -37q0 -6 7 -6h57q7 0 7 7l1 13
q1 12 7.5 19t27.5 17l67 32q40 19 55.5 44t15.5 75v37q0 75 -54 98q-45 20 -123 20zM288 218q-51 0 -51 -48q0 -47 51 -47q50 0 50 47q0 48 -50 48z" />
    <glyph glyph-name="f_f" unicode="ff" horiz-adv-x="753" 
d="M742 761q14 -3 14 -18v-63q0 -15 -16 -15h-66q-41 0 -56 -9t-15 -38v-66h126q15 0 12 -16l-12 -65q-3 -14 -16 -14h-110v-442q0 -15 -15 -15h-91q-15 0 -15 15v442h-257v-442q0 -15 -15 -15h-91q-15 0 -15 15v442h-68q-16 0 -16 15v65q0 15 16 15h68v90q0 84 54 109
q43 19 107 19q44 0 98 -9q15 -3 15 -18v-63q0 -15 -16 -15h-66q-41 0 -56 -9t-15 -38v-66h257v90q0 84 54 109q43 19 108 19q42 0 98 -9z" />
    <glyph glyph-name="fi.001" unicode="fi" horiz-adv-x="637" 
d="M512 780q34 0 53 -18t19 -51t-19 -51t-53 -18q-35 0 -54 18t-19 51t19 51t54 18zM265 770q31 0 83 -9q14 -3 14 -18v-63q0 -15 -16 -15h-50q-41 0 -56 -9t-15 -38v-66h332q15 0 15 -15v-522q0 -15 -15 -15h-91q-15 0 -15 15v442h-226v-442q0 -15 -15 -15h-91
q-15 0 -15 15v442h-68q-16 0 -16 15v65q0 15 16 15h68v90q0 84 54 109q43 19 107 19z" />
    <glyph glyph-name="fl" unicode="fl" horiz-adv-x="626" 
d="M546 758q15 -2 15 -15v-728q0 -15 -15 -15h-91q-15 0 -15 15v648l-132 2q-46 0 -64.5 -9t-18.5 -38v-66h121q15 0 12 -16l-11 -65q-3 -14 -17 -14h-105v-442q0 -15 -15 -15h-91q-15 0 -15 15v442h-68q-16 0 -16 15v65q0 15 16 15h68v90q0 84 68 109q53 19 141 19
q85 0 233 -12z" />
    <glyph glyph-name="f_f_i" unicode="ffi" horiz-adv-x="1015" 
d="M836 762q20 18 54 18t54 -18q19 -18 19 -51t-19 -51q-20 -18 -54 -18t-54 18q-19 18 -19 51t19 51zM731 761q14 -3 14 -18v-63q0 -15 -16 -15h-55q-41 0 -56 -9t-15 -38v-66h332q15 0 15 -15v-522q0 -15 -15 -15h-91q-15 0 -15 15v442h-226v-442q0 -15 -15 -15h-91
q-15 0 -15 15v442h-257v-442q0 -15 -15 -15h-91q-15 0 -15 15v442h-68q-16 0 -16 15v65q0 15 16 15h68v90q0 84 54 109q43 19 107 19q38 0 92 -9q15 -3 15 -18v-63q0 -15 -16 -15h-60q-41 0 -56 -9t-15 -38v-66h257v90q0 84 54 109q42 16 77 18.5t118 -8.5z" />
    <glyph glyph-name="f_f_l" unicode="ffl" horiz-adv-x="1004" 
d="M924 758q15 -2 15 -15v-728q0 -15 -15 -15h-91q-15 0 -15 15v648l-132 2q-42 1 -61 -8t-22 -39v-66h118q15 0 12 -16l-12 -65q-3 -14 -16 -14h-102v-442q0 -15 -15 -15h-91q-15 0 -15 15v442h-257v-442q0 -15 -15 -15h-91q-15 0 -15 15v442h-68q-16 0 -16 15v65
q0 15 16 15h68v90q0 84 54 109q43 19 107 19q54 0 108 -9q15 -3 15 -18v-63q0 -15 -16 -15h-76q-41 0 -56 -9t-15 -38v-66h257v90q0 84 68 109q53 19 141 19q86 0 233 -12z" />
    <glyph glyph-name="f_b" unicode="fb" horiz-adv-x="965" 
d="M689 558q138 0 183 -57q46 -56 46 -225q0 -170 -48 -225q-48 -56 -198 -56q-104 0 -214 18q-18 3 -18 21v629l-132 2q-42 1 -61 -8t-22 -39v-66h121q16 0 13 -16l-12 -65q-3 -14 -17 -14h-105v-442q0 -15 -15 -15h-91q-15 0 -15 15v442h-68q-16 0 -16 15v65q0 15 16 15
h68v90q0 84 68 109q53 19 141 19q86 0 233 -12q15 -2 15 -15v-191q51 6 128 6zM674 100q81 0 102 34q21 35 21 142q0 112 -22 144q-23 33 -105 33h-109v-345q59 -8 113 -8z" />
    <glyph glyph-name="f_f_b" unicode="ffb" horiz-adv-x="1347" 
d="M1071 558q138 0 183 -57q46 -56 46 -225q0 -170 -48 -225q-48 -56 -198 -56q-104 0 -214 18q-18 3 -18 21v629l-132 2q-46 0 -64.5 -9t-18.5 -38v-66h121q16 0 13 -16l-12 -65q-3 -14 -17 -14h-105v-442q0 -15 -15 -15h-91q-15 0 -15 15v442h-260v-442q0 -15 -15 -15h-92
q-15 0 -15 15v442h-67q-16 0 -16 15v65q0 15 16 15h67v90q0 84 54 109q43 19 108 19q42 0 98 -9q15 -3 15 -18v-63q0 -15 -16 -15h-67q-41 0 -55.5 -9t-14.5 -38v-66h260v90q0 84 68 109q53 19 141 19q84 0 233 -12q15 -2 15 -15v-191q49 6 128 6zM1055 100q81 0 102 34
q22 34 22 142q0 110 -23 144q-23 33 -104 33h-109v-345q59 -8 112 -8z" />
    <glyph glyph-name="f_f_j" unicode="ffj" horiz-adv-x="1000" 
d="M875 780q34 0 53 -18t19 -51t-19 -51t-53 -18q-35 0 -54 18t-19 51t19 51t54 18zM644 770q34 0 83 -9q14 -3 14 -18v-63q0 -15 -16 -15h-51q-41 0 -56 -9t-15 -38v-66h317q15 0 15 -15v-637q0 -68 -38 -88q-31 -16 -87 -16q-46 0 -68 6q-15 3 -15 18v67q0 14 17 14h23
q31 0 39 7.5t8 36.5v512h-211v-442q0 -15 -15 -15h-91q-15 0 -15 15v442h-257v-442q0 -15 -15 -15h-91q-15 0 -15 15v442h-68q-16 0 -16 15v65q0 15 16 15h68v90q0 84 54 109q43 19 107 19q43 0 93 -9q15 -3 15 -18v-63q0 -15 -16 -15h-61q-41 0 -56 -9t-15 -38v-66h257v90
q0 84 54 109q43 19 108 19z" />
    <glyph glyph-name="f_f_k" unicode="ffk" horiz-adv-x="1283" 
d="M1231 534l-170 -199l221 -308q18 -27 -17 -27h-97q-14 0 -22 11l-207 297v-293q0 -15 -15 -15h-91q-15 0 -15 15v648l-132 2q-46 0 -64.5 -9t-18.5 -38v-66h121q15 0 12 -16l-11 -65q-3 -14 -17 -14h-105v-442q0 -15 -15 -15h-91q-15 0 -15 15v442h-256v-442
q0 -15 -15 -15h-92q-15 0 -15 15v442h-67q-16 0 -16 15v65q0 15 16 15h67v90q0 84 54 109q43 19 108 19q42 0 98 -9q15 -3 15 -18v-63q0 -15 -16 -15h-67q-41 0 -55.5 -9t-14.5 -38v-66h256v90q0 84 68 109q53 19 141 19q85 0 233 -12q15 -2 15 -15v-383l154 183q7 10 21 10
h108q25 0 9 -19z" />
    <glyph glyph-name="f_j" unicode="fj" horiz-adv-x="621" 
d="M442 762q20 18 54 18t54 -18q19 -18 19 -51t-19 -51q-20 -18 -54 -18t-54 18q-19 18 -19 51t19 51zM265 770q35 0 85 -9q15 -3 15 -18v-63q0 -15 -16 -15h-53q-41 0 -56 -9t-15 -38v-66h316q15 0 15 -15v-637q0 -60 -29.5 -82t-94.5 -22q-48 0 -68 6q-16 3 -16 18v67
q0 14 17 14h24q31 0 38.5 7t7.5 37v512h-210v-442q0 -15 -15 -15h-91q-15 0 -15 15v442h-68q-16 0 -16 15v65q0 15 16 15h68v90q0 84 54 109q43 19 107 19z" />
    <glyph glyph-name="f_k" unicode="fk" horiz-adv-x="905" 
d="M853 534l-170 -199l221 -308q18 -27 -17 -27h-97q-14 0 -22 11l-207 297v-293q0 -15 -15 -15h-91q-15 0 -15 15v648l-132 2q-46 0 -64.5 -9t-18.5 -38v-66h121q15 0 12 -16l-11 -65q-3 -14 -17 -14h-105v-442q0 -15 -15 -15h-91q-15 0 -15 15v442h-68q-16 0 -16 15v65
q0 15 16 15h68v90q0 84 68 109q53 19 141 19q85 0 233 -12q15 -2 15 -15v-383l154 183q7 10 21 10h108q25 0 9 -19z" />
    <glyph glyph-name=".notdef" horiz-adv-x="445" 
d="M92 765h480q15 0 15 -15v-735q0 -15 -15 -15h-480q-15 0 -15 15v735q0 15 15 15zM321 629q-72 0 -120 -9q-13 -3 -13 -15v-45q0 -10 10 -10h123q49 0 66 -8.5t21 -41.5v-24q0 -23 -8.5 -36t-27.5 -23l-81 -39q-29 -17 -37 -30t-5 -38l4 -37q0 -6 7 -6h57q7 0 7 7l1 13
q1 12 7.5 19t27.5 17l67 32q40 19 55.5 44t15.5 75v37q0 75 -54 98q-45 20 -123 20zM288 218q-51 0 -51 -48q0 -47 51 -47q50 0 50 47q0 48 -50 48z" />
    <glyph glyph-name=".null" horiz-adv-x="0" 
 />
    <glyph glyph-name="nonmarkingreturn" horiz-adv-x="333" 
 />
    <glyph glyph-name="space" unicode=" " horiz-adv-x="215" 
 />
    <glyph glyph-name="exclam" unicode="!" horiz-adv-x="278" 
d="M90 765h98q15 0 15 -15v-348l-2 -20l-23 -153q-1 -16 -15 -16h-49q-12 0 -15 16l-23 153q-1 7 -1 20v348q0 15 15 15zM140 133q34 0 53 -18t19 -51t-19 -51t-53 -18q-35 0 -54.5 18t-19.5 51t19.5 51t54.5 18z" />
    <glyph glyph-name="quotedbl" unicode="&#x22;" horiz-adv-x="452" 
d="M66 765h97q15 0 15 -15v-107q0 -13 -1 -20l-23 -154q-3 -15 -15 -15h-49q-12 0 -15 15l-23 154q-1 7 -1 20v107q0 15 15 15zM290 765h97q15 0 15 -15v-107q0 -13 -1 -20l-23 -154q-3 -15 -15 -15h-49q-12 0 -15 15l-23 154q-1 7 -1 20v107q0 15 15 15z" />
    <glyph glyph-name="numbersign" unicode="#" horiz-adv-x="692" 
d="M631 480h-100v-197h100q15 0 15 -15v-77q0 -15 -15 -15h-100v-161q0 -15 -15 -15h-89q-15 0 -15 15v161h-144v-161q0 -15 -15 -15h-88q-15 0 -15 15v161h-89q-15 0 -15 15v77q0 15 15 15h89v197h-89q-15 0 -15 15v78q0 15 15 15h89v162q0 15 15 15h88q15 0 15 -15v-162
h144v162q0 15 15 15h89q15 0 15 -15v-162h100q15 0 15 -15v-78q0 -15 -15 -15zM268 283h144v197h-144v-197z" />
    <glyph glyph-name="dollar" unicode="$" horiz-adv-x="613" 
d="M249 468l203 -73q69 -26 97.5 -65t28.5 -105v-27q0 -84 -57.5 -122.5t-174.5 -43.5v-72q0 -16 -15 -16h-46q-15 0 -15 16v71q-88 3 -216 17q-11 2 -11 12v74q0 10 12 10h299q50 0 72.5 14t22.5 46v15q0 31 -16.5 50.5t-57.5 34.5l-216 77q-57 18 -81.5 58.5t-24.5 109.5
v21q0 83 53.5 121t163.5 44v72q0 15 15 15h46q15 0 15 -15v-71q69 -2 183 -16q11 -3 11 -11v-76q0 -10 -12 -10h-248q-53 0 -75.5 -14t-22.5 -49v-13q0 -30 14.5 -47t52.5 -32z" />
    <glyph glyph-name="percent" unicode="%" horiz-adv-x="931" 
d="M67 728q39 42 146 42q108 0 145 -43q38 -43 38 -161t-38 -162q-37 -43 -145 -43q-107 0 -146 43q-38 44 -38 162t38 162zM639 765h49q14 0 6 -15l-386 -735q-8 -15 -23 -15h-49q-14 0 -7 15l386 735q7 15 24 15zM132 566q0 -66 17.5 -90.5t63.5 -24.5t63 24.5t17 90.5
t-17 90t-63 24t-63.5 -24.5t-17.5 -89.5zM572 361q39 43 146 43q108 0 145 -43q39 -43 39 -162t-39 -162q-37 -42 -145 -42q-107 0 -146 42q-38 44 -38 162t38 162zM781 290q-17 24 -63 24q-47 0 -63 -25q-17 -25 -17 -90t17 -90q17 -24 63 -24t63 24q17 25 17 90t-17 91z
" />
    <glyph glyph-name="ampersand" unicode="&#x26;" horiz-adv-x="664" 
d="M315 770q71 0 135 -11q19 -4 19 -18v-70q0 -13 -15 -13h-130q-80 0 -110 -18q-29 -18 -29 -79v-14q0 -64 24 -88t96 -24h289q16 0 16 -15v-54q0 -12 -16 -15l-68 -15v-186q0 -33 12.5 -43t49.5 -10h33q16 0 16 -14v-63q0 -14 -15 -18q-27 -7 -68 -7q-30 0 -39 1
q-42 2 -69 29q-66 -30 -149 -30q-123 0 -181 42q-59 44 -59 159v30q0 132 91 157q-91 24 -91 158v33q0 116 61 156t197 40zM414 125v208h-115q-69 0 -91 -25q-21 -23 -23 -86v-13q0 -55 30 -78.5t97 -23.5q51 0 102 18z" />
    <glyph glyph-name="quotesingle" unicode="'" horiz-adv-x="229" 
d="M66 765h98q15 0 15 -15v-107l-2 -20l-23 -154q-2 -15 -15 -15h-49q-12 0 -15 15l-22 154l-2 20v107q0 15 15 15z" />
    <glyph glyph-name="parenleft" unicode="(" horiz-adv-x="341" 
d="M228 821h93q6 0 6 -7v-11l-2 -8q-57 -79 -92 -136q-30 -47 -47 -105q-16 -53 -19 -93q-2 -50 -2 -125t2 -125q3 -40 19 -93q17 -58 47 -106q39 -62 92 -135l2 -8v-11q0 -7 -6 -7h-93q-7 0 -15 7q-87 112 -128 197q-19 39 -26 85q-7 48 -9 84q-2 50 -2 112t2 112
q2 38 9 84q13 66 43.5 119.5t110.5 162.5q7 7 15 7z" />
    <glyph glyph-name="parenright" unicode=")" horiz-adv-x="341" 
d="M20 821h93q8 0 15 -7q87 -113 127 -198q18 -35 26 -84q9 -55 10 -84q2 -50 2 -112t-2 -112q-1 -27 -10 -84q-12 -66 -41 -116.5t-112 -165.5q-8 -7 -15 -7h-93q-6 0 -6 7v11l2 8q53 73 92 135q30 48 47 106q17 56 18 93q3 37 3 125t-3 125q-1 37 -18 93q-17 58 -47 105
q-35 57 -92 136l-2 8v11q0 7 6 7z" />
    <glyph glyph-name="asterisk" unicode="*" horiz-adv-x="423" 
d="M186 785h51q15 0 14 -15l-7 -121l113 44q16 4 19 -9l15 -47q4 -14 -10 -19l-115 -33l77 -94q10 -12 -2 -21l-39 -28q-12 -9 -21 4l-68 99l-70 -101q-9 -12 -21 -3l-37 29q-13 9 -3 21l75 93l-115 34q-15 3 -10 18l15 47q5 15 20 9l111 -43l-6 121q-2 15 14 15z" />
    <glyph glyph-name="plus" unicode="+" horiz-adv-x="553" 
d="M235 546h84q15 0 15 -15v-169h171q15 0 15 -15v-80q0 -15 -15 -15h-171v-170q0 -15 -15 -15h-84q-15 0 -15 15v170h-172q-15 0 -15 15v80q0 15 15 15h172v169q0 15 15 15z" />
    <glyph glyph-name="comma" unicode="," horiz-adv-x="263" 
d="M85 122h120q10 0 10 -10v-18q0 -6 -5 -14l-158 -240q-7 -8 -14 -4l-34 18q-7 4 -3 14l72 246q3 8 12 8z" />
    <glyph glyph-name="hyphen" unicode="-" horiz-adv-x="444" 
d="M76 341h291q16 0 16 -15v-82q0 -15 -16 -15h-291q-15 0 -15 15v82q0 15 15 15z" />
    <glyph glyph-name="period" unicode="." horiz-adv-x="233" 
d="M117 133q34 0 53 -18t19 -51t-19 -51t-53 -18q-35 0 -54.5 18t-19.5 51t19.5 51t54.5 18z" />
    <glyph glyph-name="slash" unicode="/" horiz-adv-x="482" 
d="M402 801h49q13 0 7 -17l-353 -805q-9 -17 -22 -17h-51q-16 0 -7 17l354 805q8 17 23 17z" />
    <glyph glyph-name="zero" unicode="0" horiz-adv-x="677" 
d="M338 770q137 0 200 -50q49 -42 66.5 -118.5t19.5 -220.5q0 -176 -34 -265q-29 -67 -86.5 -93t-165.5 -28q-171 0 -228 79q-57 80 -57 307q0 120 12.5 190t43.5 116q32 46 85.5 64.5t143.5 18.5zM181 381q0 -162 31 -218q32 -56 126 -56t126 56q32 58 32 218
q0 161 -32 219q-31 58 -126 58t-126 -58q-31 -56 -31 -219z" />
    <glyph glyph-name="one" unicode="1" horiz-adv-x="467" 
d="M314 642v-530h122q15 0 15 -15v-82q0 -15 -15 -15h-374q-16 0 -16 15v82q0 15 15 15h129v497q0 32 -16 42.5t-63 10.5h-60q-17 0 -17 15v64q0 14 16 18q39 11 92 11q68 0 112 -19q60 -25 60 -109z" />
    <glyph glyph-name="two" unicode="2" horiz-adv-x="609" 
d="M281 770q100 0 156 -17q116 -34 116 -159v-80q0 -62 -18 -102t-77 -75l-205 -118q-33 -17 -45 -34.5t-12 -45.5v-26h357q7 0 7 -6v-101q0 -6 -6 -6h-494q-26 0 -26 28v89q0 62 27 100q30 40 100 82l226 136q22 14 30 34.5t8 57.5v48q0 48 -35.5 65.5t-117.5 17.5h-191
q-9 0 -9 9v72q0 12 13 16q108 15 196 15z" />
    <glyph glyph-name="three" unicode="3" horiz-adv-x="600" 
d="M235 770q173 0 240 -39q68 -39 68 -157v-33q0 -134 -92 -158q92 -26 92 -157v-30q0 -121 -67 -161t-241 -40q-89 0 -169 11q-19 4 -19 15v76q0 10 15 10h169q113 0 148 21t35 86v6q0 63 -25 87q-24 24 -100 24h-186q-13 0 -13 12v79q0 13 13 13h185q77 0 101 24
q25 24 25 88v12q0 63 -37 81q-36 18 -152 18h-163q-15 0 -15 11v74q0 12 19 16q71 11 169 11z" />
    <glyph glyph-name="four" unicode="4" horiz-adv-x="663" 
d="M185 765h98q15 0 11 -18l-128 -445h213v189q0 13 12 18l99 35q18 8 18 -11v-231h119q16 0 16 -14v-83q0 -15 -16 -15h-119v-175q0 -15 -15 -15h-99q-15 0 -15 15v175h-337q-15 0 -15 15v54q0 10 7 34l133 462q3 10 18 10z" />
    <glyph glyph-name="five" unicode="5" horiz-adv-x="621" 
d="M92 765h452q16 0 16 -15v-82q0 -15 -16 -15h-352l-14 -189q62 5 97 5q164 0 231 -44q65 -43 67 -170v-48q-2 -126 -69 -169t-239 -43q-116 0 -191 9q-18 4 -18 18v74q0 11 15 11h195q107 0 143 24q36 25 36 95v8q-2 72 -37 97q-35 26 -142 26h-189q-21 0 -21 15v78
l21 300q0 15 15 15z" />
    <glyph glyph-name="six" unicode="6" horiz-adv-x="618" 
d="M275 765h107q19 0 10 -18l-145 -291q34 9 82 9q133 0 196 -50.5t63 -159.5v-46q0 -114 -65.5 -164t-206.5 -50q-143 0 -209.5 49.5t-66.5 164.5v46q0 67 21 113l196 387q6 10 18 10zM316 357q-81 0 -114.5 -28t-33.5 -95v-4q0 -67 33.5 -95t114.5 -28q80 0 111.5 28
t31.5 95v4q0 67 -31.5 95t-111.5 28z" />
    <glyph glyph-name="seven" unicode="7" horiz-adv-x="585" 
d="M36 765h515q15 0 15 -15v-62q0 -12 -7 -23l-337 -655q-6 -10 -18 -10h-115q-19 0 -10 18l329 635h-372q-16 0 -16 14v83q0 15 16 15z" />
    <glyph glyph-name="eight" unicode="8" horiz-adv-x="647" 
d="M317 770h16q127 0 187.5 -51t60.5 -158q0 -67 -23.5 -110.5t-75.5 -72.5q63 -28 90.5 -69t27.5 -107q0 -207 -268 -207h-18q-137 0 -202.5 51.5t-65.5 159.5q0 118 122 186q-100 51 -100 167q0 108 61 159.5t188 51.5zM332 658h-13q-122 0 -122 -98q0 -42 22 -67t70 -43
l87 -27q77 44 77 127q0 108 -121 108zM378 308l-108 35q-52 -26 -73.5 -55.5t-21.5 -70.5q0 -110 141 -110h14q141 0 141 99q0 42 -22.5 64t-70.5 38z" />
    <glyph glyph-name="nine" unicode="9" horiz-adv-x="617" 
d="M578 555v-45q0 -69 -22 -113l-196 -387q-6 -10 -18 -10h-106q-19 0 -10 18l144 290q-30 -8 -81 -8q-133 0 -196 50.5t-63 159.5v46q0 114 65.5 164t206.5 50q142 0 209 -50t67 -165zM302 658q-80 0 -112 -28t-32 -95v-4q0 -67 32 -95t112 -28q81 0 114 28t33 95v3
q0 68 -32.5 96t-114.5 28z" />
    <glyph glyph-name="colon" unicode=":" horiz-adv-x="267" 
d="M134 559q34 0 53 -18t19 -51t-19 -51t-53 -18q-35 0 -54 18t-19 51t19 51t54 18zM134 133q34 0 53 -18t19 -51t-19 -51t-53 -18q-35 0 -54 18t-19 51t19 51t54 18z" />
    <glyph glyph-name="semicolon" unicode=";" horiz-adv-x="289" 
d="M153 559q72 0 72 -69t-72 -69q-35 0 -54 18t-19 51t19 51t54 18zM93 122h119q10 0 10 -10v-18q0 -6 -5 -14l-157 -240q-7 -8 -14 -4l-34 18q-7 4 -3 14l71 246q3 8 13 8z" />
    <glyph glyph-name="less" unicode="&#x3c;" horiz-adv-x="545" 
d="M468 615h13q8 0 8 -8v-91q0 -11 -12 -17l-292 -130l292 -130q12 -6 12 -18v-91q0 -8 -8 -8h-13q-5 0 -11 2l-416 190q-12 6 -12 17v75q0 12 12 17l416 190q6 2 11 2z" />
    <glyph glyph-name="equal" unicode="=" horiz-adv-x="655" 
d="M78 496h499q15 0 15 -15v-82q0 -15 -15 -15h-499q-15 0 -15 15v82q0 15 15 15zM78 246h499q15 0 15 -15v-82q0 -15 -15 -15h-499q-15 0 -15 15v82q0 15 15 15z" />
    <glyph glyph-name="greater" unicode="&#x3e;" horiz-adv-x="545" 
d="M64 615h14q4 0 10 -2l416 -190q12 -5 12 -17v-75q0 -11 -12 -17l-416 -190q-6 -2 -10 -2h-14q-8 0 -8 8v91q0 12 12 18l293 130l-293 130q-12 6 -12 17v91q0 8 8 8z" />
    <glyph glyph-name="question" unicode="?" horiz-adv-x="530" 
d="M229 770q99 0 155 -17q112 -31 112 -162v-57q0 -80 -24 -117q-22 -37 -86 -66l-102 -49q-30 -15 -40.5 -26.5t-12.5 -32.5l-2 -21q-1 -9 -10 -9h-82q-9 0 -11 9l-5 57q-4 37 8 56t53 43l130 63q32 15 44 35t12 60v42q0 41 -24 61q-10 8 -31 13q-32 6 -85 6h-186
q-15 0 -15 16v63q0 18 18 21q67 12 184 12zM122 115q20 18 54 18t54 -18q19 -18 19 -51t-19 -51q-20 -18 -54 -18t-54 18q-19 18 -19 51t19 51z" />
    <glyph glyph-name="at" unicode="@" horiz-adv-x="1036" 
d="M529 764q233 0 346 -97.5t113 -305.5q0 -163 -73 -233t-215 -72l-201 1q-98 2 -137 26q-39 25 -41 105v15q1 71 38.5 99.5t122.5 28.5h121v44q0 35 -22 51t-72 16h-139q-8 0 -10 2t-2 10v52q0 11 11 13q64 12 133 12q112 0 158 -32.5t46 -106.5v-284q107 0 166 56
q60 57 60 195q0 181 -101 268t-304 87q-218 0 -322 -105.5t-104 -327.5q0 -213 94 -317q57 -61 137 -86q64 -22 158 -27q13 0 13 -13v-24q0 -14 -13 -14q-227 1 -336 119.5t-109 363.5q0 249 116.5 365t367.5 116zM603 141v117h-113q-43 0 -55 -10t-12 -45v-7
q0 -33 16.5 -43.5t61.5 -11.5h102z" />
    <glyph glyph-name="A" unicode="A" horiz-adv-x="691" 
d="M344 770q84 0 109 -19q26 -20 48 -98l173 -637q3 -16 -12 -16h-102q-10 0 -14 16l-59 215h-285l-60 -215q-4 -16 -13 -16h-103q-15 0 -12 16l178 637q23 78 47 97q26 20 105 20zM344 661q-17 0 -21.5 -6t-13.5 -35l-77 -281h226l-75 281q-9 29 -14 35t-25 6z" />
    <glyph glyph-name="B" unicode="B" horiz-adv-x="693" 
d="M360 770q140 0 204 -47q64 -46 64 -165q0 -79 -23 -120t-76 -52v-3q63 -9 90.5 -53.5t27.5 -126.5q0 -119 -62 -164q-62 -44 -198 -44q-175 0 -295 9q-9 1 -12 3.5t-3 10.5v730q0 8 3 10.5t12 3.5q114 8 268 8zM348 658h-142v-227h113q108 0 143 19q37 19 37 92
q0 67 -33.5 91.5t-117.5 24.5zM385 334h-179v-227h177q74 0 104.5 23t30.5 85q0 67 -31 93t-102 26z" />
    <glyph glyph-name="C" unicode="C" horiz-adv-x="610" 
d="M365 770q127 0 191 -12q19 -3 19 -21v-63q0 -16 -15 -16h-195q-114 0 -149 -56q-34 -55 -34 -219q0 -166 34 -221t149 -55h195q15 0 15 -15v-63q0 -19 -19 -22q-74 -12 -191 -12q-97 0 -155.5 18.5t-94.5 63.5q-35 46 -49 116.5t-14 189.5q0 120 14 190t49 115
q36 46 93.5 64t156.5 18z" />
    <glyph glyph-name="D" unicode="D" horiz-adv-x="741" 
d="M374 770q172 0 245 -91q73 -89 73 -297q0 -206 -73 -297q-73 -90 -245 -90q-162 0 -282 9q-9 1 -12 3t-3 10v731q0 8 3 10.5t12 3.5q114 8 282 8zM364 658h-158v-551h168q101 0 144.5 64t43.5 211q0 148 -45.5 212t-152.5 64z" />
    <glyph glyph-name="E" unicode="E" horiz-adv-x="639" 
d="M92 765h484q16 0 16 -15v-82q0 -15 -16 -15h-370v-224h338q15 0 15 -15v-79q0 -15 -15 -15h-338v-208h370q16 0 16 -15v-82q0 -15 -16 -15h-484q-15 0 -15 15v735q0 15 15 15z" />
    <glyph glyph-name="F" unicode="F" horiz-adv-x="603" 
d="M92 765h473q16 0 16 -15v-82q0 -15 -16 -15h-359v-224h327q15 0 15 -15v-79q0 -15 -15 -15h-327v-305q0 -15 -15 -15h-99q-15 0 -15 15v735q0 15 15 15z" />
    <glyph glyph-name="G" unicode="G" horiz-adv-x="674" 
d="M365 770q136 0 203 -12q18 -3 18 -21v-63q0 -16 -15 -16h-206q-114 0 -149 -56q-34 -55 -34 -220t34 -220t149 -55h139v254q0 16 15 16h91q15 0 15 -16v-291q0 -15 -4 -22q-27 -53 -256 -53q-97 0 -155.5 18.5t-94.5 63.5q-35 45 -49 115t-14 190t14 190t49 115
q36 46 93.5 64.5t156.5 18.5z" />
    <glyph glyph-name="H" unicode="H" horiz-adv-x="781" 
d="M590 765h99q15 0 15 -15v-734q0 -16 -15 -16h-99q-15 0 -15 16v313h-369v-313q0 -16 -15 -16h-99q-15 0 -15 16v734q0 15 15 15h99q15 0 15 -15v-308h369v308q0 15 15 15z" />
    <glyph glyph-name="I" unicode="I" horiz-adv-x="282" 
d="M92 765h98q15 0 15 -15v-734q0 -16 -15 -16h-98q-15 0 -15 16v734q0 15 15 15z" />
    <glyph glyph-name="J" unicode="J" horiz-adv-x="581" 
d="M154 765h342q15 0 15 -15v-373q0 -223 -66 -303q-66 -79 -255 -79q-80 0 -155 12q-19 3 -19 21v64q0 15 15 15h159q119 0 156 55t36 215v276h-228q-15 0 -15 15v82q0 15 15 15z" />
    <glyph glyph-name="K" unicode="K" horiz-adv-x="649" 
d="M500 765h110q24 0 9 -19l-279 -334l303 -385q9 -9 5 -18t-22 -9h-108q-16 0 -22 11l-290 372v-368q0 -15 -15 -15h-99q-15 0 -15 15v735q0 15 15 15h99q15 0 15 -15v-316l273 321q7 10 21 10z" />
    <glyph glyph-name="L" unicode="L" horiz-adv-x="582" 
d="M92 765h99q15 0 15 -15v-638h346q15 0 15 -15v-82q0 -15 -15 -15h-460q-15 0 -15 15v735q0 15 15 15z" />
    <glyph glyph-name="M" unicode="M" horiz-adv-x="961" 
d="M732 765h99q13 0 14 -15l68 -734q1 -16 -15 -16h-98q-14 0 -15 16l-45 525l-198 -503q-6 -13 -20 -13h-83q-15 0 -19 13l-198 503l-46 -525q-1 -16 -15 -16h-98q-16 0 -15 16l68 734q2 15 14 15h99q21 0 30.5 -8t17.5 -31l204 -529l203 530q9 23 18.5 30.5t29.5 7.5z" />
    <glyph glyph-name="N" unicode="N" horiz-adv-x="779" 
d="M589 765h98q15 0 15 -15v-734q0 -16 -15 -16h-77q-27 0 -42 22l-362 539v-545q0 -16 -15 -16h-99q-15 0 -15 16v734q0 15 15 15h83q26 -1 36.5 -6.5t23.5 -24.5l339 -503v519q0 15 15 15z" />
    <glyph glyph-name="O" unicode="O" horiz-adv-x="732" 
d="M366 770q99 0 157 -18.5t93 -64.5q36 -45 50 -115.5t14 -190.5t-14 -189.5t-50 -114.5q-35 -45 -93.5 -63.5t-156.5 -18.5q-97 0 -155.5 18.5t-94.5 63.5q-36 44 -50 114.5t-14 189.5q0 120 14 190.5t50 115.5q36 46 94 64.5t156 18.5zM182 381q0 -163 35 -219
q34 -55 149 -55t149 55q36 56 36 219q0 165 -36 220q-35 57 -149 57t-149 -57q-35 -56 -35 -220z" />
    <glyph glyph-name="P" unicode="P" horiz-adv-x="661" 
d="M331 770q170 0 234 -50q63 -49 63 -199q0 -119 -40 -174q-19 -26 -58 -42q-62 -24 -199 -24h-125v-266q0 -9 -3 -12t-12 -3h-99q-9 0 -12 3t-3 12v733q0 8 3 10.5t12 3.5q114 8 239 8zM319 658h-113v-274h113q63 0 91.5 3.5t50.5 17.5t29.5 38.5t7.5 74.5q0 88 -35 114
t-144 26z" />
    <glyph glyph-name="Q" unicode="Q" horiz-adv-x="732" 
d="M680 381q0 -203 -51 -287q-51 -82 -191 -96l36 -123q4 -16 -15 -16h-90q-16 0 -20 16l-36 122q-152 9 -207 91q-54 82 -54 293q0 120 14 190.5t49 115.5q36 46 94 64.5t157 18.5q98 0 156 -18.5t94 -64.5q36 -45 50 -115.5t14 -190.5zM551 381q0 165 -36 220
q-35 57 -149 57t-150 -57q-35 -56 -35 -220q0 -163 35 -219q36 -55 150 -55q115 0 149 55q36 56 36 219z" />
    <glyph glyph-name="R" unicode="R" horiz-adv-x="676" 
d="M331 770q170 0 234 -50q63 -49 63 -199q0 -116 -36 -167q-35 -51 -123 -64l169 -270q6 -8 2.5 -14t-14.5 -6h-93q-25 0 -40 22l-165 260l-122 -1v-266q0 -9 -3 -12t-12 -3h-99q-9 0 -12 3t-3 12v733q0 8 3 10.5t12 3.5q114 8 239 8zM319 658h-113v-274h113q63 0 91.5 3.5
t50.5 17.5t29.5 38.5t7.5 74.5q0 88 -35 114t-144 26z" />
    <glyph glyph-name="S" unicode="S" horiz-adv-x="613" 
d="M322 770q85 0 201 -17q16 -3 16 -16v-62q0 -17 -15 -17h-231q-112 0 -112 -77v-16q0 -34 14.5 -53.5t52.5 -35.5l203 -81q69 -28 97.5 -70t28.5 -117v-31q0 -107 -80 -148q-71 -34 -195 -34q-123 0 -246 18q-14 3 -14 18v60q0 16 16 16h279q111 0 111 75v17
q0 36 -16 57.5t-58 38.5l-216 85q-58 21 -82 65t-24 121v23q0 105 68.5 143t201.5 38z" />
    <glyph glyph-name="T" unicode="T" horiz-adv-x="625" 
d="M30 765h565q15 0 15 -15v-82q0 -15 -15 -15h-219v-638q0 -15 -15 -15h-98q-15 0 -15 15v638h-218q-15 0 -15 15v82q0 15 15 15z" />
    <glyph glyph-name="U" unicode="U" horiz-adv-x="754" 
d="M571 765h98q15 0 15 -15v-369q0 -124 -13.5 -194t-48.5 -115q-35 -44 -90.5 -60.5t-154.5 -16.5t-154.5 16.5t-90.5 60.5q-35 45 -48.5 115t-13.5 194v369q0 15 15 15h99q15 0 15 -15v-369q0 -163 35 -219q36 -55 143 -55t143 55q36 56 36 219v369q0 9 3 12t12 3z" />
    <glyph glyph-name="V" unicode="V" horiz-adv-x="680" 
d="M32 765h102q6 0 8.5 -3t4.5 -13l162 -605q8 -28 13 -35t17 -7q15 0 21 7.5t13 34.5l157 605q2 10 4.5 13t8.5 3h102q16 0 12 -16l-166 -636q-19 -79 -45 -99q-23 -19 -107 -19q-79 0 -102 19t-46 99l-171 636q-4 16 12 16z" />
    <glyph glyph-name="W" unicode="W" horiz-adv-x="1094" 
d="M948 765h105q9 0 11.5 -3t1.5 -13l-130 -636q-17 -79 -40 -98q-25 -20 -100 -20q-85 0 -108 19q-22 20 -42 99l-99 417l-99 -417q-11 -37 -14 -48t-13.5 -30t-14.5 -21.5t-23.5 -9t-34 -7t-51.5 -2.5q-74 0 -99 20q-23 19 -40 98l-130 636q-1 10 1.5 13t11.5 3h104
q7 0 9.5 -3t4.5 -13l118 -587q5 -26 11 -34t19 -8q15 0 21 7.5t14 34.5l137 558q4 16 19 16h98q15 0 19 -16l137 -558q7 -27 13 -34.5t22 -7.5q13 0 18.5 8t11.5 34l118 587q1 16 13 16z" />
    <glyph glyph-name="X" unicode="X" horiz-adv-x="671" 
d="M523 765h108q24 0 11 -22l-231 -345l252 -376q15 -22 -11 -22h-108q-17 0 -27 16l-182 278l-181 -278q-10 -16 -27 -16h-108q-26 0 -11 22l252 376l-231 345q-13 22 11 22h108q17 0 27 -16l160 -247l161 247q10 16 27 16z" />
    <glyph glyph-name="Y" unicode="Y" horiz-adv-x="685" 
d="M560 765h109q23 0 11 -22l-274 -504v-223q0 -16 -15 -16h-98q-15 0 -15 16v224l-273 503q-12 22 11 22h108q18 0 27 -16l191 -377l191 377q9 16 27 16z" />
    <glyph glyph-name="Z" unicode="Z" horiz-adv-x="670" 
d="M57 765h557q15 0 15 -15v-73q0 -9 -7 -19l-423 -546h423q16 0 16 -15v-82q0 -15 -16 -15h-576q-15 0 -15 15l-1 72q0 11 7 19l423 547h-402q-16 0 -16 14l-1 83q0 15 16 15z" />
    <glyph glyph-name="bracketleft" unicode="[" horiz-adv-x="406" 
d="M94 821h271q15 0 15 -15v-65q0 -15 -15 -15h-169v-781h169q15 0 15 -15v-65q0 -15 -15 -15h-271q-15 0 -15 15v941q0 15 15 15z" />
    <glyph glyph-name="backslash" unicode="\" horiz-adv-x="481" 
d="M31 801h48q16 0 22 -17l356 -805q8 -17 -8 -17h-51q-14 0 -22 17l-353 805q-6 17 8 17z" />
    <glyph glyph-name="bracketright" unicode="]" horiz-adv-x="406" 
d="M41 821h271q15 0 15 -15v-941q0 -15 -15 -15h-271q-15 0 -15 15v65q0 15 15 15h169v781h-169q-15 0 -15 15v65q0 15 15 15z" />
    <glyph glyph-name="asciicircum" unicode="^" horiz-adv-x="525" 
d="M220 739h85q13 0 18 -11l170 -341q11 -18 -11 -18h-95q-12 0 -17 11l-108 226l-108 -226q-6 -11 -18 -11h-93q-22 0 -11 18l170 341q6 11 18 11z" />
    <glyph glyph-name="underscore" unicode="_" horiz-adv-x="595" 
d="M15 -47h565q15 0 15 -15v-43q0 -15 -15 -15h-565q-15 0 -15 15v43q0 15 15 15z" />
    <glyph glyph-name="grave" unicode="`" horiz-adv-x="453" 
d="M130 775h116q9 0 12 -6l73 -125q5 -9 -3 -14l-31 -19q-7 -6 -14 0l-158 135q-5 5 -5 12v7q0 10 10 10z" />
    <glyph glyph-name="a" unicode="a" horiz-adv-x="549" 
d="M255 558q126 0 180 -39t54 -125v-348q0 -21 -20 -29q-75 -22 -225 -22q-114 0 -163 32q-48 33 -48 135q0 89 44.5 124t145.5 35h145v52q0 42 -26.5 61t-86.5 19h-164q-9 0 -12 3t-3 12v61q0 9 2.5 11.5t11.5 4.5q68 13 165 13zM368 107v127h-138q-42 0 -59.5 -15
t-17.5 -52q0 -41 21.5 -56t79.5 -15q70 0 114 11z" />
    <glyph glyph-name="b" unicode="b" horiz-adv-x="589" 
d="M79 764h92q15 0 15 -15v-197q49 6 128 6q138 0 183 -57t45 -225q0 -90 -10 -140.5t-37 -83.5q-27 -32 -72.5 -44.5t-125.5 -12.5q-105 0 -214 18q-19 3 -19 21v715q0 15 15 15zM295 453h-109v-345q59 -8 112 -8q81 0 102 34q21 35 21 142q0 112 -22 144q-23 33 -104 33z
" />
    <glyph glyph-name="c" unicode="c" horiz-adv-x="498" 
d="M291 558q90 0 158 -11q15 -3 15 -18v-61q0 -15 -16 -15h-157q-78 0 -100 -34q-21 -33 -21 -142t21 -143q22 -34 100 -34h157q16 0 16 -15v-61q0 -15 -15 -18q-68 -11 -158 -11q-151 0 -197 55t-46 227q0 92 9.5 141.5t35.5 82.5q27 33 72 45t126 12z" />
    <glyph glyph-name="d" unicode="d" horiz-adv-x="589" 
d="M419 764h91q15 0 15 -15v-715q0 -18 -18 -21q-110 -18 -214 -18q-80 0 -125 12.5t-74 44.5q-27 33 -37 83t-10 141q0 168 45 225q46 57 184 57q78 0 128 -6v197q0 15 15 15zM404 108v345h-109q-83 0 -105 -33q-22 -32 -22 -144q0 -108 21 -142q22 -34 103 -34q53 0 112 8
z" />
    <glyph glyph-name="e" unicode="e" horiz-adv-x="558" 
d="M286 558q75 0 117.5 -12t68.5 -43q27 -31 37 -79.5t11 -136.5v-30q0 -15 -7 -21t-27 -6h-317q1 -79 26 -105q25 -25 98 -25h171q15 0 15 -15v-62q0 -14 -14 -17q-77 -11 -179 -11q-146 0 -192 55q-47 56 -47 226q0 171 46 226q47 56 193 56zM286 453q-71 0 -93 -28
q-23 -27 -24 -108h229q-2 82 -23 108q-22 28 -89 28z" />
    <glyph glyph-name="f" unicode="f" horiz-adv-x="375" 
d="M265 770q44 0 98 -9q15 -3 15 -18v-63q0 -15 -16 -15h-66q-41 0 -56 -9t-15 -38v-66h125q16 0 13 -16l-12 -65q-3 -14 -17 -14h-109v-442q0 -15 -15 -15h-91q-15 0 -15 15v442h-68q-16 0 -16 15v65q0 15 16 15h68v90q0 84 54 109q43 19 107 19z" />
    <glyph glyph-name="g" unicode="g" horiz-adv-x="590" 
d="M294 558q122 0 213 -18q19 -1 19 -20v-488q0 -106 -26 -158q-20 -42 -70.5 -60.5t-141.5 -18.5q-87 0 -164 11q-14 3 -14 16v59q0 15 15 15h156q74 0 99 22q25 21 25 81v5q-55 -9 -128 -9q-138 0 -184 58t-46 228q0 165 48 221q50 56 199 56zM405 107v346h-115
q-79 0 -100 -34q-21 -35 -21 -142q0 -111 22 -143q23 -33 105 -33q67 0 109 6z" />
    <glyph glyph-name="h" unicode="h" horiz-adv-x="600" 
d="M80 764h91q15 0 15 -15v-196q48 5 117 5q79 0 118.5 -8t67.5 -33q29 -24 39.5 -68t10.5 -128v-306q0 -15 -15 -15h-91q-15 0 -15 15v284q0 61 -4.5 89.5t-19.5 43.5t-32.5 18.5t-60.5 3.5h-115v-439q0 -15 -15 -15h-92q-14 0 -14 15v734q0 15 15 15z" />
    <glyph glyph-name="i" unicode="i" horiz-adv-x="251" 
d="M126 780q72 0 72 -69t-72 -69q-35 0 -54 18t-19 51t19 51t54 18zM80 553h91q15 0 15 -15v-523q0 -15 -15 -15h-91q-15 0 -15 15v523q0 15 15 15z" />
    <glyph glyph-name="j" unicode="j" horiz-adv-x="255" 
d="M130 780q34 0 53 -18t19 -51t-19 -51t-53 -18q-35 0 -54 18t-19 51t19 51t54 18zM84 553h91q15 0 15 -15v-638q0 -68 -38 -88q-31 -16 -87 -16q-45 0 -68 6q-15 3 -15 18v67q0 14 16 14h24q31 0 39 7.5t8 36.5v593q0 15 15 15z" />
    <glyph glyph-name="k" unicode="k" horiz-adv-x="531" 
d="M80 764h91q15 0 15 -16v-388l154 183q7 10 21 10h108q25 0 9 -19l-169 -199l220 -308q9 -9 5 -18t-22 -9h-97q-13 0 -22 11l-207 297v-292q0 -16 -15 -16h-91q-15 0 -15 16v732q0 16 15 16z" />
    <glyph glyph-name="l" unicode="l" horiz-adv-x="251" 
d="M80 765h91q15 0 15 -15v-735q0 -15 -15 -15h-91q-15 0 -15 15v735q0 15 15 15z" />
    <glyph glyph-name="m" unicode="m" horiz-adv-x="879" 
d="M597 559q69 0 107 -8.5t65 -31.5q49 -42 49 -182l-2 -322q0 -15 -14 -15h-91q-14 0 -14 15v284q0 73 -11 106q-9 32 -28.5 40.5t-70.5 8.5q-50 0 -100 -8q15 -45 15 -125l-2 -306q0 -15 -13 -15h-92q-15 0 -15 15v304q0 95 -24 115q-14 13 -29.5 16t-56.5 3h-85v-438
q0 -15 -15 -15h-91q-13 0 -15 15v511q0 13 15 16q74 16 178 16q107 0 172 -30q87 31 168 31z" />
    <glyph glyph-name="n" unicode="n" horiz-adv-x="599" 
d="M302 558q79 0 118.5 -8t67.5 -33q29 -24 39.5 -68t10.5 -128v-306q0 -15 -16 -15h-90q-15 0 -15 15v284q0 61 -4.5 89.5t-19.5 42.5q-16 16 -34 19t-59 3h-115v-438q0 -15 -15 -15h-92q-14 0 -14 15v511q0 6 2 9.5t4 4.5t8 2q77 16 224 16z" />
    <glyph glyph-name="o" unicode="o" horiz-adv-x="581" 
d="M534 276q0 -171 -48 -226q-46 -55 -196 -55t-196 55q-47 56 -47 226t47 226t196 56t196 -56q48 -56 48 -226zM390 419q-22 34 -100 34t-100 -34t-22 -143t22 -143q22 -33 100 -33t100 33q22 34 22 143t-22 143z" />
    <glyph glyph-name="p" unicode="p" horiz-adv-x="590" 
d="M296 558q150 0 198 -56q49 -55 49 -221q0 -171 -46 -229q-47 -57 -184 -57q-75 0 -127 6v-185q0 -16 -15 -16h-92q-15 0 -15 16v704q0 17 19 20q109 18 213 18zM300 453h-114v-346q51 -6 108 -6q82 0 105 33q23 34 23 143q0 107 -21 142q-21 34 -101 34z" />
    <glyph glyph-name="q" unicode="q" horiz-adv-x="589" 
d="M294 558q104 0 213 -18q18 -3 18 -20v-704q0 -16 -15 -16h-91q-15 0 -15 16v184q-48 -5 -127 -5q-138 0 -184 58t-46 228q0 130 28 192q22 48 73.5 66.5t145.5 18.5zM404 107v346h-114q-80 0 -101 -34q-21 -35 -21 -142q0 -111 22 -143q22 -33 106 -33q68 0 108 6z" />
    <glyph glyph-name="r" unicode="r" horiz-adv-x="384" 
d="M232 558q83 0 122 -11q16 -4 16 -18v-61q0 -17 -17 -15h-91q-46 0 -62 -10.5t-16 -43.5v-384q0 -15 -15 -15h-91q-15 0 -15 15v415q0 84 58 109q44 19 111 19z" />
    <glyph glyph-name="s" unicode="s" horiz-adv-x="494" 
d="M264 558q82 0 156 -11q15 -3 15 -16v-59q0 -15 -16 -15h-184q-66 0 -66 -44v-12q0 -38 55 -59l131 -48q58 -22 80 -56t22 -90v-13q0 -79 -48.5 -109.5t-158.5 -30.5q-96 0 -195 9q-15 2 -15 15v62q0 16 16 16h194q52 0 70 8.5t18 34.5v10q0 19 -12.5 32t-44.5 25l-132 50
q-100 36 -100 147v20q0 73 53 103.5t162 30.5z" />
    <glyph glyph-name="t" unicode="t" horiz-adv-x="362" 
d="M110 683l91 23q17 5 17 -14v-140h99q16 0 16 -15v-63q0 -16 -16 -16h-99v-305q0 -33 12.5 -43t49.5 -10h44q17 0 17 -14v-66q0 -15 -15 -18q-36 -7 -71 -7q-56 0 -89 8q-34 9 -50.5 35t-19.5 79v341h-57q-16 0 -16 16v63q0 15 16 15h57v115q0 13 14 16z" />
    <glyph glyph-name="u" unicode="u" horiz-adv-x="600" 
d="M429 553h92q15 0 15 -15v-510q0 -6 -2 -9.5t-4.5 -4.5t-8.5 -2q-87 -17 -223 -17q-79 0 -118.5 8t-68.5 33t-39.5 69.5t-10.5 127.5v305q0 15 17 15h90q14 0 14 -15v-283q0 -61 4.5 -89.5t19.5 -43.5t32.5 -18.5t60.5 -3.5h115v438q0 15 15 15z" />
    <glyph glyph-name="v" unicode="v" horiz-adv-x="564" 
d="M428 553h100q8 0 10.5 -3t1.5 -13l-113 -424q-13 -50 -19.5 -67t-22.5 -31q-15 -13 -35.5 -16.5t-69.5 -3.5q-76 0 -99 18q-21 19 -43 100l-117 424q-1 9 1.5 12.5t11.5 3.5h99q6 0 8 -3t5 -13l104 -398q8 -28 12.5 -34t17.5 -6q16 0 21.5 7t12.5 33l101 398q2 10 4.5 13
t8.5 3z" />
    <glyph glyph-name="w" unicode="w" horiz-adv-x="860" 
d="M721 553h99q8 0 10.5 -3t1.5 -12l-87 -436q-13 -69 -38 -89q-23 -18 -89 -18q-74 0 -94 17q-21 18 -37 90l-57 252l-57 -252q-17 -74 -37 -90q-20 -17 -94 -17q-66 0 -89 18q-23 20 -38 89l-87 436q-2 15 12 15h99q6 0 8 -2.5t4 -12.5l76 -409q4 -18 8.5 -23.5t13.5 -5.5
q10 0 13.5 4.5t8.5 24.5l95 393q3 15 14 15h100q10 0 15 -15l95 -393q4 -20 7.5 -24.5t13.5 -4.5t14 5.5t8 23.5l76 409q3 15 12 15z" />
    <glyph glyph-name="x" unicode="x" horiz-adv-x="552" 
d="M402 553h111q9 0 11 -5.5t-3 -12.5l-172 -244l192 -273q11 -18 -9 -18h-111q-9 0 -15 9l-130 188l-130 -188q-6 -9 -15 -9h-111q-19 0 -8 18l191 273l-172 244q-5 7 -3 12.5t11 5.5h111q11 0 17 -9l109 -158l109 158q7 9 17 9z" />
    <glyph glyph-name="y" unicode="y" horiz-adv-x="606" 
d="M435 553h91q15 0 15 -15v-506q0 -106 -26 -158q-20 -42 -70.5 -60.5t-141.5 -18.5q-89 0 -169 11q-13 3 -13 16v59q0 15 14 15h161q74 0 99 22q25 21 25 81v5q-56 -9 -128 -9q-137 0 -185 56q-47 56 -47 209v278q0 15 15 15h91q15 0 15 -15v-261q0 -108 23 -143
q24 -33 107 -33q67 0 109 6v431q0 15 15 15z" />
    <glyph glyph-name="z" unicode="z" horiz-adv-x="528" 
d="M59 553h409q16 0 16 -15v-45q0 -9 -6 -18l-272 -370h273q17 0 17 -15v-75q0 -15 -17 -15h-432q-16 0 -16 15v47q0 11 7 18l273 369h-252q-16 0 -16 16v73q0 15 16 15z" />
    <glyph glyph-name="braceleft" unicode="{" horiz-adv-x="347" 
d="M234 828q36 0 63 -6q17 -3 17 -19v-63q0 -15 -15 -15h-39q-28 0 -39.5 -10.5t-8.5 -34.5l27 -245q3 -24 -2.5 -35.5t-23.5 -23.5l-69 -37v-6l69 -37q18 -12 23.5 -23.5t2.5 -35.5l-27 -245q-3 -24 8.5 -34.5t39.5 -10.5h39q15 0 15 -15v-63q0 -16 -17 -19q-27 -6 -63 -6
q-81 0 -116 29t-28 95l28 267q2 13 -9 18l-78 49q-8 5 -8 18v32q0 13 8 18l78 49q11 5 9 18l-28 267q-7 66 28 95t116 29z" />
    <glyph glyph-name="bar" unicode="|" horiz-adv-x="279" 
d="M94 809h91q15 0 15 -15v-872q0 -15 -15 -15h-91q-15 0 -15 15v872q0 15 15 15z" />
    <glyph glyph-name="braceright" unicode="}" horiz-adv-x="347" 
d="M113 828q81 0 116 -29t28 -95l-28 -267q-1 -13 9 -18l78 -49q8 -5 8 -18v-32q0 -13 -8 -18l-78 -49q-10 -5 -9 -18l28 -267q7 -66 -28 -95t-116 -29q-35 0 -64 6q-16 3 -16 19v63q0 15 15 15h39q27 0 38.5 10.5t9.5 34.5l-27 245q-3 24 2.5 35.5t23.5 23.5l69 37v6
l-69 37q-18 12 -23.5 23.5t-2.5 35.5l27 245q2 24 -9.5 34.5t-38.5 10.5h-39q-15 0 -15 15v63q0 16 16 19q28 6 64 6z" />
    <glyph glyph-name="asciitilde" unicode="~" horiz-adv-x="620" 
d="M201 441q42 2 116 -42.5t100 -42.5q55 0 80 48q7 13 19 5l54 -35q10 -6 4 -18q-17 -51 -58.5 -81.5t-95.5 -30.5q-34 -2 -75.5 20t-79 44t-61.5 21q-55 0 -80 -49q-6 -13 -18 -5l-54 35q-11 6 -5 19q17 51 58.5 81.5t95.5 30.5z" />
    <glyph glyph-name="Adieresis" unicode="&#xa1;" horiz-adv-x="268" 
d="M135 558q34 0 53 -18t19 -51q0 -68 -72 -68q-35 0 -54.5 17.5t-19.5 50.5t19.5 51t54.5 18zM109 353h49q14 0 15 -16l23 -153q2 -14 2 -20v-348q0 -16 -15 -16h-98q-15 0 -15 16v348q0 13 1 20l23 153q3 16 15 16z" />
    <glyph glyph-name="Aring" unicode="&#xa2;" horiz-adv-x="515" 
d="M450 453h-157q-78 0 -100 -34q-21 -33 -21 -142t21 -143q22 -34 100 -34h157q16 0 16 -15v-61q0 -15 -15 -18q-68 -11 -158 -11h-25l-12 -70q-3 -15 -18 -15h-46q-14 0 -13 15l14 77q-85 15 -114 74q-29 60 -29 201q0 165 42 221q44 56 177 60l12 70q1 15 17 15h47
q15 0 12 -15l-13 -71q53 -1 107 -10q15 -3 15 -18v-61q0 -15 -16 -15z" />
    <glyph glyph-name="Ccedilla" unicode="&#xa3;" horiz-adv-x="633" 
d="M436 767q48 0 123 -9q19 -4 19 -18v-74q0 -11 -15 -11h-129q-108 0 -143 -25q-36 -24 -36 -94v-170h233q16 0 16 -15v-55q0 -15 -16 -15h-233v-169h329q15 0 15 -15v-82q0 -15 -15 -15h-544q-16 0 -13 15l15 82q2 15 17 15h68v169h-56q-15 0 -15 15v55q0 15 15 15h56v189
q0 124 68 168t241 44z" />
    <glyph glyph-name="Eacute" unicode="&#xa4;" horiz-adv-x="570" 
d="M56 516l32 33q12 10 22 0l50 -50q51 27 125 27t125 -27l50 50q10 10 22 0l32 -33q11 -11 1 -21l-49 -48q32 -47 32 -122q0 -72 -32 -122l49 -47q10 -11 -1 -22l-32 -32q-12 -10 -22 0l-50 50q-51 -27 -125 -27t-125 27l-50 -50q-10 -10 -22 0l-32 32q-11 11 -1 22l49 47
q-32 50 -32 122q0 75 32 122l-49 48q-10 10 1 21zM185 325q0 -50 26 -76.5t74 -26.5t74 26.5t26 76.5q0 51 -26 77.5t-74 26.5t-74 -26.5t-26 -77.5z" />
    <glyph glyph-name="Ntilde" unicode="&#xa5;" horiz-adv-x="725" 
d="M581 765h108q23 0 11 -22l-252 -435h133q16 0 16 -15v-37q0 -15 -16 -15h-155v-78h155q16 0 16 -15v-37q0 -15 -16 -15h-155v-80q0 -16 -15 -16h-98q-15 0 -15 16v80h-154q-15 0 -15 15v37q0 15 15 15h154v78h-154q-15 0 -15 15v37q0 15 15 15h133l-252 435q-12 22 11 22
h108q18 0 27 -16l191 -349l192 349q9 16 27 16z" />
    <glyph glyph-name="Odieresis" unicode="&#xa6;" horiz-adv-x="279" 
d="M94 809h91q15 0 15 -15v-354q0 -14 -13 -14h-95q-13 0 -13 14v354q0 15 15 15zM92 292h95q13 0 13 -13v-357q0 -15 -15 -15h-91q-15 0 -15 15v357q0 13 13 13z" />
    <glyph glyph-name="Udieresis" unicode="&#xa7;" horiz-adv-x="459" 
d="M253 772q50 0 91 -10q12 -2 12 -12v-57q0 -13 -12 -13h-123q-68 0 -68 -52v-70l160 -61q53 -20 75 -54t22 -90v-285q0 -79 -50 -105t-153 -26q-52 0 -91 10q-13 3 -13 13v57q0 12 13 12h122q68 0 68 52v66l-159 61q-54 20 -75.5 54t-21.5 90v289q0 80 49 105
q50 26 154 26zM249 420l-96 37v-105q0 -46 58 -68l95 -37v105q0 46 -57 68z" />
    <glyph glyph-name="aacute" unicode="&#xa8;" horiz-adv-x="582" 
d="M190 757q68 0 68 -66q0 -67 -68 -67q-70 0 -70 67q0 66 70 66zM462 691q0 -67 -69 -67t-69 67q0 66 69 66t69 -66z" />
    <glyph glyph-name="agrave" unicode="&#xa9;" horiz-adv-x="854" 
d="M715 85q-91 -93 -288 -93t-288 93q-92 94 -92 290t92 290q91 93 288 93t288 -93q92 -94 92 -290t-92 -290zM105 375q0 -167 78 -246t244 -79t244 79t78 246t-78 246t-244 79t-244 -78.5t-78 -246.5zM429 568q71 0 101 -8q13 -3 13 -15v-44q0 -9 -9 -9h-105q-48 0 -61 -25
q-14 -25 -14 -96q0 -72 14 -98q14 -24 61 -24h105q9 0 9 -8v-45q0 -12 -13 -15q-45 -9 -101 -9q-95 0 -130 41q-33 42 -33 158q0 115 33 156q35 41 130 41z" />
    <glyph glyph-name="acircumflex" unicode="&#xaa;" horiz-adv-x="391" 
d="M187 770q77 0 109.5 -23.5t32.5 -76.5v-208q0 -14 -13 -18q-46 -12 -134 -12q-74 0 -102 19t-28 74v11q0 52 28 74.5t89 22.5h84v24q0 48 -66 48h-101q-7 0 -7 8v40q0 7 8 10q38 7 100 7zM253 499v72h-73q-52 0 -52 -35v-3q0 -22 12.5 -30.5t42.5 -8.5q43 0 70 5zM82 373
h222q15 0 15 -15v-29q0 -15 -15 -15h-222q-15 0 -15 15v29q0 15 15 15z" />
    <glyph glyph-name="adieresis" unicode="&#xab;" horiz-adv-x="549" 
d="M172 473h90q15 0 15 -15v-7q0 -11 -7 -18l-126 -158l126 -157q7 -7 7 -18v-7q0 -15 -15 -15h-90q-10 0 -18 9l-110 143q-8 14 -8 22v46q0 11 8 22l110 144q8 9 18 9zM394 473h91q15 0 15 -15v-7q0 -11 -7 -18l-127 -158l127 -157q7 -7 7 -18v-7q0 -15 -15 -15h-91
q-10 0 -18 9l-110 143q-7 10 -7 22v46q0 12 7 22l110 144q8 9 18 9z" />
    <glyph glyph-name="atilde" unicode="&#xac;" horiz-adv-x="613" 
d="M59 474h474q15 0 15 -15v-257q0 -15 -15 -15h-86q-15 0 -15 15v155h-373q-15 0 -15 15v87q0 15 15 15z" />
    <glyph glyph-name="aring" unicode="&#xae;" horiz-adv-x="854" 
d="M715 85q-91 -93 -288 -93t-288 93q-92 94 -92 290t92 290q91 93 288 93t288 -93q92 -94 92 -290t-92 -290zM105 375q0 -167 78 -246t244 -79t244 79t78 246t-78 246t-244 79t-244 -78.5t-78 -246.5zM438 571q83 0 114 -28q32 -29 32 -102q0 -56 -17 -82.5t-58 -35.5
l84 -134q8 -11 -6 -11h-71q-13 0 -22 12l-81 128h-37v-131q0 -9 -8 -9h-71q-9 0 -9 9v371q0 6 8 8q65 5 142 5zM429 495h-53v-110h53q40 0 53 10t13 43t-13.5 45t-52.5 12z" />
    <glyph glyph-name="ccedilla" unicode="&#xaf;" horiz-adv-x="543" 
d="M135 722h273q15 0 15 -15v-51q0 -15 -15 -15h-273q-15 0 -15 15v51q0 15 15 15z" />
    <glyph glyph-name="eacute" unicode="&#xb0;" horiz-adv-x="353" 
d="M176 770q138 0 138 -132t-138 -132q-137 0 -137 132t137 132zM176 703q-65 0 -65 -65t65 -65q66 0 66 65t-66 65z" />
    <glyph glyph-name="egrave" unicode="&#xb1;" horiz-adv-x="602" 
d="M261 635h81q15 0 15 -15v-134h171q15 0 15 -15v-69q0 -15 -15 -15h-171v-135q0 -15 -15 -15h-81q-15 0 -15 15v135h-172q-15 0 -15 15v69q0 15 15 15h172v134q0 15 15 15zM72 179h457q15 0 15 -15v-65q0 -15 -15 -15h-457q-15 0 -15 15v65q0 15 15 15z" />
    <glyph glyph-name="ecircumflex" unicode="&#xb2;" horiz-adv-x="351" 
d="M162 922q75 0 111.5 -21t36.5 -75v-47q0 -35 -10 -55.5t-44 -42.5l-96 -58q-38 -23 -38 -37v-6h189q5 0 5 -4v-62q0 -4 -4 -4h-270q-14 0 -14 15v46q0 33 14 52.5t53 44.5l107 70q28 18 28 54v14q0 26 -16 36t-55 10h-106q-7 0 -7 7v43q0 9 9 12q51 8 107 8z" />
    <glyph glyph-name="edieresis" unicode="&#xb3;" horiz-adv-x="348" 
d="M308 819v-23q0 -67 -62 -81q62 -11 62 -81v-24q0 -58 -35 -80.5t-110 -22.5q-70 0 -118 9q-10 1 -10 12v42q0 7 8 7h96q53 0 71 9t18 37v12q0 48 -78 48h-83q-7 0 -7 7v48q0 7 7 7h82q43 0 61 11t18 38v12q0 27 -19 36.5t-70 9.5h-96q-8 0 -8 7v43q0 10 10 11q48 9 118 9
q74 0 109.5 -23t35.5 -80z" />
    <glyph glyph-name="iacute" unicode="&#xb4;" horiz-adv-x="453" 
d="M207 775h116q10 0 10 -10v-7q0 -7 -5 -12l-158 -135q-7 -6 -14 0l-31 19q-8 5 -3 14l73 125q3 6 12 6z" />
    <glyph glyph-name="igrave" unicode="&#xb5;" horiz-adv-x="604" 
d="M433 553h92q15 0 15 -15v-510q0 -6 -2 -9.5t-4.5 -4.5t-8.5 -2q-87 -17 -223 -17q-80 0 -116 11v-130q0 -15 -15 -15h-91q-15 0 -15 15v662q0 15 17 15h90q14 0 14 -15v-283q0 -61 4.5 -89.5t19.5 -43.5t32.5 -18.5t60.5 -3.5h115v438q0 15 15 15z" />
    <glyph glyph-name="icircumflex" unicode="&#xb6;" horiz-adv-x="692" 
d="M313 770q98 0 155 -18t91 -64t47 -115t13 -190v-383h-97v406q0 143 -34 201q-35 59 -119 69v-386h-53q-81 -1 -130 7.5t-85 30.5q-68 45 -68 174v50q2 130 62 173q61 45 218 45z" />
    <glyph glyph-name="idieresis" unicode="&#xb7;" horiz-adv-x="247" 
d="M124 346q34 0 53 -18t19 -51t-19 -51t-53 -18q-35 0 -54.5 18t-19.5 51t19.5 51t54.5 18z" />
    <glyph glyph-name="ntilde" unicode="&#xb8;" horiz-adv-x="420" 
d="M226 18h39q13 0 17 -12q18 -58 18 -100q0 -41 -23.5 -59t-75.5 -18q-48 0 -69 8q-12 5 -12 18v47q0 14 14 14h36q30 1 39 5t12 24q0 14 -8 57q-4 16 13 16z" />
    <glyph glyph-name="oacute" unicode="&#xb9;" horiz-adv-x="279" 
d="M188 848v-268h64q9 0 9 -9v-54q0 -7 -9 -7h-208q-9 0 -9 8v53q0 9 9 9h67v246q0 17 -8.5 23t-29.5 6h-34q-9 0 -9 9v42q0 7 8 10q27 6 54 6q48 0 72 -16t24 -58z" />
    <glyph glyph-name="ograve" unicode="&#xba;" horiz-adv-x="404" 
d="M202 770q90 0 118 -34q29 -34 29 -135q0 -102 -29 -136q-28 -33 -118 -33t-119 33q-28 34 -28 136q0 101 29 135q28 34 118 34zM131 601q0 -64 13 -83q14 -20 58 -20q45 0 58 19t13 84t-13 84q-14 20 -58 20t-58 -20q-13 -19 -13 -84zM91 373h222q15 0 15 -15v-29
q0 -15 -15 -15h-222q-15 0 -15 15v29q0 15 15 15z" />
    <glyph glyph-name="ocircumflex" unicode="&#xbb;" horiz-adv-x="548" 
d="M64 473h90q10 0 18 -9l111 -144q7 -10 7 -22v-46q0 -12 -7 -22l-111 -143q-8 -9 -18 -9h-90q-15 0 -15 15v7q0 11 7 18l127 157l-127 158q-7 7 -7 18v7q0 15 15 15zM287 473h90q11 0 18 -9l110 -144q7 -10 7 -22v-46q0 -12 -7 -22l-110 -143q-7 -9 -18 -9h-90
q-15 0 -15 15v7q0 11 7 18l126 157l-126 158q-7 7 -7 18v7q0 15 15 15z" />
    <glyph glyph-name="odieresis" unicode="&#xbc;" horiz-adv-x="872" 
d="M573 801h35q13 0 7 -17l-353 -805q-8 -17 -22 -17h-37q-15 0 -7 17l354 805q8 17 23 17zM268 417v-54q0 -7 -8 -7h-209q-9 0 -9 8v53q0 9 9 9h67v246q0 17 -8.5 23t-29.5 6h-34q-9 0 -9 9v42q0 7 8 10q27 6 54 6q48 0 72 -16t24 -58v-268h65q8 0 8 -9zM780 289v-119h60
q9 0 9 -7v-55q0 -7 -9 -7h-60v-92q0 -9 -8 -9h-65q-7 0 -7 9v92h-179q-8 0 -8 7v38q0 6 4 18l68 240q3 6 10 6h64q9 0 6 -10l-65 -230h100v94q0 8 6 9l65 22q9 3 9 -6z" />
    <glyph glyph-name="otilde" unicode="&#xbd;" horiz-adv-x="851" 
d="M572 801h35q13 0 7 -17l-353 -805q-9 -17 -22 -17h-37q-16 0 -7 17l354 805q8 17 23 17zM262 417v-54q0 -7 -8 -7h-209q-9 0 -9 8v53q0 9 9 9h67v246q0 17 -8.5 23t-29.5 6h-34q-9 0 -9 9v42q0 7 8 10q27 6 54 6q48 0 72 -16t24 -58v-268h65q8 0 8 -9zM626 76v-6h189
q5 0 5 -4v-62q0 -4 -4 -4h-270q-14 0 -14 15v47q0 32 13.5 51.5t53.5 44.5l107 70q28 19 28 54v14q0 26 -16 36t-56 10h-105q-7 0 -7 7v44q0 8 9 11q51 8 107 8q75 0 111.5 -21t36.5 -75v-47q0 -34 -11 -55t-43 -42l-97 -59q-37 -22 -37 -37z" />
    <glyph glyph-name="uacute" unicode="&#xbe;" horiz-adv-x="914" 
d="M618 801h35q13 0 7 -17l-353 -805q-9 -17 -22 -17h-37q-16 0 -7 17l354 805q8 17 23 17zM314 665v-23q0 -67 -62 -81q62 -12 62 -81v-24q0 -58 -35 -80.5t-110 -22.5q-70 0 -118 9q-10 1 -10 12v42q0 7 7 7h97q53 0 71 9t18 37v12q0 26 -18.5 37t-60.5 11h-82q-7 0 -7 7
v48q0 7 7 7h82q43 0 61 11t18 38v12q0 27 -19 36.5t-70 9.5h-97q-7 0 -7 7v43q0 10 10 11q48 9 118 9q74 0 109.5 -23t35.5 -80zM636 410h64q9 0 6 -10l-65 -230h100v94q0 8 6 9l65 22q10 3 10 -6v-119h59q9 0 9 -7v-55q0 -7 -9 -7h-59v-92q0 -9 -9 -9h-64q-8 0 -8 9v92
h-179q-7 0 -7 7v38q0 10 4 18l68 240q1 6 9 6z" />
    <glyph glyph-name="ugrave" unicode="&#xbf;" horiz-adv-x="524" 
d="M351 558q72 0 72 -69q0 -68 -72 -68q-73 0 -73 68q0 33 19 51t54 18zM307 353h83q9 0 10 -10l5 -57q5 -35 -7 -54.5t-54 -43.5l-129 -64q-31 -15 -43.5 -35t-12.5 -59v-30q0 -52 41.5 -72.5t128.5 -20.5h156q15 0 15 -15v-63q0 -18 -19 -22q-75 -12 -153 -12
q-128 0 -207 36q-91 39 -91 156v45q0 79 23 117q24 37 87 66l102 49q31 15 41 25.5t13 32.5l2 21q0 10 9 10z" />
    <glyph glyph-name="ucircumflex" unicode="&#xc0;" horiz-adv-x="691" 
d="M194 975h116q9 0 12 -6l73 -125q5 -9 -3 -14l-31 -19q-7 -6 -14 0l-158 135q-5 8 -5 12v7q0 10 10 10zM344 770q84 0 109 -19q26 -20 48 -98l173 -637q3 -16 -12 -16h-102q-10 0 -14 16l-59 215h-285l-60 -215q-4 -16 -13 -16h-103q-15 0 -12 16l178 637q23 78 47 97
q26 20 105 20zM344 661q-17 0 -21.5 -6t-13.5 -35l-77 -281h226l-75 281q-9 29 -14 35t-25 6z" />
    <glyph glyph-name="udieresis" unicode="&#xc1;" horiz-adv-x="691" 
d="M381 975h116q10 0 10 -10v-7q0 -4 -5 -12l-158 -135q-7 -6 -14 0l-31 19q-8 5 -3 14l73 125q3 6 12 6zM344 770q84 0 109 -19q26 -20 48 -98l173 -637q3 -16 -12 -16h-102q-10 0 -14 16l-59 215h-285l-60 -215q-4 -16 -13 -16h-103q-15 0 -12 16l178 637q23 78 47 97
q26 20 105 20zM344 661q-17 0 -21.5 -6t-13.5 -35l-77 -281h226l-75 281q-9 29 -14 35t-25 6z" />
    <glyph glyph-name="dagger" unicode="&#xc2;" horiz-adv-x="691" 
d="M312 975h64q12 0 18 -8l92 -127q8 -8 -3 -15l-25 -14q-7 -6 -16 0l-98 74l-98 -74q-9 -6 -16 0l-25 14q-11 7 -3 15l92 127q6 8 18 8zM344 770q84 0 109 -19q26 -20 48 -98l173 -637q3 -16 -12 -16h-102q-10 0 -14 16l-59 215h-285l-60 -215q-4 -16 -13 -16h-103
q-15 0 -12 16l178 637q23 78 47 97q26 20 105 20zM344 661q-17 0 -21.5 -6t-13.5 -35l-77 -281h226l-75 281q-9 29 -14 35t-25 6z" />
    <glyph glyph-name="degree" unicode="&#xc3;" horiz-adv-x="691" 
d="M270 958q24 0 75 -20t64 -20q18 0 27.5 7t18.5 27q6 14 18 10l33 -9q14 -5 11 -22q-18 -62 -38 -83.5t-61 -21.5q-24 0 -75 20t-64 20q-18 0 -27.5 -7t-18.5 -27q-6 -14 -18 -10l-33 8q-14 5 -11 22q18 62 38.5 84t60.5 22zM344 770q84 0 109 -19q26 -20 48 -98l173 -637
q3 -16 -12 -16h-102q-10 0 -14 16l-59 215h-285l-60 -215q-4 -16 -13 -16h-103q-15 0 -12 16l178 637q23 78 47 97q26 20 105 20zM344 661q-17 0 -21.5 -6t-13.5 -35l-77 -281h226l-75 281q-9 29 -14 35t-25 6z" />
    <glyph glyph-name="cent" unicode="&#xc4;" horiz-adv-x="691" 
d="M243 957q68 0 68 -66q0 -67 -68 -67q-70 0 -70 67q0 66 70 66zM515 891q0 -67 -69 -67t-69 67q0 66 69 66t69 -66zM344 770q84 0 109 -19q26 -20 48 -98l173 -637q3 -16 -12 -16h-102q-10 0 -14 16l-59 215h-285l-60 -215q-4 -16 -13 -16h-103q-15 0 -12 16l178 637
q23 78 47 97q26 20 105 20zM344 661q-17 0 -21.5 -6t-13.5 -35l-77 -281h226l-75 281q-9 29 -14 35t-25 6z" />
    <glyph glyph-name="sterling" unicode="&#xc5;" horiz-adv-x="691" 
d="M344 1023q112 0 112 -108q0 -107 -112 -107q-111 0 -111 107q0 108 111 108zM406 915q0 62 -62 62t-62 -62t62 -62t62 62zM344 770q84 0 109 -19q26 -20 48 -98l173 -637q3 -16 -12 -16h-102q-10 0 -14 16l-59 215h-285l-60 -215q-4 -16 -13 -16h-103q-15 0 -12 16
l178 637q23 78 47 97q26 20 105 20zM344 661q-17 0 -21.5 -6t-13.5 -35l-77 -281h226l-75 281q-9 29 -14 35t-25 6z" />
    <glyph glyph-name="section" unicode="&#xc6;" horiz-adv-x="994" 
d="M344 770l247 -5h340q15 0 15 -15v-82q0 -15 -15 -15h-331v-224h298q16 0 16 -15v-79q0 -15 -16 -15h-298v-208h331q15 0 15 -15v-82q0 -15 -15 -15h-444q-15 0 -15 15v216h-270l-60 -215q-4 -16 -13 -16h-103q-15 0 -12 16l178 637q23 78 47 97q26 20 105 20zM472 339
v322h-118q-23 0 -31 -8.5t-16 -40.5l-75 -273h240z" />
    <glyph glyph-name="bullet.001" unicode="&#xc7;" horiz-adv-x="610" 
d="M560 658h-195q-114 0 -149 -56q-34 -55 -34 -219q0 -166 34 -221t149 -55h195q15 0 15 -15v-63q0 -19 -19 -22q-68 -11 -173 -12q15 -49 15 -89q0 -42 -24 -59q-23 -18 -74 -18q-49 0 -70 8q-12 5 -12 18v47q0 14 15 14h36q29 0 39.5 4.5t10.5 24.5q0 18 -6 51
q-151 10 -207 93q-54 83 -54 294q0 120 14 190t49 115q36 46 93.5 64t156.5 18q127 0 191 -12q19 -3 19 -21v-63q0 -16 -15 -16z" />
    <glyph glyph-name="paragraph" unicode="&#xc8;" horiz-adv-x="639" 
d="M205 975h116q9 0 12 -6l73 -125q5 -9 -3 -14l-31 -19q-7 -6 -14 0l-158 135q-5 8 -5 12v7q0 10 10 10zM92 765h484q16 0 16 -15v-82q0 -15 -16 -15h-370v-224h338q15 0 15 -15v-79q0 -15 -15 -15h-338v-208h370q16 0 16 -15v-82q0 -15 -16 -15h-484q-15 0 -15 15v735
q0 15 15 15z" />
    <glyph glyph-name="germandbls" unicode="&#xc9;" horiz-adv-x="639" 
d="M339 975h116q10 0 10 -10v-7q0 -4 -5 -12l-158 -135q-7 -6 -14 0l-31 19q-8 5 -3 14l73 125q3 6 12 6zM92 765h484q16 0 16 -15v-82q0 -15 -16 -15h-370v-224h338q15 0 15 -15v-79q0 -15 -15 -15h-338v-208h370q16 0 16 -15v-82q0 -15 -16 -15h-484q-15 0 -15 15v735
q0 15 15 15z" />
    <glyph glyph-name="registered" unicode="&#xca;" horiz-adv-x="639" 
d="M295 975h63q13 0 18 -8l92 -127q8 -8 -3 -15l-24 -14q-9 -6 -16 0l-98 74l-99 -74q-8 -5 -16 0l-24 14q-11 6 -4 15l93 127q5 8 18 8zM92 765h484q16 0 16 -15v-82q0 -15 -16 -15h-370v-224h338q15 0 15 -15v-79q0 -15 -15 -15h-338v-208h370q16 0 16 -15v-82
q0 -15 -16 -15h-484q-15 0 -15 15v735q0 15 15 15z" />
    <glyph glyph-name="copyright" unicode="&#xcb;" horiz-adv-x="639" 
d="M225 957q69 0 69 -66q0 -67 -69 -67q-70 0 -70 67q0 66 70 66zM497 891q0 -67 -69 -67t-69 67q0 66 69 66t69 -66zM92 765h484q16 0 16 -15v-82q0 -15 -16 -15h-370v-224h338q15 0 15 -15v-79q0 -15 -15 -15h-338v-208h370q16 0 16 -15v-82q0 -15 -16 -15h-484
q-15 0 -15 15v735q0 15 15 15z" />
    <glyph glyph-name="trademark" unicode="&#xcc;" horiz-adv-x="283" 
d="M-7 975h116q9 0 12 -6l73 -125q5 -9 -3 -14l-31 -19q-8 -5 -14 0l-158 135q-5 5 -5 12v7q0 10 10 10zM92 765h99q15 0 15 -15v-734q0 -16 -15 -16h-99q-15 0 -15 16v734q0 15 15 15z" />
    <glyph glyph-name="acute" unicode="&#xcd;" horiz-adv-x="283" 
d="M172 975h116q10 0 10 -10v-7q0 -7 -5 -12l-158 -135q-6 -5 -14 0l-31 19q-8 5 -3 14l73 125q3 6 12 6zM92 765h99q15 0 15 -15v-734q0 -16 -15 -16h-99q-15 0 -15 16v734q0 15 15 15z" />
    <glyph glyph-name="dieresis" unicode="&#xce;" horiz-adv-x="282" 
d="M108 975h63q13 0 18 -8l92 -127q7 -8 -3 -15l-24 -14q-8 -5 -16 0l-98 74l-99 -74q-7 -6 -16 0l-24 14q-11 7 -3 15l92 127q5 8 18 8zM92 765h98q15 0 15 -15v-734q0 -16 -15 -16h-98q-15 0 -15 16v734q0 15 15 15z" />
    <glyph glyph-name="notequal" unicode="&#xcf;" horiz-adv-x="282" 
d="M39 957q68 0 68 -66q0 -67 -68 -67q-70 0 -70 67q0 66 70 66zM242 957q69 0 69 -66q0 -67 -69 -67q-70 0 -70 67q0 66 70 66zM92 765h98q15 0 15 -15v-734q0 -16 -15 -16h-98q-15 0 -15 16v734q0 15 15 15z" />
    <glyph glyph-name="AE" unicode="&#xd0;" horiz-adv-x="752" 
d="M385 770q172 0 245 -91q73 -89 73 -297q0 -206 -73 -297q-74 -90 -245 -90q-162 0 -282 9q-9 1 -12 3t-3 10v321h-70q-15 0 -15 15v51q0 15 15 15h70v329q0 8 3 10.5t12 3.5q114 8 282 8zM217 338v-231h168q101 0 144.5 64t43.5 211q0 148 -46 212t-153 64h-157v-239h144
q15 0 15 -15v-51q0 -15 -15 -15h-144z" />
    <glyph glyph-name="Oslash" unicode="&#xd1;" horiz-adv-x="779" 
d="M316 958q24 0 75 -20t64 -20q17 0 26.5 7t18.5 27q6 14 19 10l32 -9q16 -5 11 -22q-18 -62 -38 -83.5t-61 -21.5q-24 0 -75 20t-64 20q-17 0 -26.5 -7t-18.5 -27q-6 -14 -19 -10l-32 8q-15 6 -11 22q18 62 38.5 84t60.5 22zM589 765h98q15 0 15 -15v-734q0 -16 -15 -16
h-77q-27 0 -42 22l-362 539v-545q0 -16 -15 -16h-99q-15 0 -15 16v734q0 15 15 15h83q26 -1 36.5 -6.5t23.5 -24.5l339 -503v519q0 15 15 15z" />
    <glyph glyph-name="infinity" unicode="&#xd2;" horiz-adv-x="732" 
d="M194 975h116q9 0 12 -6l73 -125q5 -9 -3 -14l-31 -19q-8 -5 -14 0l-158 135q-5 5 -5 12v7q0 10 10 10zM366 770q99 0 157 -18.5t93 -64.5q36 -45 50 -115.5t14 -190.5t-14 -189.5t-50 -114.5q-35 -45 -93.5 -63.5t-156.5 -18.5q-97 0 -155.5 18.5t-94.5 63.5
q-36 44 -50 114.5t-14 189.5q0 120 14 190.5t50 115.5q36 46 94 64.5t156 18.5zM182 381q0 -163 35 -219q34 -55 149 -55t149 55q36 56 36 219q0 165 -36 220q-35 57 -149 57t-149 -57q-35 -56 -35 -220z" />
    <glyph glyph-name="plusminus" unicode="&#xd3;" horiz-adv-x="732" 
d="M397 975h116q10 0 10 -10v-7q0 -4 -5 -12l-158 -135q-7 -6 -14 0l-31 19q-8 5 -3 14l73 125q3 6 12 6zM366 770q99 0 157 -18.5t93 -64.5q36 -45 50 -115.5t14 -190.5t-14 -189.5t-50 -114.5q-35 -45 -93.5 -63.5t-156.5 -18.5q-97 0 -155.5 18.5t-94.5 63.5
q-36 44 -50 114.5t-14 189.5q0 120 14 190.5t50 115.5q36 46 94 64.5t156 18.5zM182 381q0 -163 35 -219q34 -55 149 -55t149 55q36 56 36 219q0 165 -36 220q-35 57 -149 57t-149 -57q-35 -56 -35 -220z" />
    <glyph glyph-name="lessequal.001" unicode="&#xd4;" horiz-adv-x="732" 
d="M335 975h63q13 0 18 -8l92 -127q8 -8 -3 -15l-24 -14q-9 -6 -16 0l-99 74l-98 -74q-8 -5 -16 0l-24 14q-11 6 -4 15l92 127q6 8 19 8zM366 770q99 0 157 -18.5t93 -64.5q36 -45 50 -115.5t14 -190.5t-14 -189.5t-50 -114.5q-35 -45 -93.5 -63.5t-156.5 -18.5
q-97 0 -155.5 18.5t-94.5 63.5q-36 44 -50 114.5t-14 189.5q0 120 14 190.5t50 115.5q36 46 94 64.5t156 18.5zM182 381q0 -163 35 -219q34 -55 149 -55t149 55q36 56 36 219q0 165 -36 220q-35 57 -149 57t-149 -57q-35 -56 -35 -220z" />
    <glyph glyph-name="greaterequal.001" unicode="&#xd5;" horiz-adv-x="732" 
d="M293 958q24 0 75 -20t64 -20q17 0 26.5 7t18.5 27q6 14 18 10l33 -9q16 -5 11 -22q-18 -62 -38 -83.5t-61 -21.5q-24 0 -75 20t-64 20q-18 0 -27.5 -7t-17.5 -27q-8 -14 -19 -10l-33 8q-14 6 -10 22q17 62 37.5 84t61.5 22zM366 770q99 0 157 -18.5t93 -64.5
q36 -45 50 -115.5t14 -190.5t-14 -189.5t-50 -114.5q-35 -45 -93.5 -63.5t-156.5 -18.5q-97 0 -155.5 18.5t-94.5 63.5q-36 44 -50 114.5t-14 189.5q0 120 14 190.5t50 115.5q36 46 94 64.5t156 18.5zM182 381q0 -163 35 -219q34 -55 149 -55t149 55q36 56 36 219
q0 165 -36 220q-35 57 -149 57t-149 -57q-35 -56 -35 -220z" />
    <glyph glyph-name="yen" unicode="&#xd6;" horiz-adv-x="732" 
d="M265 957q68 0 68 -66q0 -67 -68 -67q-70 0 -70 67q0 66 70 66zM537 891q0 -67 -69 -67t-69 67q0 66 69 66t69 -66zM366 770q99 0 157 -18.5t93 -64.5q36 -45 50 -115.5t14 -190.5t-14 -189.5t-50 -114.5q-35 -45 -93.5 -63.5t-156.5 -18.5q-97 0 -155.5 18.5t-94.5 63.5
q-36 44 -50 114.5t-14 189.5q0 120 14 190.5t50 115.5q36 46 94 64.5t156 18.5zM182 381q0 -163 35 -219q34 -55 149 -55t149 55q36 56 36 219q0 165 -36 220q-35 57 -149 57t-149 -57q-35 -56 -35 -220z" />
    <glyph glyph-name="mu" unicode="&#xd7;" horiz-adv-x="532" 
d="M423 536l58 -57q11 -11 0 -22l-135 -134l134 -133q11 -11 0 -22l-62 -61q-11 -11 -22 0l-133 133l-134 -134q-11 -12 -22 -1l-57 58q-9 11 0 22l135 133l-133 134q-12 12 -1 22l62 61q11 11 22 0l133 -133l134 134q10 10 21 0z" />
    <glyph glyph-name="partialdiff.001" unicode="&#xd8;" horiz-adv-x="732" 
d="M366 770q139 0 203 -40l26 38q11 14 21 4l34 -23q12 -7 3 -21l-32 -46q59 -80 59 -301q0 -120 -14 -189.5t-50 -114.5q-35 -45 -93.5 -63.5t-156.5 -18.5q-133 0 -200 38l-30 -42q-9 -14 -20 -3l-34 23q-11 7 -4 20l35 49q-61 80 -61 301q0 120 14 190.5t50 115.5
q36 46 94 64.5t156 18.5zM366 658q-114 0 -149 -57q-35 -56 -35 -220q0 -121 17 -177l296 421q-39 33 -129 33zM534 558l-294 -420q38 -31 126 -31q115 0 149 55q36 56 36 219q0 121 -17 177z" />
    <glyph glyph-name="summation" unicode="&#xd9;" horiz-adv-x="754" 
d="M225 975h116q9 0 12 -6l73 -125q5 -9 -3 -14l-31 -19q-7 -6 -14 0l-158 135q-5 8 -5 12v7q0 10 10 10zM571 765h98q15 0 15 -15v-369q0 -124 -13.5 -194t-48.5 -115q-35 -44 -90.5 -60.5t-154.5 -16.5t-154.5 16.5t-90.5 60.5q-35 45 -48.5 115t-13.5 194v369q0 15 15 15
h99q15 0 15 -15v-369q0 -163 35 -219q36 -55 143 -55t143 55q36 56 36 219v369q0 9 3 12t12 3z" />
    <glyph glyph-name="product" unicode="&#xda;" horiz-adv-x="754" 
d="M400 975h116q10 0 10 -10v-7q0 -4 -5 -12l-158 -135q-7 -6 -14 0l-31 19q-8 5 -3 14l73 125q3 6 12 6zM571 765h98q15 0 15 -15v-369q0 -124 -13.5 -194t-48.5 -115q-35 -44 -90.5 -60.5t-154.5 -16.5t-154.5 16.5t-90.5 60.5q-35 45 -48.5 115t-13.5 194v369q0 15 15 15
h99q15 0 15 -15v-369q0 -163 35 -219q36 -55 143 -55t143 55q36 56 36 219v369q0 9 3 12t12 3z" />
    <glyph glyph-name="pi.001" unicode="&#xdb;" horiz-adv-x="754" 
d="M345 975h64q13 0 18 -8l92 -127q7 -8 -3 -15l-25 -14q-7 -6 -16 0l-98 74l-98 -74q-9 -6 -16 0l-25 14q-10 7 -3 15l92 127q6 8 18 8zM571 765h98q15 0 15 -15v-369q0 -124 -13.5 -194t-48.5 -115q-35 -44 -90.5 -60.5t-154.5 -16.5t-154.5 16.5t-90.5 60.5
q-35 45 -48.5 115t-13.5 194v369q0 15 15 15h99q15 0 15 -15v-369q0 -163 35 -219q36 -55 143 -55t143 55q36 56 36 219v369q0 9 3 12t12 3z" />
    <glyph glyph-name="integral" unicode="&#xdc;" horiz-adv-x="754" 
d="M276 957q68 0 68 -66q0 -67 -68 -67q-70 0 -70 67q0 66 70 66zM548 891q0 -67 -69 -67t-69 67q0 66 69 66t69 -66zM571 765h98q15 0 15 -15v-369q0 -124 -13.5 -194t-48.5 -115q-35 -44 -90.5 -60.5t-154.5 -16.5t-154.5 16.5t-90.5 60.5q-35 45 -48.5 115t-13.5 194v369
q0 15 15 15h99q15 0 15 -15v-369q0 -163 35 -219q36 -55 143 -55t143 55q36 56 36 219v369q0 9 3 12t12 3z" />
    <glyph glyph-name="ordfeminine" unicode="&#xdd;" horiz-adv-x="685" 
d="M375 975h116q10 0 10 -10v-7q0 -7 -5 -12l-158 -135q-7 -6 -14 0l-31 19q-8 5 -3 14l73 125q3 6 12 6zM560 765h109q23 0 11 -22l-274 -504v-223q0 -16 -15 -16h-98q-15 0 -15 16v224l-273 503q-12 22 11 22h108q18 0 27 -16l191 -377l191 377q9 16 27 16z" />
    <glyph glyph-name="ordmasculine" unicode="&#xde;" horiz-adv-x="656" 
d="M92 766h99q15 0 15 -16v-119q64 3 119 3q171 0 234 -51q63 -49 63 -200q0 -149 -63 -200q-64 -50 -234 -50q-5 0 -119 2v-118q0 -16 -15 -16h-99q-15 0 -15 16v733q0 16 15 16zM313 523h-107v-280h107q109 0 144 26t35 114t-35 114t-144 26z" />
    <glyph glyph-name="Omega.001" unicode="&#xdf;" horiz-adv-x="613" 
d="M300 770q132 0 191 -47t59 -165q0 -79 -22.5 -120t-74.5 -52v-3q63 -9 89.5 -53t26.5 -127q0 -119 -61 -164q-62 -44 -197 -44q-29 0 -68 4q-16 1 -13 17l19 78q3 13 14 13h48q73 1 102.5 23.5t29.5 84.5q0 67 -31.5 93t-102.5 26h-54q-15 0 -15 15v67q0 15 16 15h52
q60 0 88 24t28 87q0 68 -27.5 92t-97.5 24q-61 0 -85 -26q-24 -25 -24 -100v-517q0 -15 -15 -15h-95q-15 0 -15 15v519q0 131 50 184q49 52 185 52z" />
    <glyph glyph-name="ae" unicode="&#xe0;" horiz-adv-x="549" 
d="M134 775h116q9 0 12 -6l73 -125q5 -9 -3 -14l-31 -19q-7 -6 -14 0l-158 135q-5 5 -5 12v7q0 10 10 10zM255 558q126 0 180 -39t54 -125v-348q0 -21 -20 -29q-75 -22 -225 -22q-114 0 -163 32q-48 33 -48 135q0 89 44.5 124t145.5 35h145v52q0 42 -26.5 61t-86.5 19h-164
q-9 0 -12 3t-3 12v61q0 9 2.5 11.5t11.5 4.5q68 13 165 13zM368 107v127h-138q-42 0 -59.5 -15t-17.5 -52q0 -41 21.5 -56t79.5 -15q70 0 114 11z" />
    <glyph glyph-name="oslash" unicode="&#xe1;" horiz-adv-x="549" 
d="M274 775h116q10 0 10 -10v-7q0 -4 -5 -12l-158 -135q-7 -6 -14 0l-31 19q-8 5 -3 14l73 125q3 6 12 6zM255 558q126 0 180 -39t54 -125v-348q0 -21 -20 -29q-75 -22 -225 -22q-114 0 -163 32q-48 33 -48 135q0 89 44.5 124t145.5 35h145v52q0 42 -26.5 61t-86.5 19h-164
q-9 0 -12 3t-3 12v61q0 9 2.5 11.5t11.5 4.5q68 13 165 13zM368 107v127h-138q-42 0 -59.5 -15t-17.5 -52q0 -41 21.5 -56t79.5 -15q70 0 114 11z" />
    <glyph glyph-name="questiondown" unicode="&#xe2;" horiz-adv-x="549" 
d="M238 775h63q13 0 19 -8l92 -127q8 -8 -3 -15l-25 -14q-7 -6 -16 0l-98 74l-98 -74q-9 -6 -16 0l-25 14q-11 7 -3 15l92 127q5 8 18 8zM255 558q126 0 180 -39t54 -125v-348q0 -21 -20 -29q-75 -22 -225 -22q-114 0 -163 32q-48 33 -48 135q0 89 44.5 124t145.5 35h145v52
q0 42 -26.5 61t-86.5 19h-164q-9 0 -12 3t-3 12v61q0 9 2.5 11.5t11.5 4.5q68 13 165 13zM368 107v127h-138q-42 0 -59.5 -15t-17.5 -52q0 -41 21.5 -56t79.5 -15q70 0 114 11z" />
    <glyph glyph-name="exclamdown" unicode="&#xe3;" horiz-adv-x="549" 
d="M196 758q24 0 75 -20t64 -20q18 0 27.5 7t17.5 27q8 15 19 10l33 -9q14 -5 11 -22q-18 -62 -38 -83.5t-61 -21.5q-25 0 -76 20t-64 20q-17 0 -26.5 -7t-18.5 -27q-6 -14 -18 -10l-33 8q-14 5 -11 22q18 62 38.5 84t60.5 22zM255 558q126 0 180 -39t54 -125v-348
q0 -21 -20 -29q-75 -22 -225 -22q-114 0 -163 32q-48 33 -48 135q0 89 44.5 124t145.5 35h145v52q0 42 -26.5 61t-86.5 19h-164q-9 0 -12 3t-3 12v61q0 9 2.5 11.5t11.5 4.5q68 13 165 13zM368 107v127h-138q-42 0 -59.5 -15t-17.5 -52q0 -41 21.5 -56t79.5 -15q70 0 114 11
z" />
    <glyph glyph-name="logicalnot" unicode="&#xe4;" horiz-adv-x="549" 
d="M169 757q68 0 68 -66q0 -67 -68 -67q-70 0 -70 67q0 66 70 66zM441 691q0 -67 -69 -67t-69 67q0 66 69 66t69 -66zM255 558q126 0 180 -39t54 -125v-348q0 -21 -20 -29q-75 -22 -225 -22q-114 0 -163 32q-48 33 -48 135q0 89 44.5 124t145.5 35h145v52q0 42 -26.5 61
t-86.5 19h-164q-9 0 -12 3t-3 12v61q0 9 2.5 11.5t11.5 4.5q68 13 165 13zM368 107v127h-138q-42 0 -59.5 -15t-17.5 -52q0 -41 21.5 -56t79.5 -15q70 0 114 11z" />
    <glyph glyph-name="radical.001" unicode="&#xe5;" horiz-adv-x="549" 
d="M381 715q0 -107 -111 -107t-111 107q0 108 111 108t111 -108zM332 715q0 62 -62 62t-62 -62t62 -62t62 62zM255 558q126 0 180 -39t54 -125v-348q0 -21 -20 -29q-75 -22 -225 -22q-114 0 -163 32q-48 33 -48 135q0 89 44.5 124t145.5 35h145v52q0 42 -26.5 61t-86.5 19
h-164q-9 0 -12 3t-3 12v61q0 9 2.5 11.5t11.5 4.5q68 13 165 13zM368 107v127h-138q-42 0 -59.5 -15t-17.5 -52q0 -41 21.5 -56t79.5 -15q70 0 114 11z" />
    <glyph glyph-name="florin.001" unicode="&#xe6;" horiz-adv-x="879" 
d="M607 558q141 0 187 -54q45 -53 47 -217v-30q0 -15 -7 -21t-27 -6h-316q1 -79 26 -105q24 -25 98 -25h170q15 0 15 -15v-62q0 -14 -14 -17q-75 -11 -179 -11q-43 0 -95 11q-49 12 -74 28q-75 -39 -194 -39q-114 0 -163 32q-48 33 -48 135q0 89 44.5 124t145.5 35h145v52
q0 42 -26.5 61t-86.5 19h-164q-9 0 -12 3t-3 12v61q0 9 2.5 11.5t11.5 4.5q68 13 165 13q125 0 180 -47q50 47 172 47zM607 453q-70 0 -92 -28q-24 -28 -25 -108h230q-1 82 -24 109t-89 27zM371 234h-141q-42 0 -59.5 -15t-17.5 -52q0 -42 21.5 -57t78.5 -15q91 0 136 22
q-18 42 -18 117z" />
    <glyph glyph-name="approxequal" unicode="&#xe7;" horiz-adv-x="498" 
d="M448 453h-157q-78 0 -100 -34q-21 -33 -21 -142t21 -143q22 -34 100 -34h157q16 0 16 -15v-61q0 -15 -15 -18q-56 -10 -126 -11q15 -49 15 -89q0 -42 -24 -59q-22 -18 -74 -18q-49 0 -70 8q-12 5 -12 18v47q0 14 14 14h36q30 1 39 5t12 24q0 16 -7 51q-123 4 -164 62
q-40 58 -40 219q0 92 9.5 141.5t35.5 82.5q27 33 72 45t126 12q90 0 158 -11q15 -3 15 -18v-61q0 -15 -16 -15z" />
    <glyph glyph-name="increment" unicode="&#xe8;" horiz-adv-x="558" 
d="M134 775h116q9 0 12 -6l73 -125q5 -9 -3 -14l-31 -19q-7 -6 -14 0l-158 135q-5 8 -5 12v7q0 10 10 10zM286 558q75 0 117.5 -12t68.5 -43q27 -31 37 -79.5t11 -136.5v-30q0 -15 -7 -21t-27 -6h-317q1 -79 26 -105q25 -25 98 -25h171q15 0 15 -15v-62q0 -14 -14 -17
q-77 -11 -179 -11q-146 0 -192 55q-47 56 -47 226q0 171 46 226q47 56 193 56zM286 453q-71 0 -93 -28q-23 -27 -24 -108h229q-2 82 -23 108q-22 28 -89 28z" />
    <glyph glyph-name="guillemotleft" unicode="&#xe9;" horiz-adv-x="558" 
d="M302 775h116q10 0 10 -10v-7q0 -7 -5 -12l-158 -135q-7 -6 -14 0l-31 19q-8 5 -3 14l73 125q3 6 12 6zM286 558q75 0 117.5 -12t68.5 -43q27 -31 37 -79.5t11 -136.5v-30q0 -15 -7 -21t-27 -6h-317q1 -79 26 -105q25 -25 98 -25h171q15 0 15 -15v-62q0 -14 -14 -17
q-77 -11 -179 -11q-146 0 -192 55q-47 56 -47 226q0 171 46 226q47 56 193 56zM286 453q-71 0 -93 -28q-23 -27 -24 -108h229q-2 82 -23 108q-22 28 -89 28z" />
    <glyph glyph-name="guillemotright" unicode="&#xea;" horiz-adv-x="558" 
d="M253 775h63q13 0 18 -8l92 -127q8 -8 -3 -15l-24 -14q-8 -5 -16 0l-98 74l-99 -74q-8 -5 -16 0l-24 14q-10 7 -3 15l92 127q5 8 18 8zM286 558q75 0 117.5 -12t68.5 -43q27 -31 37 -79.5t11 -136.5v-30q0 -15 -7 -21t-27 -6h-317q1 -79 26 -105q25 -25 98 -25h171
q15 0 15 -15v-62q0 -14 -14 -17q-77 -11 -179 -11q-146 0 -192 55q-47 56 -47 226q0 171 46 226q47 56 193 56zM286 453q-71 0 -93 -28q-23 -27 -24 -108h229q-2 82 -23 108q-22 28 -89 28z" />
    <glyph glyph-name="ellipsis" unicode="&#xeb;" horiz-adv-x="558" 
d="M184 757q68 0 68 -66q0 -67 -68 -67q-70 0 -70 67q0 66 70 66zM387 757q68 0 68 -66q0 -67 -68 -67q-70 0 -70 67q0 66 70 66zM286 558q75 0 117.5 -12t68.5 -43q27 -31 37 -79.5t11 -136.5v-30q0 -15 -7 -21t-27 -6h-317q1 -79 26 -105q25 -25 98 -25h171q15 0 15 -15
v-62q0 -14 -14 -17q-77 -11 -179 -11q-146 0 -192 55q-47 56 -47 226q0 171 46 226q47 56 193 56zM286 453q-71 0 -93 -28q-23 -27 -24 -108h229q-2 82 -23 108q-22 28 -89 28z" />
    <glyph glyph-name="nbspace" unicode="&#xec;" horiz-adv-x="251" 
d="M-24 775h116q9 0 12 -6l73 -125q5 -9 -3 -14l-31 -19q-7 -6 -14 0l-158 135q-5 5 -5 12v7q0 10 10 10zM80 553h91q15 0 15 -15v-523q0 -15 -15 -15h-91q-15 0 -15 15v523q0 15 15 15z" />
    <glyph glyph-name="Agrave" unicode="&#xed;" horiz-adv-x="251" 
d="M160 775h116q10 0 10 -10v-7q0 -4 -5 -12l-158 -135q-7 -6 -14 0l-31 19q-8 5 -3 14l73 125q3 6 12 6zM80 553h91q15 0 15 -15v-523q0 -15 -15 -15h-91q-15 0 -15 15v523q0 15 15 15z" />
    <glyph glyph-name="Atilde" unicode="&#xee;" horiz-adv-x="251" 
d="M94 775h63q13 0 18 -8l92 -127q7 -8 -3 -15l-24 -14q-9 -6 -16 0l-99 74l-98 -74q-8 -5 -16 0l-24 14q-11 6 -4 15l92 127q6 8 19 8zM171 0h-91q-15 0 -15 15v523q0 15 15 15h91q15 0 15 -15v-523q0 -15 -15 -15z" />
    <glyph glyph-name="Otilde" unicode="&#xef;" horiz-adv-x="251" 
d="M24 757q68 0 68 -66q0 -67 -68 -67q-70 0 -70 67q0 66 70 66zM296 691q0 -67 -69 -67t-69 67q0 66 69 66t69 -66zM80 553h91q15 0 15 -15v-523q0 -15 -15 -15h-91q-15 0 -15 15v523q0 15 15 15z" />
    <glyph glyph-name="OE" unicode="&#xf0;" horiz-adv-x="580" 
d="M194 764h98q12 0 18 -10l27 -45l83 30q15 6 19 -9l10 -26q5 -14 -9 -19l-73 -26l140 -238q27 -42 27 -171q0 -153 -48 -204t-195 -51q-78 0 -122.5 11.5t-73.5 40.5q-27 30 -37.5 76t-10.5 127q2 151 46 200q45 50 183 50q32 0 57 -3l-73 123l-87 -30q-15 -6 -19 9
l-10 26q-5 14 9 19l76 27l-45 75q-11 18 10 18zM413 250q-2 93 -23 120q-22 30 -99 30q-78 0 -100 -30q-22 -29 -22 -120t22 -120q22 -30 100 -30q76 0 99 29q21 29 23 121z" />
    <glyph glyph-name="oe.001" unicode="&#xf1;" horiz-adv-x="599" 
d="M226 758q24 0 75 -20t65 -20q17 0 26.5 7t18.5 27q6 14 18 10l33 -9q14 -5 11 -22q-18 -62 -38 -83.5t-61 -21.5q-25 0 -76 20q-49 20 -63 20q-18 0 -27.5 -7t-17.5 -27q-8 -14 -19 -10l-33 8q-14 5 -11 22q18 62 38.5 84t60.5 22zM302 558q79 0 118.5 -8t67.5 -33
q29 -24 39.5 -68t10.5 -128v-306q0 -15 -16 -15h-90q-15 0 -15 15v284q0 61 -4.5 89.5t-19.5 42.5q-16 16 -34 19t-59 3h-115v-438q0 -15 -15 -15h-92q-14 0 -14 15v511q0 6 2 9.5t4 4.5t8 2q77 16 224 16z" />
    <glyph glyph-name="endash.001" unicode="&#xf2;" horiz-adv-x="581" 
d="M129 775h116q9 0 12 -6l73 -125q5 -9 -3 -14l-31 -19q-8 -5 -14 0l-158 135q-5 5 -5 12v7q0 10 10 10zM534 276q0 -171 -48 -226q-46 -55 -196 -55t-196 55q-47 56 -47 226t47 226t196 56t196 -56q48 -56 48 -226zM390 419q-22 34 -100 34t-100 -34t-22 -143t22 -143
q22 -33 100 -33t100 33q22 34 22 143t-22 143z" />
    <glyph glyph-name="emdash.001" unicode="&#xf3;" horiz-adv-x="581" 
d="M323 775h116q10 0 10 -10v-7q0 -7 -5 -12l-158 -135q-6 -5 -14 0l-31 19q-8 5 -3 14l73 125q3 6 12 6zM534 276q0 -171 -48 -226q-46 -55 -196 -55t-196 55q-47 56 -47 226t47 226t196 56t196 -56q48 -56 48 -226zM390 419q-22 34 -100 34t-100 -34t-22 -143t22 -143
q22 -33 100 -33t100 33q22 34 22 143t-22 143z" />
    <glyph glyph-name="quotedblleft" unicode="&#xf4;" horiz-adv-x="581" 
d="M259 775h63q13 0 18 -8l92 -127q8 -8 -3 -15l-24 -14q-9 -6 -16 0l-99 74l-98 -74q-8 -5 -16 0l-24 14q-11 6 -4 15l92 127q6 8 19 8zM534 276q0 -171 -48 -226q-46 -55 -196 -55t-196 55q-47 56 -47 226t47 226t196 56t196 -56q48 -56 48 -226zM390 419q-22 34 -100 34
t-100 -34t-22 -143t22 -143q22 -33 100 -33t100 33q22 34 22 143t-22 143z" />
    <glyph glyph-name="quotedblright.001" unicode="&#xf5;" horiz-adv-x="581" 
d="M217 758q24 0 75 -20t64 -20q17 0 26.5 7t18.5 27q6 14 18 10l33 -9q16 -5 11 -22q-18 -62 -38 -83.5t-61 -21.5q-24 0 -75 20t-64 20q-18 0 -27.5 -7t-17.5 -27q-8 -14 -19 -10l-33 8q-14 6 -10 22q17 62 37.5 84t61.5 22zM534 276q0 -171 -48 -226q-46 -55 -196 -55
t-196 55q-47 56 -47 226t47 226t196 56t196 -56q48 -56 48 -226zM390 419q-22 34 -100 34t-100 -34t-22 -143t22 -143q22 -33 100 -33t100 33q22 34 22 143t-22 143z" />
    <glyph glyph-name="quoteleft" unicode="&#xf6;" horiz-adv-x="581" 
d="M189 757q68 0 68 -66q0 -67 -68 -67q-70 0 -70 67q0 66 70 66zM461 691q0 -67 -69 -67t-69 67q0 66 69 66t69 -66zM534 276q0 -171 -48 -226q-46 -55 -196 -55t-196 55q-47 56 -47 226t47 226t196 56t196 -56q48 -56 48 -226zM390 419q-22 34 -100 34t-100 -34t-22 -143
t22 -143q22 -33 100 -33t100 33q22 34 22 143t-22 143z" />
    <glyph glyph-name="quoteright.001" unicode="&#xf7;" horiz-adv-x="569" 
d="M286 562q34 0 53 -18t19 -51t-19 -51t-53 -18q-35 0 -54.5 18t-19.5 51t19.5 51t54.5 18zM55 370h459q15 0 15 -15v-83q0 -15 -15 -15h-459q-15 0 -15 15v83q0 15 15 15zM286 202q72 0 72 -68q0 -70 -72 -70q-35 0 -54.5 18t-19.5 52q0 33 19.5 50.5t54.5 17.5z" />
    <glyph glyph-name="divide" unicode="&#xf8;" horiz-adv-x="581" 
d="M290 558q90 0 138 -17l18 26q11 14 21 4l34 -23q12 -8 3 -21l-18 -25q48 -54 48 -226q0 -171 -48 -226q-46 -55 -196 -55q-94 0 -145 20l-21 -29q-9 -14 -20 -3l-34 23q-13 7 -4 20l23 33q-42 55 -42 217q0 170 47 226t196 56zM290 453q-78 0 -100 -34t-22 -143
q0 -68 6 -96l185 263q-23 10 -69 10zM404 384l-190 -271q25 -13 76 -13q78 0 100 33q22 34 22 143q0 78 -8 108z" />
    <glyph glyph-name="lozenge" unicode="&#xf9;" horiz-adv-x="600" 
d="M149 775h116q9 0 12 -6l73 -125q5 -9 -3 -14l-31 -19q-7 -6 -14 0l-158 135q-5 5 -5 12v7q0 10 10 10zM429 553h92q15 0 15 -15v-510q0 -6 -2 -9.5t-4.5 -4.5t-8.5 -2q-87 -17 -223 -17q-79 0 -118.5 8t-68.5 33t-39.5 69.5t-10.5 127.5v305q0 15 17 15h90q14 0 14 -15
v-283q0 -61 4.5 -89.5t19.5 -43.5t32.5 -18.5t60.5 -3.5h115v438q0 15 15 15z" />
    <glyph glyph-name="ydieresis" unicode="&#xfa;" horiz-adv-x="600" 
d="M318 775h116q10 0 10 -10v-7q0 -7 -5 -12l-158 -135q-7 -6 -14 0l-31 19q-8 5 -3 14l73 125q3 6 12 6zM429 553h92q15 0 15 -15v-510q0 -6 -2 -9.5t-4.5 -4.5t-8.5 -2q-87 -17 -223 -17q-79 0 -118.5 8t-68.5 33t-39.5 69.5t-10.5 127.5v305q0 15 17 15h90q14 0 14 -15
v-283q0 -61 4.5 -89.5t19.5 -43.5t32.5 -18.5t60.5 -3.5h115v438q0 15 15 15z" />
    <glyph glyph-name="Ydieresis.001" unicode="&#xfb;" horiz-adv-x="600" 
d="M267 775h63q13 0 19 -8l92 -127q7 -9 -4 -15l-24 -14q-8 -5 -16 0l-98 74l-99 -74q-7 -6 -16 0l-24 14q-10 7 -3 15l92 127q5 8 18 8zM429 553h92q15 0 15 -15v-510q0 -6 -2 -9.5t-4.5 -4.5t-8.5 -2q-87 -17 -223 -17q-79 0 -118.5 8t-68.5 33t-39.5 69.5t-10.5 127.5
v305q0 15 17 15h90q14 0 14 -15v-283q0 -61 4.5 -89.5t19.5 -43.5t32.5 -18.5t60.5 -3.5h115v438q0 15 15 15z" />
    <glyph glyph-name="fraction" unicode="&#xfc;" horiz-adv-x="600" 
d="M193 757q68 0 68 -66q0 -67 -68 -67q-70 0 -70 67q0 66 70 66zM465 691q0 -67 -69 -67t-69 67q0 66 69 66t69 -66zM429 553h92q15 0 15 -15v-510q0 -6 -2 -9.5t-4.5 -4.5t-8.5 -2q-87 -17 -223 -17q-79 0 -118.5 8t-68.5 33t-39.5 69.5t-10.5 127.5v305q0 15 17 15h90
q14 0 14 -15v-283q0 -61 4.5 -89.5t19.5 -43.5t32.5 -18.5t60.5 -3.5h115v438q0 15 15 15z" />
    <glyph glyph-name="currency" unicode="&#xfd;" horiz-adv-x="606" 
d="M332 775h116q10 0 10 -10v-7q0 -4 -5 -12l-158 -135q-7 -6 -14 0l-31 19q-8 5 -3 14l73 125q3 6 12 6zM435 553h91q15 0 15 -15v-506q0 -106 -26 -158q-20 -42 -70.5 -60.5t-141.5 -18.5q-89 0 -169 11q-13 3 -13 16v59q0 15 14 15h161q74 0 99 22q25 21 25 81v5
q-56 -9 -128 -9q-137 0 -185 56q-47 56 -47 209v278q0 15 15 15h91q15 0 15 -15v-261q0 -108 23 -143q24 -33 107 -33q67 0 109 6v431q0 15 15 15z" />
    <glyph glyph-name="guilsinglleft.001" unicode="&#xfe;" horiz-adv-x="590" 
d="M80 764h91q15 0 15 -15v-197q49 6 128 6q138 0 183 -57q46 -56 46 -225q0 -170 -48 -225q-48 -56 -198 -56q-56 0 -111 5v-184q0 -16 -15 -16h-91q-15 0 -15 16v933q0 15 15 15zM295 453h-109v-345q59 -8 112 -8q81 0 102 34q22 34 22 142q0 112 -22 144q-22 33 -105 33z
" />
    <glyph glyph-name="guilsinglright.001" unicode="&#xff;" horiz-adv-x="606" 
d="M204 757q68 0 68 -66q0 -67 -68 -67q-70 0 -70 67q0 66 70 66zM476 691q0 -67 -69 -67t-69 67q0 66 69 66t69 -66zM435 553h91q15 0 15 -15v-506q0 -106 -26 -158q-20 -42 -70.5 -60.5t-141.5 -18.5q-89 0 -169 11q-13 3 -13 16v59q0 15 14 15h161q74 0 99 22
q25 21 25 81v5q-56 -9 -128 -9q-137 0 -185 56q-47 56 -47 209v278q0 15 15 15h91q15 0 15 -15v-261q0 -108 23 -143q24 -33 107 -33q67 0 109 6v431q0 15 15 15z" />
    <glyph glyph-name="fi" unicode="&#x100;" horiz-adv-x="691" 
d="M207 922h273q15 0 15 -15v-51q0 -15 -15 -15h-273q-15 0 -15 15v51q0 15 15 15zM344 770q84 0 109 -19q26 -20 48 -98l173 -637q3 -16 -12 -16h-102q-10 0 -14 16l-59 215h-285l-60 -215q-4 -16 -13 -16h-103q-15 0 -12 16l178 637q23 78 47 97q26 20 105 20zM344 661
q-17 0 -21.5 -6t-13.5 -35l-77 -281h226l-75 281q-9 29 -14 35t-25 6z" />
    <glyph glyph-name="fl.001" unicode="&#x101;" horiz-adv-x="549" 
d="M133 722h273q15 0 15 -15v-51q0 -15 -15 -15h-273q-15 0 -15 15v51q0 15 15 15zM255 558q126 0 180 -39t54 -125v-348q0 -21 -20 -29q-75 -22 -225 -22q-114 0 -163 32q-48 33 -48 135q0 89 44.5 124t145.5 35h145v52q0 42 -26.5 61t-86.5 19h-164q-9 0 -12 3t-3 12v61
q0 9 2.5 11.5t11.5 4.5q68 13 165 13zM368 107v127h-138q-42 0 -59.5 -15t-17.5 -52q0 -41 21.5 -56t79.5 -15q70 0 114 11z" />
    <glyph glyph-name="daggerdbl.001" unicode="&#x102;" horiz-adv-x="691" 
d="M447 965h45q17 0 14 -16q-10 -71 -46 -101q-34 -27 -116 -27t-116 27q-36 30 -46 101q-3 16 14 16h45q13 0 17 -12q13 -31 31.5 -42.5t54.5 -11.5t54.5 11.5t31.5 42.5q4 12 17 12zM344 770q84 0 109 -19q26 -20 48 -98l173 -637q3 -16 -12 -16h-102q-10 0 -14 16
l-59 215h-285l-60 -215q-4 -16 -13 -16h-103q-15 0 -12 16l178 637q23 78 47 97q26 20 105 20zM344 661q-17 0 -21.5 -6t-13.5 -35l-77 -281h226l-75 281q-9 29 -14 35t-25 6z" />
    <glyph glyph-name="middot" unicode="&#x103;" horiz-adv-x="549" 
d="M373 765h45q17 0 14 -16q-10 -71 -46 -101q-34 -27 -116 -27t-116 27q-36 30 -46 101q-3 16 14 16h45q13 0 17 -12q13 -31 31.5 -42.5t54.5 -11.5t54.5 11.5t31.5 42.5q4 12 17 12zM255 558q126 0 180 -39t54 -125v-348q0 -21 -20 -29q-75 -22 -225 -22q-114 0 -163 32
q-48 33 -48 135q0 89 44.5 124t145.5 35h145v52q0 42 -26.5 61t-86.5 19h-164q-9 0 -12 3t-3 12v61q0 9 2.5 11.5t11.5 4.5q68 13 165 13zM368 107v127h-138q-42 0 -59.5 -15t-17.5 -52q0 -41 21.5 -56t79.5 -15q70 0 114 11z" />
    <glyph glyph-name="quotesinglbase.001" unicode="&#x104;" horiz-adv-x="691" 
d="M344 770q84 0 109 -19q26 -20 48 -98l173 -637q3 -16 -12 -16h-50q-12 -56 -5 -70t49 -14h35q15 0 15 -14v-47q0 -13 -12 -18q-21 -8 -70 -8q-52 0 -75 17.5t-23 59.5q0 54 21 106l-60 219h-285l-60 -215q-4 -16 -13 -16h-103q-15 0 -12 16l178 637q23 78 47 97
q26 20 105 20zM344 661q-17 0 -21.5 -6t-13.5 -35l-77 -281h226l-75 281q-9 29 -14 35t-25 6z" />
    <glyph glyph-name="quotedblbase.001" unicode="&#x105;" horiz-adv-x="549" 
d="M442 -84h36q14 0 14 -14v-47q0 -13 -12 -18q-21 -8 -69 -8q-52 0 -75 17.5t-23 59.5t15 91q-74 -2 -84 -2q-114 0 -163 32q-48 33 -48 135q0 89 44.5 124t145.5 35h145v52q0 42 -26.5 61t-86.5 19h-164q-9 0 -12 3t-3 12v61q0 9 2.5 11.5t11.5 4.5q68 13 165 13
q126 0 180 -39t54 -125v-348q0 -21 -20 -29q-31 -8 -70 -13q-8 -40 -8 -59q0 -18 10.5 -23.5t40.5 -5.5zM153 167q0 -41 21.5 -56t79.5 -15q70 0 114 11v127h-138q-42 0 -59.5 -15t-17.5 -52z" />
    <glyph glyph-name="perthousand" unicode="&#x106;" horiz-adv-x="610" 
d="M362 975h116q10 0 10 -10v-7q0 -7 -5 -12l-158 -135q-7 -6 -14 0l-31 19q-8 5 -3 14l73 125q3 6 12 6zM365 770q127 0 191 -12q19 -3 19 -21v-63q0 -16 -15 -16h-195q-114 0 -149 -56q-34 -55 -34 -219q0 -166 34 -221t149 -55h195q15 0 15 -15v-63q0 -19 -19 -22
q-74 -12 -191 -12q-97 0 -155.5 18.5t-94.5 63.5q-35 46 -49 116.5t-14 189.5q0 120 14 190t49 115q36 46 93.5 64t156.5 18z" />
    <glyph glyph-name="Acircumflex" unicode="&#x107;" horiz-adv-x="498" 
d="M291 775h116q10 0 10 -10v-7q0 -7 -5 -12l-158 -135q-7 -6 -14 0l-31 19q-8 5 -3 14l73 125q3 6 12 6zM291 558q90 0 158 -11q15 -3 15 -18v-61q0 -15 -16 -15h-157q-78 0 -100 -34q-21 -33 -21 -142t21 -143q22 -34 100 -34h157q16 0 16 -15v-61q0 -15 -15 -18
q-68 -11 -158 -11q-151 0 -197 55t-46 227q0 92 9.5 141.5t35.5 82.5q27 33 72 45t126 12z" />
    <glyph glyph-name="Ecircumflex" unicode="&#x108;" horiz-adv-x="610" 
d="M320 975h63q13 0 18 -8l92 -127q7 -8 -3 -15l-25 -14q-7 -6 -15 0l-99 74l-98 -74q-9 -6 -16 0l-24 14q-11 6 -4 15l92 127q6 8 19 8zM365 770q127 0 191 -12q19 -3 19 -21v-63q0 -16 -15 -16h-195q-114 0 -149 -56q-34 -55 -34 -219q0 -166 34 -221t149 -55h195
q15 0 15 -15v-63q0 -19 -19 -22q-74 -12 -191 -12q-97 0 -155.5 18.5t-94.5 63.5q-35 46 -49 116.5t-14 189.5q0 120 14 190t49 115q36 46 93.5 64t156.5 18z" />
    <glyph glyph-name="Aacute" unicode="&#x109;" horiz-adv-x="498" 
d="M242 775h63q13 0 18 -8l92 -127q7 -8 -3 -15l-24 -14q-9 -6 -16 0l-98 74l-99 -74q-8 -5 -16 0l-24 14q-11 6 -4 15l93 127q5 8 18 8zM291 558q90 0 158 -11q15 -3 15 -18v-61q0 -15 -16 -15h-157q-78 0 -100 -34q-21 -33 -21 -142t21 -143q22 -34 100 -34h157
q16 0 16 -15v-61q0 -15 -15 -18q-68 -11 -158 -11q-151 0 -197 55t-46 227q0 92 9.5 141.5t35.5 82.5q27 33 72 45t126 12z" />
    <glyph glyph-name="Edieresis" unicode="&#x10a;" horiz-adv-x="610" 
d="M424 891q0 -69 -72 -69t-72 69q0 68 72 68t72 -68zM365 770q127 0 191 -12q19 -3 19 -21v-63q0 -16 -15 -16h-195q-114 0 -149 -56q-34 -55 -34 -219q0 -166 34 -221t149 -55h195q15 0 15 -15v-63q0 -19 -19 -22q-74 -12 -191 -12q-97 0 -155.5 18.5t-94.5 63.5
q-35 46 -49 116.5t-14 189.5q0 120 14 190t49 115q36 46 93.5 64t156.5 18z" />
    <glyph glyph-name="Egrave" unicode="&#x10b;" horiz-adv-x="498" 
d="M270 759q71 0 71 -68q0 -69 -71 -69q-73 0 -73 69q0 68 73 68zM291 558q90 0 158 -11q15 -3 15 -18v-61q0 -15 -16 -15h-157q-78 0 -100 -34q-21 -33 -21 -142t21 -143q22 -34 100 -34h157q16 0 16 -15v-61q0 -15 -15 -18q-68 -11 -158 -11q-151 0 -197 55t-46 227
q0 92 9.5 141.5t35.5 82.5q27 33 72 45t126 12z" />
    <glyph glyph-name="Iacute" unicode="&#x10c;" horiz-adv-x="610" 
d="M446 972l25 -14q11 -8 3 -15l-92 -127q-5 -8 -18 -8h-64q-12 0 -18 8l-92 127q-8 7 3 15l25 14q7 6 16 0l98 -74l98 74q9 6 16 0zM365 770q127 0 191 -12q19 -3 19 -21v-63q0 -16 -15 -16h-195q-114 0 -149 -56q-34 -55 -34 -219q0 -166 34 -221t149 -55h195q15 0 15 -15
v-63q0 -19 -19 -22q-74 -12 -191 -12q-97 0 -155.5 18.5t-94.5 63.5q-35 46 -49 116.5t-14 189.5q0 120 14 190t49 115q36 46 93.5 64t156.5 18z" />
    <glyph glyph-name="Icircumflex" unicode="&#x10d;" horiz-adv-x="498" 
d="M395 772l24 -14q11 -8 3 -15l-92 -127q-5 -8 -18 -8h-63q-13 0 -19 8l-92 127q-7 9 4 15l24 14q8 5 16 0l98 -74l99 74q7 6 16 0zM291 558q90 0 158 -11q15 -3 15 -18v-61q0 -15 -16 -15h-157q-78 0 -100 -34q-21 -33 -21 -142t21 -143q22 -34 100 -34h157q16 0 16 -15
v-61q0 -15 -15 -18q-68 -11 -158 -11q-151 0 -197 55t-46 227q0 92 9.5 141.5t35.5 82.5q27 33 72 45t126 12z" />
    <glyph glyph-name="Idieresis" unicode="&#x10e;" horiz-adv-x="741" 
d="M454 972l24 -14q10 -8 3 -15l-92 -127q-5 -8 -18 -8h-63q-13 0 -18 8l-92 127q-8 7 3 15l24 14q8 5 16 0l99 -74l98 74q8 5 16 0zM374 770q172 0 245 -91q73 -89 73 -297q0 -206 -73 -297q-73 -90 -245 -90q-162 0 -282 9q-9 1 -12 3t-3 10v731q0 8 3 10.5t12 3.5
q114 8 282 8zM364 658h-158v-551h168q101 0 144.5 64t43.5 211q0 148 -45.5 212t-152.5 64z" />
    <glyph glyph-name="Igrave" unicode="&#x10f;" horiz-adv-x="619" 
d="M625 766h105q10 0 10 -10v-7q0 -7 -5 -12l-113 -135q-5 -8 -14 0l-25 18q-6 4 -4 15l33 124q1 7 13 7zM419 764h91q15 0 15 -15v-715q0 -18 -18 -21q-110 -18 -214 -18q-80 0 -125 12.5t-74 44.5q-27 33 -37 83t-10 141q0 168 45 225q46 57 184 57q78 0 128 -6v197
q0 15 15 15zM404 108v345h-109q-83 0 -105 -33q-22 -32 -22 -144q0 -108 21 -142q22 -34 103 -34q53 0 112 8z" />
    <glyph glyph-name="Oacute" unicode="&#x110;" horiz-adv-x="752" 
d="M385 770q172 0 245 -91q73 -89 73 -297q0 -206 -73 -297q-74 -90 -245 -90q-162 0 -282 9q-9 1 -12 3t-3 10v321h-70q-15 0 -15 15v51q0 15 15 15h70v329q0 8 3 10.5t12 3.5q114 8 282 8zM217 338v-231h168q101 0 144.5 64t43.5 211q0 148 -46 212t-153 64h-157v-239h144
q15 0 15 -15v-51q0 -15 -15 -15h-144z" />
    <glyph glyph-name="Ocircumflex" unicode="&#x111;" horiz-adv-x="589" 
d="M525 749v-56h62q15 0 15 -15v-32q0 -15 -15 -15h-62v-597q0 -18 -18 -21q-110 -18 -214 -18q-80 0 -125 12.5t-74 44.5q-27 33 -37 83t-10 141q0 168 45 225q46 57 184 57q78 0 128 -6v79h-132q-15 0 -15 15v32q0 15 15 15h132v56q0 15 15 15h91q15 0 15 -15zM404 108
v345h-109q-83 0 -105 -33q-22 -32 -22 -144q0 -108 21 -142q22 -34 103 -34q53 0 112 8z" />
    <glyph glyph-name="apple" unicode="&#x112;" horiz-adv-x="639" 
d="M190 922h273q15 0 15 -15v-51q0 -15 -15 -15h-273q-15 0 -15 15v51q0 15 15 15zM92 765h484q16 0 16 -15v-82q0 -15 -16 -15h-370v-224h338q15 0 15 -15v-79q0 -15 -15 -15h-338v-208h370q16 0 16 -15v-82q0 -15 -16 -15h-484q-15 0 -15 15v735q0 15 15 15z" />
    <glyph glyph-name="Ograve" unicode="&#x113;" horiz-adv-x="558" 
d="M148 722h273q15 0 15 -15v-51q0 -15 -15 -15h-273q-15 0 -15 15v51q0 15 15 15zM286 558q75 0 117.5 -12t68.5 -43q27 -31 37 -79.5t11 -136.5v-30q0 -15 -7 -21t-27 -6h-317q1 -79 26 -105q25 -25 98 -25h171q15 0 15 -15v-62q0 -14 -14 -17q-77 -11 -179 -11
q-146 0 -192 55q-47 56 -47 226q0 171 46 226q47 56 193 56zM286 453q-71 0 -93 -28q-23 -27 -24 -108h229q-2 82 -23 108q-22 28 -89 28z" />
    <glyph glyph-name="Uacute" unicode="&#x114;" horiz-adv-x="639" 
d="M443 965h45q17 0 14 -16q-10 -71 -46 -101q-34 -27 -116 -27t-116 27q-36 30 -46 101q-3 16 14 16h45q12 0 17 -12q13 -31 31.5 -42.5t54.5 -11.5t54.5 11.5t31.5 42.5q4 12 17 12zM92 765h484q16 0 16 -15v-82q0 -15 -16 -15h-370v-224h338q15 0 15 -15v-79
q0 -15 -15 -15h-338v-208h370q16 0 16 -15v-82q0 -15 -16 -15h-484q-15 0 -15 15v735q0 15 15 15z" />
    <glyph glyph-name="Ucircumflex" unicode="&#x115;" horiz-adv-x="558" 
d="M387 765h45q17 0 14 -16q-10 -72 -45 -101q-35 -27 -116 -27q-83 0 -117 27q-35 29 -45 101q-3 16 14 16h45q12 0 17 -12q13 -31 31.5 -42.5t54.5 -11.5t54 11.5t31 42.5q6 12 17 12zM286 558q75 0 117.5 -12t68.5 -43q27 -31 37 -79.5t11 -136.5v-30q0 -15 -7 -21
t-27 -6h-317q1 -79 26 -105q25 -25 98 -25h171q15 0 15 -15v-62q0 -14 -14 -17q-77 -11 -179 -11q-146 0 -192 55q-47 56 -47 226q0 171 46 226q47 56 193 56zM286 453q-71 0 -93 -28q-23 -27 -24 -108h229q-2 82 -23 108q-22 28 -89 28z" />
    <glyph glyph-name="Ugrave" unicode="&#x116;" horiz-adv-x="639" 
d="M327 959q71 0 71 -68q0 -69 -71 -69q-73 0 -73 69q0 68 73 68zM92 765h484q16 0 16 -15v-82q0 -15 -16 -15h-370v-224h338q15 0 15 -15v-79q0 -15 -15 -15h-338v-208h370q16 0 16 -15v-82q0 -15 -16 -15h-484q-15 0 -15 15v735q0 15 15 15z" />
    <glyph glyph-name="dotlessi" unicode="&#x117;" horiz-adv-x="558" 
d="M285 759q71 0 71 -68q0 -69 -71 -69q-73 0 -73 69q0 68 73 68zM286 558q75 0 117.5 -12t68.5 -43q27 -31 37 -79.5t11 -136.5v-30q0 -15 -7 -21t-27 -6h-317q1 -79 26 -105q25 -25 98 -25h171q15 0 15 -15v-62q0 -14 -14 -17q-77 -11 -179 -11q-146 0 -192 55
q-47 56 -47 226q0 171 46 226q47 56 193 56zM286 453q-71 0 -93 -28q-23 -27 -24 -108h229q-2 82 -23 108q-22 28 -89 28z" />
    <glyph glyph-name="circumflex" unicode="&#x118;" horiz-adv-x="639" 
d="M92 765h484q16 0 16 -15v-82q0 -15 -16 -15h-370v-224h338q15 0 15 -15v-79q0 -15 -15 -15h-338v-208h370q16 0 16 -15v-82q0 -15 -16 -15h-89q-8 -45 -8 -55q0 -18 10.5 -23.5t40.5 -5.5h36q14 0 14 -14v-47q0 -13 -12 -18q-21 -8 -69 -8q-52 0 -75.5 18t-23.5 59
q0 39 16 94h-324q-15 0 -15 15v735q0 15 15 15z" />
    <glyph glyph-name="tilde.001" unicode="&#x119;" horiz-adv-x="558" 
d="M286 558q75 0 117.5 -12t68.5 -43q27 -31 37 -79.5t11 -136.5v-30q0 -15 -7 -21t-27 -6h-317q1 -79 26 -105q25 -25 98 -25h171q15 0 15 -15v-62q0 -14 -14 -17q-34 -5 -64 -7q-8 -43 -8 -54q0 -18 10.5 -23.5t40.5 -5.5h36q14 0 14 -14v-47q0 -13 -12 -18q-21 -8 -69 -8
q-51 0 -75 18q-44 32 -9 149l-43 -1q-146 0 -192 55q-47 56 -47 226q0 171 46 226q47 56 193 56zM286 453q-71 0 -93 -28q-23 -27 -24 -108h229q-2 82 -23 108q-22 28 -89 28z" />
    <glyph glyph-name="overscore" unicode="&#x11a;" horiz-adv-x="639" 
d="M441 972l24 -14q11 -8 3 -15l-92 -127q-5 -8 -18 -8h-63q-13 0 -18 8l-93 127q-7 9 4 15l24 14q8 5 16 0l99 -74l98 74q7 6 16 0zM92 765h484q16 0 16 -15v-82q0 -15 -16 -15h-370v-224h338q15 0 15 -15v-79q0 -15 -15 -15h-338v-208h370q16 0 16 -15v-82q0 -15 -16 -15
h-484q-15 0 -15 15v735q0 15 15 15z" />
    <glyph glyph-name="breve" unicode="&#x11b;" horiz-adv-x="558" 
d="M399 772l24 -14q11 -8 3 -15l-92 -127q-5 -8 -18 -8h-63q-13 0 -18 8l-92 127q-7 7 3 15l24 14q8 5 16 0l99 -74l98 74q8 5 16 0zM286 558q75 0 117.5 -12t68.5 -43q27 -31 37 -79.5t11 -136.5v-30q0 -15 -7 -21t-27 -6h-317q1 -79 26 -105q25 -25 98 -25h171
q15 0 15 -15v-62q0 -14 -14 -17q-77 -11 -179 -11q-146 0 -192 55q-47 56 -47 226q0 171 46 226q47 56 193 56zM286 453q-71 0 -93 -28q-23 -27 -24 -108h229q-2 82 -23 108q-22 28 -89 28z" />
    <glyph glyph-name="dotaccent" unicode="&#x11c;" horiz-adv-x="674" 
d="M317 975h63q13 0 18 -8l92 -127q8 -8 -3 -15l-24 -14q-8 -5 -16 0l-98 74l-99 -74q-8 -5 -16 0l-24 14q-10 7 -3 15l92 127q5 8 18 8zM365 770q136 0 203 -12q18 -3 18 -21v-63q0 -16 -15 -16h-206q-114 0 -149 -56q-34 -55 -34 -220t34 -220t149 -55h139v254q0 16 15 16
h91q15 0 15 -16v-291q0 -15 -4 -22q-27 -53 -256 -53q-97 0 -155.5 18.5t-94.5 63.5q-35 45 -49 115t-14 190t14 190t49 115q36 46 93.5 64.5t156.5 18.5z" />
    <glyph glyph-name="ring.001" unicode="&#x11d;" horiz-adv-x="590" 
d="M264 775h63q13 0 18 -8l93 -127q6 -8 -4 -15l-24 -14q-8 -5 -16 0l-98 74l-99 -74q-7 -6 -16 0l-24 14q-11 7 -3 15l92 127q5 8 18 8zM294 558q122 0 213 -18q19 -1 19 -20v-488q0 -106 -26 -158q-20 -42 -70.5 -60.5t-141.5 -18.5q-87 0 -164 11q-14 3 -14 16v59
q0 15 15 15h156q74 0 99 22q25 21 25 81v5q-55 -9 -128 -9q-138 0 -184 58t-46 228q0 165 48 221q50 56 199 56zM405 107v346h-115q-79 0 -100 -34q-21 -35 -21 -142q0 -111 22 -143q23 -33 105 -33q67 0 109 6z" />
    <glyph glyph-name="cedilla" unicode="&#x11e;" horiz-adv-x="674" 
d="M449 965h45q17 0 14 -16q-10 -71 -46 -101q-34 -27 -116 -27t-116 27q-36 30 -46 101q-3 16 14 16h45q12 0 17 -12q13 -31 31.5 -42.5t54.5 -11.5t54.5 11.5t31.5 42.5q4 12 17 12zM365 770q136 0 203 -12q18 -3 18 -21v-63q0 -16 -15 -16h-206q-114 0 -149 -56
q-34 -55 -34 -220t34 -220t149 -55h139v254q0 16 15 16h91q15 0 15 -16v-291q0 -15 -4 -22q-27 -53 -256 -53q-97 0 -155.5 18.5t-94.5 63.5q-35 45 -49 115t-14 190t14 190t49 115q36 46 93.5 64.5t156.5 18.5z" />
    <glyph glyph-name="hungarumlaut" unicode="&#x11f;" horiz-adv-x="590" 
d="M399 765h44q17 0 14 -16q-10 -72 -45 -101q-34 -27 -116 -27q-81 0 -117 27q-35 29 -45 101q-3 16 14 16h45q13 0 17 -12q13 -31 31.5 -42.5t54.5 -11.5t54 11.5t32 42.5q4 12 17 12zM294 558q122 0 213 -18q19 -1 19 -20v-488q0 -106 -26 -158q-20 -42 -70.5 -60.5
t-141.5 -18.5q-87 0 -164 11q-14 3 -14 16v59q0 15 15 15h156q74 0 99 22q25 21 25 81v5q-55 -9 -128 -9q-138 0 -184 58t-46 228q0 165 48 221q50 56 199 56zM405 107v346h-115q-79 0 -100 -34q-21 -35 -21 -142q0 -111 22 -143q23 -33 105 -33q67 0 109 6z" />
    <glyph glyph-name="ogonek.001" unicode="&#x120;" horiz-adv-x="674" 
d="M347 959q71 0 71 -68q0 -69 -71 -69q-73 0 -73 69q0 68 73 68zM365 770q136 0 203 -12q18 -3 18 -21v-63q0 -16 -15 -16h-206q-114 0 -149 -56q-34 -55 -34 -220t34 -220t149 -55h139v254q0 16 15 16h91q15 0 15 -16v-291q0 -15 -4 -22q-27 -53 -256 -53
q-97 0 -155.5 18.5t-94.5 63.5q-35 45 -49 115t-14 190t14 190t49 115q36 46 93.5 64.5t156.5 18.5z" />
    <glyph glyph-name="caron" unicode="&#x121;" horiz-adv-x="590" 
d="M296 759q71 0 71 -68q0 -69 -71 -69q-73 0 -73 69q0 68 73 68zM294 558q122 0 213 -18q19 -1 19 -20v-488q0 -106 -26 -158q-20 -42 -70.5 -60.5t-141.5 -18.5q-87 0 -164 11q-14 3 -14 16v59q0 15 15 15h156q74 0 99 22q25 21 25 81v5q-55 -9 -128 -9q-138 0 -184 58
t-46 228q0 165 48 221q50 56 199 56zM405 107v346h-115q-79 0 -100 -34q-21 -35 -21 -142q0 -111 22 -143q23 -33 105 -33q67 0 109 6z" />
    <glyph glyph-name="Lslash" unicode="&#x122;" horiz-adv-x="674" 
d="M365 770q136 0 203 -12q18 -3 18 -21v-63q0 -16 -15 -16h-206q-114 0 -149 -56q-34 -55 -34 -220t34 -220t149 -55h139v254q0 16 15 16h91q15 0 15 -16v-291q0 -15 -4 -22q-27 -53 -256 -53q-97 0 -155.5 18.5t-94.5 63.5q-35 45 -49 115t-14 190t14 190t49 115
q36 46 93.5 64.5t156.5 18.5zM314 -39h100q10 0 10 -10v-7q0 -9 -5 -12l-142 -126q-7 -6 -14 0l-27 17q-8 5 -3 14l69 118q3 6 12 6z" />
    <glyph glyph-name="lslash" unicode="&#x123;" horiz-adv-x="590" 
d="M397 768l27 -17q8 -6 3 -14l-69 -118q-3 -6 -12 -6h-100q-10 0 -10 10v7q0 7 5 12l142 126q6 5 14 0zM294 558q122 0 213 -18q19 -1 19 -20v-488q0 -106 -26 -158q-20 -42 -70.5 -60.5t-141.5 -18.5q-87 0 -164 11q-14 3 -14 16v59q0 15 15 15h156q74 0 99 22
q25 21 25 81v5q-55 -9 -128 -9q-138 0 -184 58t-46 228q0 165 48 221q50 56 199 56zM405 107v346h-115q-79 0 -100 -34q-21 -35 -21 -142q0 -111 22 -143q23 -33 105 -33q67 0 109 6z" />
    <glyph glyph-name="Scaron.001" unicode="&#x124;" horiz-adv-x="781" 
d="M366 975h64q12 0 18 -8l92 -127q8 -8 -3 -15l-25 -14q-7 -6 -16 0l-98 74l-98 -74q-9 -6 -16 0l-25 14q-11 7 -3 15l92 127q6 8 18 8zM590 765h99q15 0 15 -15v-734q0 -16 -15 -16h-99q-15 0 -15 16v313h-369v-313q0 -16 -15 -16h-99q-15 0 -15 16v734q0 15 15 15h99
q15 0 15 -15v-308h369v308q0 15 15 15z" />
    <glyph glyph-name="scaron.001" unicode="&#x125;" horiz-adv-x="600" 
d="M89 962h64q12 0 18 -8l92 -126q7 -9 -3 -16l-25 -14q-7 -6 -16 0l-98 74l-98 -74q-9 -6 -16 0l-25 14q-10 7 -3 16l92 126q5 8 18 8zM79 764h91q15 0 15 -15v-196q48 5 117 5q79 0 118.5 -8t67.5 -33q29 -24 39.5 -68t10.5 -128v-306q0 -15 -15 -15h-91q-15 0 -15 15v284
q0 61 -4.5 89.5t-19.5 43.5t-32.5 18.5t-60.5 3.5h-115v-439q0 -15 -15 -15h-92q-14 0 -14 15v734q0 15 15 15z" />
    <glyph glyph-name="Zcaron" unicode="&#x126;" horiz-adv-x="791" 
d="M709 750v-84h46q15 0 15 -15v-38q0 -15 -15 -15h-46v-582q0 -16 -15 -16h-98q-15 0 -15 16v313h-370v-313q0 -16 -15 -16h-98q-15 0 -15 16v582h-47q-15 0 -15 15v38q0 15 15 15h47v84q0 15 15 15h98q15 0 15 -15v-84h370v84q0 15 15 15h98q15 0 15 -15zM211 442h370v156
h-370v-156z" />
    <glyph glyph-name="zcaron" unicode="&#x127;" horiz-adv-x="600" 
d="M303 558q79 0 118.5 -8t67.5 -33q29 -24 39.5 -68t10.5 -128v-306q0 -15 -15 -15h-91q-15 0 -15 15v284q0 61 -4.5 89.5t-19.5 43.5t-32.5 18.5t-60.5 3.5h-115v-439q0 -15 -15 -15h-92q-14 0 -14 15v616h-60q-15 0 -15 15v32q0 15 15 15h60v56q0 15 15 15h91
q15 0 15 -15v-56h133q15 0 15 -15v-32q0 -15 -15 -15h-133v-78q48 5 117 5z" />
    <glyph glyph-name="brokenbar" unicode="&#x128;" horiz-adv-x="282" 
d="M65 958q24 0 75 -20t64 -20q18 0 27.5 7t17.5 27q8 15 19 10l33 -9q14 -6 10 -22q-17 -62 -37.5 -83.5t-61.5 -21.5q-24 0 -75 20t-64 20q-17 0 -26.5 -7t-18.5 -27q-6 -14 -19 -10l-32 8q-15 6 -11 22q18 62 38.5 84t60.5 22zM91 765h98q15 0 15 -15v-734q0 -16 -15 -16
h-98q-15 0 -15 16v734q0 15 15 15z" />
    <glyph glyph-name="Eth" unicode="&#x129;" horiz-adv-x="251" 
d="M51 758q25 0 76 -20t63 -20q18 0 27.5 7t18.5 27q6 14 18 10l33 -9q14 -5 11 -22q-18 -62 -38 -83.5t-61 -21.5q-25 0 -76 20t-63 20q-18 0 -27.5 -7t-18.5 -27q-6 -14 -18 -10l-33 8q-14 5 -11 22q18 62 38.5 84t60.5 22zM80 553h91q15 0 15 -15v-523q0 -15 -15 -15h-91
q-15 0 -15 15v523q0 15 15 15z" />
    <glyph glyph-name="eth" unicode="&#x12a;" horiz-adv-x="282" 
d="M3 922h273q15 0 15 -15v-51q0 -15 -15 -15h-273q-15 0 -15 15v51q0 15 15 15zM92 765h98q15 0 15 -15v-734q0 -16 -15 -16h-98q-15 0 -15 16v734q0 15 15 15z" />
    <glyph glyph-name="Yacute" unicode="&#x12b;" horiz-adv-x="251" 
d="M-11 722h273q15 0 15 -15v-51q0 -15 -15 -15h-273q-15 0 -15 15v51q0 15 15 15zM80 553h91q15 0 15 -15v-523q0 -15 -15 -15h-91q-15 0 -15 15v523q0 15 15 15z" />
    <glyph glyph-name="yacute" unicode="&#x12e;" horiz-adv-x="282" 
d="M92 765h98q15 0 15 -15v-734q0 -16 -15 -16h-44q-8 -37 -8 -55t10 -23.5t41 -5.5h35q15 0 15 -14v-47q0 -13 -12 -18q-21 -8 -70 -8q-52 0 -75 17.5t-23 59.5q0 37 18 100v744q0 15 15 15z" />
    <glyph glyph-name="Thorn" unicode="&#x12f;" horiz-adv-x="251" 
d="M198 691q0 -69 -72 -69t-72 69q0 68 72 68t72 -68zM80 553h91q15 0 15 -15v-523q0 -15 -15 -15h-37q-8 -37 -8 -55t10 -23.5t41 -5.5h35q15 0 15 -14v-47q0 -13 -12 -18q-21 -8 -70 -8q-52 0 -75 17.5t-23 59.5t18 100v532q0 15 15 15z" />
    <glyph glyph-name="thorn" unicode="&#x130;" horiz-adv-x="282" 
d="M140 959q71 0 71 -68q0 -69 -71 -69q-73 0 -73 69q0 68 73 68zM92 765h98q15 0 15 -15v-734q0 -16 -15 -16h-98q-15 0 -15 16v734q0 15 15 15z" />
    <glyph glyph-name="minus.001" unicode="&#x131;" horiz-adv-x="251" 
d="M80 553h91q15 0 15 -15v-523q0 -15 -15 -15h-91q-15 0 -15 15v523q0 15 15 15z" />
    <glyph glyph-name="multiply" unicode="&#x132;" horiz-adv-x="863" 
d="M92 765h98q15 0 15 -15v-734q0 -16 -15 -16h-98q-15 0 -15 16v734q0 15 15 15zM436 765h342q15 0 15 -15v-373q0 -223 -66 -303q-66 -79 -255 -79q-80 0 -155 12q-19 3 -19 21v64q0 15 15 15h159q119 0 156 55t36 215v276h-228q-15 0 -15 15v82q0 15 15 15z" />
    <glyph glyph-name="onesuperior" unicode="&#x133;" horiz-adv-x="506" 
d="M126 780q72 0 72 -69t-72 -69q-35 0 -54 18t-19 51t19 51t54 18zM80 553h91q15 0 15 -15v-523q0 -15 -15 -15h-91q-15 0 -15 15v523q0 15 15 15zM381 780q34 0 53 -18t19 -51t-19 -51t-53 -18q-35 0 -54 18t-19 51t19 51t54 18zM335 553h91q15 0 15 -15v-638
q0 -68 -38 -88q-31 -16 -87 -16q-46 0 -68 6q-15 3 -15 18v67q0 14 16 14h24q31 0 39 7.5t8 36.5v593q0 15 15 15z" />
    <glyph glyph-name="twosuperior" unicode="&#x134;" horiz-adv-x="574" 
d="M280 975h63q13 0 19 -8l92 -127q7 -9 -4 -15l-24 -14q-8 -5 -16 0l-98 74l-99 -74q-7 -6 -16 0l-24 14q-11 7 -3 15l92 127q5 8 18 8zM147 765h342q15 0 15 -15v-373q0 -223 -66 -303q-66 -79 -255 -79q-80 0 -155 12q-19 3 -19 21v64q0 15 15 15h159q119 0 156 55
t36 215v276h-228q-15 0 -15 15v82q0 15 15 15z" />
    <glyph glyph-name="threesuperior" unicode="&#x135;" horiz-adv-x="256" 
d="M96 775h63q13 0 19 -8l92 -127q8 -8 -3 -15l-25 -14q-7 -6 -16 0l-98 74l-98 -74q-9 -6 -16 0l-25 14q-11 7 -3 15l92 127q5 8 18 8zM84 553h92q15 0 15 -15v-638q0 -68 -38 -88q-31 -16 -87 -16q-46 0 -68 6q-15 3 -15 18v67q0 14 16 14h24q31 0 38.5 7t7.5 37v593
q0 15 15 15z" />
    <glyph glyph-name="onehalf" unicode="&#x136;" horiz-adv-x="649" 
d="M500 765h110q24 0 9 -19l-279 -334l303 -385q9 -9 5 -18t-22 -9h-108q-16 0 -22 11l-290 372v-368q0 -15 -15 -15h-99q-15 0 -15 15v735q0 15 15 15h99q15 0 15 -15v-316l273 321q7 10 21 10zM296 -39h100q10 0 10 -10v-7q0 -9 -5 -12l-142 -126q-7 -6 -14 0l-27 17
q-8 5 -3 14l69 118q3 6 12 6z" />
    <glyph glyph-name="onequarter" unicode="&#x137;" horiz-adv-x="531" 
d="M80 764h91q15 0 15 -16v-388l154 183q7 10 21 10h108q25 0 9 -19l-169 -199l220 -308q18 -27 -17 -27h-97q-13 0 -22 11l-207 297v-292q0 -16 -15 -16h-91q-15 0 -15 16v732q0 16 15 16zM239 -39h100q10 0 10 -10v-7q0 -7 -5 -12l-143 -126q-6 -5 -14 0l-26 17
q-8 5 -3 14l69 118q3 6 12 6z" />
    <glyph glyph-name="threequarters" unicode="&#x138;" horiz-adv-x="560" 
d="M412 553h111q23 0 7 -19l-202 -250l220 -264q16 -22 -12 -22h-118q-14 0 -21 10l-203 242v-235q0 -15 -15 -15h-99q-15 0 -15 15v523q0 15 15 15h99q15 0 15 -15v-237l197 242q7 10 21 10z" />
    <glyph glyph-name="franc" unicode="&#x139;" horiz-adv-x="582" 
d="M173 975h116q10 0 10 -10v-7q0 -7 -5 -12l-158 -135q-7 -6 -14 0l-31 19q-8 5 -3 14l73 125q3 6 12 6zM92 765h99q15 0 15 -15v-638h346q15 0 15 -15v-82q0 -15 -15 -15h-460q-15 0 -15 15v735q0 15 15 15z" />
    <glyph glyph-name="Gbreve" unicode="&#x13a;" horiz-adv-x="252" 
d="M156 971h116q10 0 10 -10v-7q0 -7 -5 -12l-158 -136q-6 -5 -14 0l-31 19q-8 6 -3 14l73 126q3 6 12 6zM80 765h92q15 0 15 -15v-735q0 -15 -15 -15h-92q-15 0 -15 15v735q0 15 15 15z" />
    <glyph glyph-name="gbreve" unicode="&#x13b;" horiz-adv-x="582" 
d="M92 765h99q15 0 15 -15v-638h346q15 0 15 -15v-82q0 -15 -15 -15h-460q-15 0 -15 15v735q0 15 15 15zM291 -39h100q10 0 10 -10v-7q0 -9 -5 -12l-142 -126q-7 -6 -14 0l-27 17q-8 5 -3 14l69 118q3 6 12 6z" />
    <glyph glyph-name="Idot" unicode="&#x13c;" horiz-adv-x="251" 
d="M80 765h91q15 0 15 -15v-735q0 -15 -15 -15h-91q-15 0 -15 15v735q0 15 15 15zM73 -39h100q10 0 10 -10v-7q0 -9 -5 -12l-142 -126q-7 -6 -14 0l-27 17q-8 5 -3 14l69 118q3 6 12 6z" />
    <glyph glyph-name="Scedilla.001" unicode="&#x13d;" horiz-adv-x="582" 
d="M338 766h105q10 0 10 -10v-7q0 -7 -5 -12l-113 -135q-5 -8 -14 0l-25 18q-6 4 -4 15l33 124q1 7 13 7zM92 765h99q15 0 15 -15v-638h346q15 0 15 -15v-82q0 -15 -15 -15h-460q-15 0 -15 15v735q0 15 15 15z" />
    <glyph glyph-name="scedilla.001" unicode="&#x13e;" horiz-adv-x="281" 
d="M277 766h105q10 0 10 -10v-7q0 -7 -5 -12l-113 -135q-5 -8 -14 0l-25 18q-6 4 -4 15l33 124q1 7 13 7zM80 765h91q15 0 15 -15v-735q0 -15 -15 -15h-91q-15 0 -15 15v735q0 15 15 15z" />
    <glyph glyph-name="Cacute" unicode="&#x13f;" horiz-adv-x="582" 
d="M92 765h99q15 0 15 -15v-638h346q15 0 15 -15v-82q0 -15 -15 -15h-460q-15 0 -15 15v735q0 15 15 15zM465 354q0 -69 -72 -69t-72 69q0 67 72 67t72 -67z" />
    <glyph glyph-name="cacute" unicode="&#x140;" horiz-adv-x="373" 
d="M80 765h91q15 0 15 -15v-735q0 -15 -15 -15h-91q-15 0 -15 15v735q0 15 15 15zM384 354q0 -69 -72 -69t-72 69q0 67 72 67t72 -67z" />
    <glyph glyph-name="Ccaron" unicode="&#x141;" horiz-adv-x="601" 
d="M225 364v-252h346q15 0 15 -15v-82q0 -15 -15 -15h-460q-15 0 -15 15v275l-63 -36q-14 -10 -19 6l-18 30q-8 13 5 20l95 55v385q0 15 15 15h99q15 0 15 -15v-311l108 62q15 8 21 -5l18 -31q8 -12 -6 -20z" />
    <glyph glyph-name="ccaron" unicode="&#x142;" horiz-adv-x="305" 
d="M100 765h91q15 0 15 -15v-308l51 29q15 8 21 -5l17 -31q8 -12 -6 -20l-83 -48v-352q0 -15 -15 -15h-91q-15 0 -15 15v282l-41 -23q-14 -10 -19 6l-18 30q-8 13 5 20l73 42v378q0 15 15 15z" />
    <glyph glyph-name="dslash" unicode="&#x143;" horiz-adv-x="779" 
d="M393 975h116q10 0 10 -10v-7q0 -7 -5 -12l-158 -135q-6 -5 -14 0l-31 19q-8 5 -3 14l73 125q3 6 12 6zM589 765h98q15 0 15 -15v-734q0 -16 -15 -16h-77q-27 0 -42 22l-362 539v-545q0 -16 -15 -16h-99q-15 0 -15 16v734q0 15 15 15h83q26 -1 36.5 -6.5t23.5 -24.5
l339 -503v519q0 15 15 15z" />
    <glyph glyph-name="nacute" unicode="&#x144;" horiz-adv-x="599" 
d="M304 775h116q10 0 10 -10v-7q0 -7 -5 -12l-158 -135q-7 -6 -14 0l-31 19q-8 5 -3 14l73 125q3 6 12 6zM302 558q79 0 118.5 -8t67.5 -33q29 -24 39.5 -68t10.5 -128v-306q0 -15 -16 -15h-90q-15 0 -15 15v284q0 61 -4.5 89.5t-19.5 42.5q-16 16 -34 19t-59 3h-115v-438
q0 -15 -15 -15h-92q-14 0 -14 15v511q0 6 2 9.5t4 4.5t8 2q77 16 224 16z" />
    <glyph glyph-name="uni0145" unicode="&#x145;" horiz-adv-x="779" 
d="M589 765h98q15 0 15 -15v-734q0 -16 -15 -16h-77q-27 0 -42 22l-362 539v-545q0 -16 -15 -16h-99q-15 0 -15 16v734q0 15 15 15h83q26 -1 36.5 -6.5t23.5 -24.5l339 -503v519q0 15 15 15zM344 -39h100q10 0 10 -10v-7q0 -9 -5 -12l-142 -126q-7 -6 -14 0l-27 17
q-8 5 -3 14l69 118q3 6 12 6z" />
    <glyph glyph-name="uni0146" unicode="&#x146;" horiz-adv-x="599" 
d="M302 558q79 0 118.5 -8t67.5 -33q29 -24 39.5 -68t10.5 -128v-306q0 -15 -16 -15h-90q-15 0 -15 15v284q0 61 -4.5 89.5t-19.5 42.5q-16 16 -34 19t-59 3h-115v-438q0 -15 -15 -15h-92q-14 0 -14 15v511q0 6 2 9.5t4 4.5t8 2q77 16 224 16zM248 -39h100q10 0 10 -10v-7
q0 -9 -5 -12l-142 -126q-7 -6 -14 0l-27 17q-8 5 -3 14l69 118q3 6 12 6z" />
    <glyph glyph-name="Ncaron" unicode="&#x147;" horiz-adv-x="779" 
d="M504 972l24 -14q10 -8 3 -15l-92 -127q-5 -8 -18 -8h-63q-13 0 -18 8l-92 127q-8 7 3 15l24 14q8 5 16 0l99 -74l98 74q8 5 16 0zM589 765h98q15 0 15 -15v-734q0 -16 -15 -16h-77q-27 0 -42 22l-362 539v-545q0 -16 -15 -16h-99q-15 0 -15 16v734q0 15 15 15h83
q26 -1 36.5 -6.5t23.5 -24.5l339 -503v519q0 15 15 15z" />
    <glyph glyph-name="ncaron" unicode="&#x148;" horiz-adv-x="599" 
d="M414 772l25 -14q11 -8 3 -15l-92 -127q-5 -8 -18 -8h-63q-13 0 -19 8l-92 127q-7 9 4 15l24 14q7 6 16 0l98 -74l99 74q7 6 15 0zM302 558q79 0 118.5 -8t67.5 -33q29 -24 39.5 -68t10.5 -128v-306q0 -15 -16 -15h-90q-15 0 -15 15v284q0 61 -4.5 89.5t-19.5 42.5
q-16 16 -34 19t-59 3h-115v-438q0 -15 -15 -15h-92q-14 0 -14 15v511q0 6 2 9.5t4 4.5t8 2q77 16 224 16z" />
    <glyph glyph-name="napostrophe" unicode="&#x149;" horiz-adv-x="599" 
d="M24 766h105q10 0 10 -10v-7q0 -7 -5 -12l-113 -135q-5 -8 -14 0l-25 18q-6 4 -4 15l33 124q1 7 13 7zM302 558q79 0 118.5 -8t67.5 -33q29 -24 39.5 -68t10.5 -128v-306q0 -15 -16 -15h-90q-15 0 -15 15v284q0 61 -4.5 89.5t-19.5 42.5q-16 16 -34 19t-59 3h-115v-438
q0 -15 -15 -15h-92q-14 0 -14 15v511q0 6 2 9.5t4 4.5t8 2q77 16 224 16z" />
    <glyph glyph-name="Eng" unicode="&#x14a;" horiz-adv-x="778" 
d="M589 765h98q15 0 15 -15v-571q0 -84 -4 -132q-8 -115 -46 -170q-53 -80 -224 -80q-54 0 -101 10q-19 3 -19 21v66q0 15 15 15h90q87 0 123 29t34 100l-364 523v-545q0 -16 -15 -16h-99q-15 0 -15 16v734q0 15 15 15h83q26 -1 36.5 -6.5t23.5 -24.5l339 -503v519
q0 15 15 15z" />
    <glyph glyph-name="eng" unicode="&#x14b;" horiz-adv-x="599" 
d="M302 558q79 0 118.5 -8t67.5 -33q29 -24 39.5 -68t10.5 -128v-421q0 -60 -29.5 -82t-94.5 -22q-48 0 -68 6q-16 3 -16 18v67q0 14 17 14h24q31 0 38.5 7t7.5 37v354q0 61 -4.5 89.5t-19.5 42.5q-16 16 -34 19t-59 3h-115v-438q0 -15 -15 -15h-92q-14 0 -14 15v511
q0 6 2 9.5t4 4.5t8 2q77 16 224 16z" />
    <glyph glyph-name="Omacron" unicode="&#x14c;" horiz-adv-x="732" 
d="M229 922h274q15 0 15 -15v-51q0 -15 -15 -15h-274q-15 0 -15 15v51q0 15 15 15zM366 770q99 0 157 -18.5t93 -64.5q36 -45 50 -115.5t14 -190.5t-14 -189.5t-50 -114.5q-35 -45 -93.5 -63.5t-156.5 -18.5q-97 0 -155.5 18.5t-94.5 63.5q-36 44 -50 114.5t-14 189.5
q0 120 14 190.5t50 115.5q36 46 94 64.5t156 18.5zM182 381q0 -163 35 -219q34 -55 149 -55t149 55q36 56 36 219q0 165 -36 220q-35 57 -149 57t-149 -57q-35 -56 -35 -220z" />
    <glyph glyph-name="omacron" unicode="&#x14d;" horiz-adv-x="581" 
d="M154 722h273q15 0 15 -15v-51q0 -15 -15 -15h-273q-15 0 -15 15v51q0 15 15 15zM534 276q0 -171 -48 -226q-46 -55 -196 -55t-196 55q-47 56 -47 226t47 226t196 56t196 -56q48 -56 48 -226zM390 419q-22 34 -100 34t-100 -34t-22 -143t22 -143q22 -33 100 -33t100 33
q22 34 22 143t-22 143z" />
    <glyph glyph-name="Obreve" unicode="&#x14e;" horiz-adv-x="732" 
d="M469 965h45q17 0 14 -16q-10 -71 -46 -101q-34 -27 -116 -27t-116 27q-35 29 -45 101q-3 16 14 16h44q13 0 17 -12q13 -31 31.5 -42.5t54.5 -11.5t54.5 11.5t31.5 42.5q4 12 17 12zM366 770q99 0 157 -18.5t93 -64.5q36 -45 50 -115.5t14 -190.5t-14 -189.5t-50 -114.5
q-35 -45 -93.5 -63.5t-156.5 -18.5q-97 0 -155.5 18.5t-94.5 63.5q-36 44 -50 114.5t-14 189.5q0 120 14 190.5t50 115.5q36 46 94 64.5t156 18.5zM182 381q0 -163 35 -219q34 -55 149 -55t149 55q36 56 36 219q0 165 -36 220q-35 57 -149 57t-149 -57q-35 -56 -35 -220z
" />
    <glyph glyph-name="obreve" unicode="&#x14f;" horiz-adv-x="581" 
d="M393 765h45q17 0 14 -16q-10 -71 -46 -101q-34 -27 -116 -27q-81 0 -116 27q-35 29 -45 101q-3 16 14 16h44q13 0 17 -12q13 -31 31.5 -42.5t54.5 -11.5q37 0 55 11.5t31 42.5q6 12 17 12zM534 276q0 -171 -48 -226q-46 -55 -196 -55t-196 55q-47 56 -47 226t47 226
t196 56t196 -56q48 -56 48 -226zM390 419q-22 34 -100 34t-100 -34t-22 -143t22 -143q22 -33 100 -33t100 33q22 34 22 143t-22 143z" />
    <glyph glyph-name="Ohungarumlaut" unicode="&#x150;" horiz-adv-x="732" 
d="M326 975h89q10 0 10 -10v-7q0 -7 -5 -12l-142 -131q-7 -6 -14 0l-20 15q-8 6 -3 14l73 125q3 6 12 6zM508 975h89q10 0 10 -10v-7q0 -4 -5 -12l-142 -131q-7 -6 -14 0l-20 15q-8 6 -3 14l73 125q3 6 12 6zM366 770q99 0 157 -18.5t93 -64.5q36 -45 50 -115.5t14 -190.5
t-14 -189.5t-50 -114.5q-35 -45 -93.5 -63.5t-156.5 -18.5q-97 0 -155.5 18.5t-94.5 63.5q-36 44 -50 114.5t-14 189.5q0 120 14 190.5t50 115.5q36 46 94 64.5t156 18.5zM182 381q0 -163 35 -219q34 -55 149 -55t149 55q36 56 36 219q0 165 -36 220q-35 57 -149 57
t-149 -57q-35 -56 -35 -220z" />
    <glyph glyph-name="ohungarumlaut" unicode="&#x151;" horiz-adv-x="581" 
d="M246 775h89q10 0 10 -10v-7q0 -7 -5 -12l-142 -131q-7 -6 -14 0l-20 15q-8 6 -3 14l73 125q3 6 12 6zM428 775h89q10 0 10 -10v-7q0 -4 -5 -12l-142 -131q-7 -6 -14 0l-20 15q-8 6 -3 14l73 125q3 6 12 6zM534 276q0 -171 -48 -226q-46 -55 -196 -55t-196 55
q-47 56 -47 226t47 226t196 56t196 -56q48 -56 48 -226zM390 419q-22 34 -100 34t-100 -34t-22 -143t22 -143q22 -33 100 -33t100 33q22 34 22 143t-22 143z" />
    <glyph glyph-name="OE.001" unicode="&#x152;" horiz-adv-x="1056" 
d="M366 770l348 -5h279q16 0 16 -15v-82q0 -15 -16 -15h-366v-224h334q15 0 15 -15v-79q0 -15 -15 -15h-334v-208h366q16 0 16 -15v-82q0 -15 -16 -15l-627 -5q-98 -1 -156.5 17t-94.5 63q-35 46 -49 116.5t-14 189.5q0 120 14 191t49 117q36 46 95 64.5t156 16.5zM499 107
v551h-133q-114 0 -150 -57q-35 -56 -35 -220q0 -163 35 -219q36 -55 150 -55h133z" />
    <glyph glyph-name="oe" unicode="&#x153;" horiz-adv-x="924" 
d="M652 558q140 0 187 -54q45 -53 47 -217v-30q0 -15 -7 -21t-27 -6h-316q1 -79 26 -105q24 -25 98 -25h170q15 0 15 -15v-62q0 -14 -14 -17q-74 -11 -179 -11q-130 0 -179 52q-49 -52 -183 -52q-150 0 -196 55q-47 56 -47 226t47 226t196 56q135 0 183 -51q49 51 179 51z
M390 419q-22 34 -100 34t-100 -34t-22 -143t22 -143q22 -33 100 -33t100 33q22 34 22 143t-22 143zM652 453q-70 0 -92 -28q-24 -28 -25 -108h230q-1 80 -25 108q-22 28 -88 28z" />
    <glyph glyph-name="Racute" unicode="&#x154;" horiz-adv-x="676" 
d="M346 975h116q10 0 10 -10v-7q0 -7 -5 -12l-158 -135q-6 -5 -14 0l-31 19q-8 5 -3 14l73 125q3 6 12 6zM331 770q170 0 234 -50q63 -49 63 -199q0 -116 -36 -167q-35 -51 -123 -64l169 -270q6 -8 2.5 -14t-14.5 -6h-93q-25 0 -40 22l-165 260l-122 -1v-266q0 -9 -3 -12
t-12 -3h-99q-9 0 -12 3t-3 12v733q0 8 3 10.5t12 3.5q114 8 239 8zM319 658h-113v-274h113q63 0 91.5 3.5t50.5 17.5t29.5 38.5t7.5 74.5q0 88 -35 114t-144 26z" />
    <glyph glyph-name="racute" unicode="&#x155;" horiz-adv-x="384" 
d="M234 775h116q10 0 10 -10v-7q0 -7 -5 -12l-158 -135q-6 -5 -14 0l-31 19q-8 5 -3 14l73 125q3 6 12 6zM232 558q83 0 122 -11q16 -4 16 -18v-61q0 -17 -17 -15h-91q-46 0 -62 -10.5t-16 -43.5v-384q0 -15 -15 -15h-91q-15 0 -15 15v415q0 84 58 109q44 19 111 19z" />
    <glyph glyph-name="uni0156" unicode="&#x156;" horiz-adv-x="676" 
d="M331 770q170 0 234 -50q63 -49 63 -199q0 -116 -36 -167q-35 -51 -123 -64l169 -270q6 -8 2.5 -14t-14.5 -6h-93q-25 0 -40 22l-165 260l-122 -1v-266q0 -9 -3 -12t-12 -3h-99q-9 0 -12 3t-3 12v733q0 8 3 10.5t12 3.5q114 8 239 8zM319 658h-113v-274h113q63 0 91.5 3.5
t50.5 17.5t29.5 38.5t7.5 74.5q0 88 -35 114t-144 26zM305 -39h100q10 0 10 -10v-7q0 -9 -5 -12l-142 -126q-7 -6 -14 0l-27 17q-8 5 -3 14l69 118q3 6 12 6z" />
    <glyph glyph-name="uni0157" unicode="&#x157;" horiz-adv-x="384" 
d="M232 558q83 0 122 -11q16 -4 16 -18v-61q0 -17 -17 -15h-91q-46 0 -62 -10.5t-16 -43.5v-384q0 -15 -15 -15h-91q-15 0 -15 15v415q0 84 58 109q44 19 111 19zM71 -39h100q10 0 10 -10v-7q0 -9 -5 -12l-142 -126q-7 -6 -14 0l-27 17q-8 5 -3 14l69 118q3 6 12 6z" />
    <glyph glyph-name="Rcaron" unicode="&#x158;" horiz-adv-x="676" 
d="M452 972l25 -14q11 -8 3 -15l-92 -127q-5 -8 -18 -8h-64q-12 0 -18 8l-92 127q-8 7 3 15l25 14q7 6 16 0l98 -74l98 74q9 6 16 0zM331 770q170 0 234 -50q63 -49 63 -199q0 -116 -36 -167q-35 -51 -123 -64l169 -270q6 -8 2.5 -14t-14.5 -6h-93q-25 0 -40 22l-165 260
l-122 -1v-266q0 -9 -3 -12t-12 -3h-99q-9 0 -12 3t-3 12v733q0 8 3 10.5t12 3.5q114 8 239 8zM319 658h-113v-274h113q63 0 91.5 3.5t50.5 17.5t29.5 38.5t7.5 74.5q0 88 -35 114t-144 26z" />
    <glyph glyph-name="rcaron" unicode="&#x159;" horiz-adv-x="384" 
d="M305 772l24 -14q11 -8 3 -15l-92 -127q-5 -8 -18 -8h-63q-13 0 -18 8l-93 127q-6 8 4 15l24 14q8 5 16 0l99 -74l98 74q7 6 16 0zM232 558q83 0 122 -11q16 -4 16 -18v-61q0 -17 -17 -15h-91q-46 0 -62 -10.5t-16 -43.5v-384q0 -15 -15 -15h-91q-15 0 -15 15v415
q0 84 58 109q44 19 111 19z" />
    <glyph glyph-name="Sacute" unicode="&#x15a;" horiz-adv-x="613" 
d="M335 975h116q10 0 10 -10v-7q0 -7 -5 -12l-158 -135q-7 -6 -14 0l-31 19q-8 5 -3 14l73 125q3 6 12 6zM322 770q85 0 201 -17q16 -3 16 -16v-62q0 -17 -15 -17h-231q-112 0 -112 -77v-16q0 -34 14.5 -53.5t52.5 -35.5l203 -81q69 -28 97.5 -70t28.5 -117v-31
q0 -107 -80 -148q-71 -34 -195 -34q-123 0 -246 18q-14 3 -14 18v60q0 16 16 16h279q111 0 111 75v17q0 36 -16 57.5t-58 38.5l-216 85q-58 21 -82 65t-24 121v23q0 105 68.5 143t201.5 38z" />
    <glyph glyph-name="sacute" unicode="&#x15b;" horiz-adv-x="494" 
d="M266 775h116q10 0 10 -10v-7q0 -7 -5 -12l-158 -135q-6 -5 -14 0l-31 19q-8 5 -3 14l73 125q3 6 12 6zM264 558q82 0 156 -11q15 -3 15 -16v-59q0 -15 -16 -15h-184q-66 0 -66 -44v-12q0 -38 55 -59l131 -48q58 -22 80 -56t22 -90v-13q0 -79 -48.5 -109.5t-158.5 -30.5
q-96 0 -195 9q-15 2 -15 15v62q0 16 16 16h194q52 0 70 8.5t18 34.5v10q0 19 -12.5 32t-44.5 25l-132 50q-100 36 -100 147v20q0 73 53 103.5t162 30.5z" />
    <glyph glyph-name="Scircumflex" unicode="&#x15c;" horiz-adv-x="613" 
d="M276 975h63q13 0 18 -8l93 -127q7 -9 -4 -15l-24 -14q-8 -5 -16 0l-98 74l-99 -74q-7 -6 -16 0l-24 14q-11 7 -3 15l92 127q5 8 18 8zM322 770q85 0 201 -17q16 -3 16 -16v-62q0 -17 -15 -17h-231q-112 0 -112 -77v-16q0 -34 14.5 -53.5t52.5 -35.5l203 -81
q69 -28 97.5 -70t28.5 -117v-31q0 -107 -80 -148q-71 -34 -195 -34q-123 0 -246 18q-14 3 -14 18v60q0 16 16 16h279q111 0 111 75v17q0 36 -16 57.5t-58 38.5l-216 85q-58 21 -82 65t-24 121v23q0 105 68.5 143t201.5 38z" />
    <glyph glyph-name="scircumflex" unicode="&#x15d;" horiz-adv-x="494" 
d="M220 775h64q12 0 18 -8l92 -127q8 -8 -3 -15l-25 -14q-7 -6 -16 0l-98 74l-98 -74q-9 -6 -16 0l-25 14q-11 7 -3 15l92 127q6 8 18 8zM264 558q82 0 156 -11q15 -3 15 -16v-59q0 -15 -16 -15h-184q-66 0 -66 -44v-12q0 -38 55 -59l131 -48q58 -22 80 -56t22 -90v-13
q0 -79 -48.5 -109.5t-158.5 -30.5q-96 0 -195 9q-15 2 -15 15v62q0 16 16 16h194q52 0 70 8.5t18 34.5v10q0 19 -12.5 32t-44.5 25l-132 50q-100 36 -100 147v20q0 73 53 103.5t162 30.5z" />
    <glyph glyph-name="Scedilla" unicode="&#x15e;" horiz-adv-x="613" 
d="M322 770q85 0 201 -17q16 -3 16 -16v-62q0 -17 -15 -17h-231q-112 0 -112 -77v-16q0 -34 14.5 -53.5t52.5 -35.5l203 -81q69 -28 97.5 -70t28.5 -117v-31q0 -84 -48.5 -126t-145.5 -52q15 -53 15 -93q0 -42 -23 -59.5t-75 -17.5q-48 0 -69 8q-12 5 -12 18v47q0 14 14 14
h36q29 0 39.5 4.5t10.5 24.5q0 17 -6 50h-11q-122 0 -245 18q-15 3 -15 18v60q0 16 16 16h279q111 0 111 75v17q0 36 -16 57.5t-58 38.5l-216 85q-58 21 -82 65t-24 121v23q0 105 68.5 143t201.5 38z" />
    <glyph glyph-name="scedilla" unicode="&#x15f;" horiz-adv-x="494" 
d="M224 342l131 -48q58 -22 80 -56t22 -90v-13q0 -63 -31.5 -95t-98.5 -41q16 -54 16 -93q0 -41 -23.5 -59t-75.5 -18q-48 0 -69 8q-12 5 -12 18v47q0 14 14 14h36q30 1 39 5t12 24q0 23 -7 50h-7q-96 0 -195 9q-15 2 -15 15v62q0 16 16 16h194q52 0 70 8.5t18 34.5v10
q0 19 -12.5 32t-44.5 25l-132 50q-100 36 -100 147v20q0 73 53 103.5t162 30.5q82 0 156 -11q15 -3 15 -16v-59q0 -15 -16 -15h-184q-66 0 -66 -44v-12q0 -38 55 -59z" />
    <glyph glyph-name="Scaron" unicode="&#x160;" horiz-adv-x="613" 
d="M422 972l24 -14q11 -6 4 -15l-93 -127q-5 -8 -18 -8h-63q-13 0 -18 8l-92 127q-8 7 3 15l24 14q9 6 16 0l99 -74l98 74q8 5 16 0zM322 770q85 0 201 -17q16 -3 16 -16v-62q0 -17 -15 -17h-231q-112 0 -112 -77v-16q0 -34 14.5 -53.5t52.5 -35.5l203 -81q69 -28 97.5 -70
t28.5 -117v-31q0 -107 -80 -148q-71 -34 -195 -34q-123 0 -246 18q-14 3 -14 18v60q0 16 16 16h279q111 0 111 75v17q0 36 -16 57.5t-58 38.5l-216 85q-58 21 -82 65t-24 121v23q0 105 68.5 143t201.5 38z" />
    <glyph glyph-name="scaron" unicode="&#x161;" horiz-adv-x="494" 
d="M366 772l25 -14q11 -8 3 -15l-92 -127q-6 -8 -18 -8h-64q-12 0 -18 8l-92 127q-8 7 3 15l25 14q7 6 16 0l98 -74l98 74q9 6 16 0zM264 558q82 0 156 -11q15 -3 15 -16v-59q0 -15 -16 -15h-184q-66 0 -66 -44v-12q0 -38 55 -59l131 -48q58 -22 80 -56t22 -90v-13
q0 -79 -48.5 -109.5t-158.5 -30.5q-96 0 -195 9q-15 2 -15 15v62q0 16 16 16h194q52 0 70 8.5t18 34.5v10q0 19 -12.5 32t-44.5 25l-132 50q-100 36 -100 147v20q0 73 53 103.5t162 30.5z" />
    <glyph glyph-name="uni0162" unicode="&#x162;" horiz-adv-x="625" 
d="M30 765h565q15 0 15 -15v-82q0 -15 -15 -15h-219v-638q18 -83 18 -109q0 -41 -23.5 -59t-75.5 -18q-48 0 -69 8q-12 5 -12 18v47q0 14 14 14h36q30 1 39 5t12 24q0 10 -8 55h-44q-15 0 -15 15v638h-218q-15 0 -15 15v82q0 15 15 15z" />
    <glyph glyph-name="uni0163" unicode="&#x163;" horiz-adv-x="362" 
d="M280 100h44q17 0 17 -14v-66q0 -15 -15 -18q-37 -6 -64 -7q15 -49 15 -89q0 -42 -24 -59q-23 -18 -74 -18q-49 0 -70 8q-12 5 -12 18v47q0 14 15 14h35q31 0 41 4.5t10 24.5q0 15 -7 53q-47 6 -71 33.5t-24 85.5v341h-57q-16 0 -16 16v63q0 15 16 15h57v115q0 13 14 16
l91 23q17 5 17 -14v-140h99q16 0 16 -15v-63q0 -16 -16 -16h-99v-305q0 -33 12.5 -43t49.5 -10z" />
    <glyph glyph-name="Tcaron" unicode="&#x164;" horiz-adv-x="625" 
d="M426 972l25 -14q11 -8 3 -15l-92 -127q-5 -8 -18 -8h-64q-12 0 -18 8l-92 127q-8 7 3 15l25 14q7 6 16 0l98 -74l98 74q9 6 16 0zM30 765h565q15 0 15 -15v-82q0 -15 -15 -15h-219v-638q0 -15 -15 -15h-98q-15 0 -15 15v638h-218q-15 0 -15 15v82q0 15 15 15z" />
    <glyph glyph-name="tcaron" unicode="&#x165;" horiz-adv-x="383" 
d="M337 766h106q10 0 10 -10v-7q0 -4 -5 -12l-113 -130q-4 -6 -14 -1l-25 14q-7 4 -4 15l31 122q1 9 14 9zM110 683l91 23q17 5 17 -14v-140h99q16 0 16 -15v-63q0 -16 -16 -16h-99v-305q0 -33 12.5 -43t49.5 -10h44q17 0 17 -14v-66q0 -15 -15 -18q-36 -7 -71 -7
q-56 0 -89 8q-34 9 -50.5 35t-19.5 79v341h-57q-16 0 -16 16v63q0 15 16 15h57v115q0 13 14 16z" />
    <glyph glyph-name="Tbar" unicode="&#x166;" horiz-adv-x="645" 
d="M40 765h565q15 0 15 -15v-82q0 -15 -15 -15h-218v-224h153q15 0 15 -15v-49q0 -15 -15 -15h-153v-335q0 -15 -15 -15h-99q-15 0 -15 15v335h-153q-15 0 -15 15v49q0 15 15 15h153v224h-218q-15 0 -15 15v82q0 15 15 15z" />
    <glyph glyph-name="tbar" unicode="&#x167;" horiz-adv-x="362" 
d="M280 100h44q17 0 17 -14v-66q0 -15 -15 -18q-36 -7 -71 -7q-56 0 -89 8q-34 9 -50.5 35t-19.5 79v146h-34q-15 0 -15 15v45q0 15 15 15h34v120h-57q-16 0 -16 16v63q0 15 16 15h57v115q0 13 14 16l91 23q17 5 17 -14v-140h99q16 0 16 -15v-63q0 -16 -16 -16h-99v-120h75
q15 0 15 -15v-45q0 -15 -15 -15h-75v-110q0 -33 12.5 -43t49.5 -10z" />
    <glyph glyph-name="Utilde" unicode="&#x168;" horiz-adv-x="754" 
d="M303 958q24 0 75 -20t65 -20q17 0 26.5 7t18.5 27q6 14 18 10l33 -9q14 -5 11 -22q-18 -62 -38 -83.5t-61 -21.5q-25 0 -76 20t-63 20q-18 0 -27.5 -7t-17.5 -27q-8 -14 -19 -10l-33 8q-14 5 -11 22q18 62 38.5 84t60.5 22zM571 765h98q15 0 15 -15v-369
q0 -124 -13.5 -194t-48.5 -115q-35 -44 -90.5 -60.5t-154.5 -16.5t-154.5 16.5t-90.5 60.5q-35 45 -48.5 115t-13.5 194v369q0 15 15 15h99q15 0 15 -15v-369q0 -163 35 -219q36 -55 143 -55t143 55q36 56 36 219v369q0 9 3 12t12 3z" />
    <glyph glyph-name="utilde" unicode="&#x169;" horiz-adv-x="600" 
d="M220 758q24 0 75 -20t64 -20q18 0 27.5 7t17.5 27q8 15 19 10l33 -9q14 -5 11 -22q-18 -62 -38 -83.5t-61 -21.5q-25 0 -76 20t-64 20q-17 0 -26.5 -7t-18.5 -27q-6 -14 -18 -10l-33 8q-14 5 -11 22q18 62 38.5 84t60.5 22zM429 553h92q15 0 15 -15v-510q0 -6 -2 -9.5
t-4.5 -4.5t-8.5 -2q-87 -17 -223 -17q-79 0 -118.5 8t-68.5 33t-39.5 69.5t-10.5 127.5v305q0 15 17 15h90q14 0 14 -15v-283q0 -61 4.5 -89.5t19.5 -43.5t32.5 -18.5t60.5 -3.5h115v438q0 15 15 15z" />
    <glyph glyph-name="Umacron" unicode="&#x16a;" horiz-adv-x="754" 
d="M240 922h273q15 0 15 -15v-51q0 -15 -15 -15h-273q-15 0 -15 15v51q0 15 15 15zM571 765h98q15 0 15 -15v-369q0 -124 -13.5 -194t-48.5 -115q-35 -44 -90.5 -60.5t-154.5 -16.5t-154.5 16.5t-90.5 60.5q-35 45 -48.5 115t-13.5 194v369q0 15 15 15h99q15 0 15 -15v-369
q0 -163 35 -219q36 -55 143 -55t143 55q36 56 36 219v369q0 9 3 12t12 3z" />
    <glyph glyph-name="umacron" unicode="&#x16b;" horiz-adv-x="600" 
d="M157 722h273q15 0 15 -15v-51q0 -15 -15 -15h-273q-15 0 -15 15v51q0 15 15 15zM429 553h92q15 0 15 -15v-510q0 -6 -2 -9.5t-4.5 -4.5t-8.5 -2q-87 -17 -223 -17q-79 0 -118.5 8t-68.5 33t-39.5 69.5t-10.5 127.5v305q0 15 17 15h90q14 0 14 -15v-283q0 -61 4.5 -89.5
t19.5 -43.5t32.5 -18.5t60.5 -3.5h115v438q0 15 15 15z" />
    <glyph glyph-name="Ubreve" unicode="&#x16c;" horiz-adv-x="754" 
d="M480 965h45q17 0 14 -16q-10 -73 -46 -101q-35 -27 -116 -27t-116 27q-35 29 -45 101q-3 16 14 16h44q12 0 17 -12q13 -31 31.5 -42.5t54.5 -11.5t54.5 11.5t31.5 42.5q4 12 17 12zM571 765h98q15 0 15 -15v-369q0 -124 -13.5 -194t-48.5 -115q-35 -44 -90.5 -60.5
t-154.5 -16.5t-154.5 16.5t-90.5 60.5q-35 45 -48.5 115t-13.5 194v369q0 15 15 15h99q15 0 15 -15v-369q0 -163 35 -219q36 -55 143 -55t143 55q36 56 36 219v369q0 9 3 12t12 3z" />
    <glyph glyph-name="ubreve" unicode="&#x16d;" horiz-adv-x="600" 
d="M397 765h45q17 0 14 -16q-10 -71 -46 -101q-34 -27 -116 -27t-116 27q-36 30 -46 101q-3 16 14 16h45q13 0 17 -12q13 -31 31.5 -42.5t54.5 -11.5t54.5 11.5t31.5 42.5q4 12 17 12zM429 553h92q15 0 15 -15v-510q0 -6 -2 -9.5t-4.5 -4.5t-8.5 -2q-87 -17 -223 -17
q-79 0 -118.5 8t-68.5 33t-39.5 69.5t-10.5 127.5v305q0 15 17 15h90q14 0 14 -15v-283q0 -61 4.5 -89.5t19.5 -43.5t32.5 -18.5t60.5 -3.5h115v438q0 15 15 15z" />
    <glyph glyph-name="Uring" unicode="&#x16e;" horiz-adv-x="754" 
d="M377 1023q112 0 112 -108q0 -107 -112 -107q-111 0 -111 107q0 108 111 108zM439 915q0 62 -62 62t-62 -62t62 -62t62 62zM571 765h98q15 0 15 -15v-369q0 -124 -13.5 -194t-48.5 -115q-35 -44 -90.5 -60.5t-154.5 -16.5t-154.5 16.5t-90.5 60.5q-35 45 -48.5 115
t-13.5 194v369q0 15 15 15h99q15 0 15 -15v-369q0 -163 35 -219q36 -55 143 -55t143 55q36 56 36 219v369q0 9 3 12t12 3z" />
    <glyph glyph-name="uring" unicode="&#x16f;" horiz-adv-x="600" 
d="M405 715q0 -107 -111 -107t-111 107q0 108 111 108t111 -108zM356 715q0 62 -62 62t-62 -62t62 -62t62 62zM429 553h92q15 0 15 -15v-510q0 -6 -2 -9.5t-4.5 -4.5t-8.5 -2q-87 -17 -223 -17q-79 0 -118.5 8t-68.5 33t-39.5 69.5t-10.5 127.5v305q0 15 17 15h90
q14 0 14 -15v-283q0 -61 4.5 -89.5t19.5 -43.5t32.5 -18.5t60.5 -3.5h115v438q0 15 15 15z" />
    <glyph glyph-name="Uhungarumlaut" unicode="&#x170;" horiz-adv-x="754" 
d="M309 975h88q10 0 10 -10v-7q0 -7 -5 -12l-142 -131q-7 -6 -14 0l-19 15q-8 6 -3 14l73 125q3 6 12 6zM491 975h88q10 0 10 -10v-7q0 -7 -5 -12l-142 -131q-7 -6 -14 0l-19 15q-8 6 -3 14l73 125q3 6 12 6zM571 765h98q15 0 15 -15v-369q0 -124 -13.5 -194t-48.5 -115
q-35 -44 -90.5 -60.5t-154.5 -16.5t-154.5 16.5t-90.5 60.5q-35 45 -48.5 115t-13.5 194v369q0 15 15 15h99q15 0 15 -15v-369q0 -163 35 -219q36 -55 143 -55t143 55q36 56 36 219v369q0 9 3 12t12 3z" />
    <glyph glyph-name="uhungarumlaut" unicode="&#x171;" horiz-adv-x="600" 
d="M240 775h88q10 0 10 -10v-7q0 -7 -5 -12l-142 -131q-7 -6 -14 0l-19 15q-8 6 -3 14l73 125q3 6 12 6zM421 775h89q10 0 10 -10v-7q0 -7 -5 -12l-142 -131q-7 -6 -14 0l-20 15q-8 6 -3 14l73 125q3 6 12 6zM429 553h92q15 0 15 -15v-510q0 -6 -2 -9.5t-4.5 -4.5t-8.5 -2
q-87 -17 -223 -17q-79 0 -118.5 8t-68.5 33t-39.5 69.5t-10.5 127.5v305q0 15 17 15h90q14 0 14 -15v-283q0 -61 4.5 -89.5t19.5 -43.5t32.5 -18.5t60.5 -3.5h115v438q0 15 15 15z" />
    <glyph glyph-name="Uogonek" unicode="&#x172;" horiz-adv-x="754" 
d="M571 765h98q15 0 15 -15v-369q0 -115 -12 -183.5t-42 -113.5q-29 -45 -78 -65t-131 -23q-8 -40 -8 -51q0 -18 10.5 -23.5t40.5 -5.5h36q14 0 14 -14v-47q0 -13 -12 -18q-21 -8 -69 -8q-51 0 -75 18q-44 33 -9 148q-167 5 -223 83q-56 80 -56 303v369q0 15 15 15h99
q15 0 15 -15v-369q0 -163 35 -219q36 -55 143 -55t143 55q36 56 36 219v369q0 9 3 12t12 3z" />
    <glyph glyph-name="uogonek" unicode="&#x173;" horiz-adv-x="600" 
d="M429 553h92q15 0 15 -15v-510q0 -6 -2 -9.5t-4.5 -4.5t-8.5 -2q-14 -3 -70 -11q-8 -32 -8 -56q0 -18 10 -23.5t41 -5.5h35q15 0 15 -14v-47q0 -13 -12 -18q-21 -8 -70 -8q-52 0 -75 17.5t-23 59.5q0 38 15 91q-42 -2 -81 -2q-79 0 -118.5 8t-68.5 33t-39.5 69.5
t-10.5 127.5v305q0 15 17 15h90q14 0 14 -15v-283q0 -61 4.5 -89.5t19.5 -43.5t32.5 -18.5t60.5 -3.5h115v438q0 15 15 15z" />
    <glyph glyph-name="Wcircumflex" unicode="&#x174;" horiz-adv-x="1094" 
d="M515 975h63q13 0 19 -8l92 -127q7 -9 -4 -15l-24 -14q-8 -5 -16 0l-98 74l-99 -74q-7 -6 -16 0l-24 14q-10 7 -3 15l92 127q5 8 18 8zM948 765h105q9 0 11.5 -3t1.5 -13l-130 -636q-17 -79 -40 -98q-25 -20 -100 -20q-85 0 -108 19q-22 20 -42 99l-99 417l-99 -417
q-11 -37 -14 -48t-13.5 -30t-14.5 -21.5t-23.5 -9t-34 -7t-51.5 -2.5q-74 0 -99 20q-23 19 -40 98l-130 636q-1 10 1.5 13t11.5 3h104q7 0 9.5 -3t4.5 -13l118 -587q5 -26 11 -34t19 -8q15 0 21 7.5t14 34.5l137 558q4 16 19 16h98q15 0 19 -16l137 -558q7 -27 13 -34.5
t22 -7.5q13 0 18.5 8t11.5 34l118 587q1 16 13 16z" />
    <glyph glyph-name="wcircumflex" unicode="&#x175;" horiz-adv-x="860" 
d="M398 775h64q12 0 18 -8l92 -127q8 -8 -3 -15l-25 -14q-7 -6 -16 0l-98 74l-98 -74q-9 -6 -16 0l-25 14q-11 7 -3 15l92 127q6 8 18 8zM721 553h99q8 0 10.5 -3t1.5 -12l-87 -436q-13 -69 -38 -89q-23 -18 -89 -18q-74 0 -94 17q-21 18 -37 90l-57 252l-57 -252
q-17 -74 -37 -90q-20 -17 -94 -17q-66 0 -89 18q-23 20 -38 89l-87 436q-2 15 12 15h99q6 0 8 -2.5t4 -12.5l76 -409q4 -18 8.5 -23.5t13.5 -5.5q10 0 13.5 4.5t8.5 24.5l95 393q3 15 14 15h100q10 0 15 -15l95 -393q4 -20 7.5 -24.5t13.5 -4.5t14 5.5t8 23.5l76 409
q3 15 12 15z" />
    <glyph glyph-name="Ycircumflex" unicode="&#x176;" horiz-adv-x="685" 
d="M311 975h63q13 0 18 -8l92 -127q8 -8 -3 -15l-24 -14q-9 -6 -16 0l-99 74l-98 -74q-8 -5 -16 0l-24 14q-11 6 -4 15l93 127q5 8 18 8zM560 765h109q23 0 11 -22l-274 -504v-223q0 -16 -15 -16h-98q-15 0 -15 16v224l-273 503q-12 22 11 22h108q18 0 27 -16l191 -377
l191 377q9 16 27 16z" />
    <glyph glyph-name="ycircumflex" unicode="&#x177;" horiz-adv-x="606" 
d="M274 775h63q13 0 18 -8l92 -127q7 -8 -3 -15l-25 -14q-7 -6 -15 0l-99 74l-98 -74q-9 -6 -16 0l-24 14q-11 6 -4 15l92 127q6 8 19 8zM435 553h91q15 0 15 -15v-506q0 -106 -26 -158q-20 -42 -70.5 -60.5t-141.5 -18.5q-89 0 -169 11q-13 3 -13 16v59q0 15 14 15h161
q74 0 99 22q25 21 25 81v5q-56 -9 -128 -9q-137 0 -185 56q-47 56 -47 209v278q0 15 15 15h91q15 0 15 -15v-261q0 -108 23 -143q24 -33 107 -33q67 0 109 6v431q0 15 15 15z" />
    <glyph glyph-name="Ydieresis" unicode="&#x178;" horiz-adv-x="685" 
d="M241 957q69 0 69 -66q0 -67 -69 -67q-70 0 -70 67q0 66 70 66zM513 891q0 -67 -69 -67t-69 67q0 66 69 66t69 -66zM560 765h109q23 0 11 -22l-274 -504v-223q0 -16 -15 -16h-98q-15 0 -15 16v224l-273 503q-12 22 11 22h108q18 0 27 -16l191 -377l191 377q9 16 27 16z
" />
    <glyph glyph-name="Zacute" unicode="&#x179;" horiz-adv-x="670" 
d="M337 975h117q10 0 10 -10v-7q0 -4 -5 -12l-159 -135q-6 -5 -14 0l-31 19q-8 5 -3 14l73 125q3 6 12 6zM57 765h557q15 0 15 -15v-73q0 -9 -7 -19l-423 -546h423q16 0 16 -15v-82q0 -15 -16 -15h-576q-15 0 -15 15l-1 72q0 11 7 19l423 547h-402q-16 0 -16 14l-1 83
q0 15 16 15z" />
    <glyph glyph-name="zacute" unicode="&#x17a;" horiz-adv-x="528" 
d="M267 775h116q10 0 10 -10v-7q0 -7 -5 -12l-158 -135q-7 -6 -14 0l-31 19q-8 5 -3 14l73 125q3 6 12 6zM59 553h409q16 0 16 -15v-45q0 -9 -6 -18l-272 -370h273q17 0 17 -15v-75q0 -15 -17 -15h-432q-16 0 -16 15v47q0 11 7 18l273 369h-252q-16 0 -16 16v73q0 15 16 15z
" />
    <glyph glyph-name="Zdotaccent" unicode="&#x17b;" horiz-adv-x="670" 
d="M334 959q71 0 71 -68q0 -69 -71 -69q-72 0 -72 69q0 68 72 68zM57 765h557q15 0 15 -15v-73q0 -9 -7 -19l-423 -546h423q16 0 16 -15v-82q0 -15 -16 -15h-576q-15 0 -15 15l-1 72q0 11 7 19l423 547h-402q-16 0 -16 14l-1 83q0 15 16 15z" />
    <glyph glyph-name="zdotaccent" unicode="&#x17c;" horiz-adv-x="528" 
d="M335 691q0 -69 -72 -69t-72 69q0 68 72 68t72 -68zM59 553h409q16 0 16 -15v-45q0 -9 -6 -18l-272 -370h273q17 0 17 -15v-75q0 -15 -17 -15h-432q-16 0 -16 15v47q0 11 7 18l273 369h-252q-16 0 -16 16v73q0 15 16 15z" />
    <glyph glyph-name="Zcaron.001" unicode="&#x17d;" horiz-adv-x="670" 
d="M448 972l24 -14q11 -6 4 -15l-92 -127q-6 -8 -19 -8h-63q-13 0 -18 8l-92 127q-8 7 3 15l24 14q9 6 16 0l99 -74l98 74q8 5 16 0zM57 765h557q15 0 15 -15v-73q0 -9 -7 -19l-423 -546h423q16 0 16 -15v-82q0 -15 -16 -15h-576q-15 0 -15 15l-1 72q0 11 7 19l423 547h-402
q-16 0 -16 14l-1 83q0 15 16 15z" />
    <glyph glyph-name="zcaron.001" unicode="&#x17e;" horiz-adv-x="528" 
d="M377 772l25 -14q10 -8 3 -15l-92 -127q-5 -8 -18 -8h-63q-13 0 -19 8l-92 127q-7 9 4 15l24 14q7 6 16 0l98 -74l99 74q8 6 15 0zM59 553h409q16 0 16 -15v-45q0 -9 -6 -18l-272 -370h273q17 0 17 -15v-75q0 -15 -17 -15h-432q-16 0 -16 15v47q0 11 7 18l273 369h-252
q-16 0 -16 16v73q0 15 16 15z" />
    <glyph glyph-name="florin" unicode="&#x192;" horiz-adv-x="580" 
d="M456 770q45 0 96 -10q19 -3 17 -20l-9 -62q-1 -13 -16 -13h-65q-40 0 -58 -10.5t-22 -39.5l-18 -129h114q15 0 15 -15v-66q0 -15 -15 -15h-128l-38 -269q-12 -85 -68 -109q-42 -17 -106 -17q-44 0 -96 11q-20 2 -17 19l8 63q1 8 3.5 10t11.5 2h66q41 0 59 10.5t22 39.5
l34 240h-65q-16 0 -16 19v63q0 14 15 14h80l22 159q12 84 67 107q44 18 107 18z" />
    <glyph glyph-name="uni01CD" unicode="&#x1cd;" horiz-adv-x="691" 
d="M458 972l25 -14q11 -8 3 -15l-92 -127q-6 -8 -18 -8h-64q-12 0 -18 8l-92 127q-8 7 3 15l25 14q7 6 16 0l98 -74l98 74q9 6 16 0zM344 770q84 0 109 -19q26 -20 48 -98l173 -637q3 -16 -12 -16h-102q-10 0 -14 16l-59 215h-285l-60 -215q-4 -16 -13 -16h-103
q-15 0 -12 16l178 637q23 78 47 97q26 20 105 20zM343 661q-17 0 -22 -6.5t-12 -34.5l-78 -281h227l-76 281q-7 28 -13 34.5t-26 6.5z" />
    <glyph glyph-name="uni01CE" unicode="&#x1ce;" horiz-adv-x="549" 
d="M384 772l25 -14q11 -8 3 -15l-92 -127q-6 -8 -19 -8h-63q-13 0 -18 8l-92 127q-8 7 3 15l25 14q7 6 16 0l98 -74l98 74q9 6 16 0zM255 558q126 0 180 -39t54 -125v-348q0 -21 -20 -29q-75 -22 -225 -22q-114 0 -163 32q-48 33 -48 135q0 89 44.5 124t145.5 35h145v52
q0 42 -26.5 61t-86.5 19h-164q-9 0 -12 3t-3 12v61q0 9 2.5 11.5t11.5 4.5q68 13 165 13zM368 107v127h-138q-42 0 -59.5 -15t-17.5 -52q0 -41 21.5 -56t79.5 -15q70 0 114 11z" />
    <glyph glyph-name="uni01CF" unicode="&#x1cf;" horiz-adv-x="282" 
d="M253 972l24 -14q11 -6 4 -15l-93 -127q-5 -8 -18 -8h-63q-13 0 -18 8l-92 127q-7 7 3 15l24 14q9 6 16 0l99 -74l98 74q8 5 16 0zM91 765h98q15 0 15 -15v-734q0 -16 -15 -16h-98q-15 0 -15 16v734q0 15 15 15z" />
    <glyph glyph-name="uni01D0" unicode="&#x1d0;" horiz-adv-x="251" 
d="M239 772l25 -14q10 -8 3 -15l-92 -127q-6 -8 -18 -8h-64q-12 0 -18 8l-92 127q-7 7 3 15l25 14q7 6 16 0l98 -74l98 74q9 6 16 0zM80 553h91q15 0 15 -15v-523q0 -15 -15 -15h-91q-15 0 -15 15v523q0 15 15 15z" />
    <glyph glyph-name="uni01D1" unicode="&#x1d1;" horiz-adv-x="732" 
d="M481 972l24 -14q11 -8 3 -15l-92 -127q-5 -8 -18 -8h-63q-13 0 -19 8l-92 127q-7 9 4 15l24 14q8 5 16 0l98 -74l99 74q7 6 16 0zM366 770q99 0 157 -18.5t93 -64.5q36 -45 50 -115.5t14 -190.5t-14 -189.5t-50 -114.5q-35 -45 -93.5 -63.5t-156.5 -18.5
q-97 0 -155.5 18.5t-94.5 63.5q-36 44 -50 114.5t-14 189.5q0 120 14 190.5t50 115.5q36 46 94 64.5t156 18.5zM182 381q0 -163 35 -219q34 -55 149 -55t149 55q36 56 36 219q0 165 -36 220q-35 57 -149 57t-149 -57q-35 -56 -35 -220z" />
    <glyph glyph-name="uni01D2" unicode="&#x1d2;" horiz-adv-x="581" 
d="M405 772l24 -14q11 -8 3 -15l-92 -127q-5 -8 -18 -8h-63q-13 0 -19 8l-92 127q-7 9 4 15l24 14q8 5 16 0l98 -74l99 74q7 6 16 0zM534 276q0 -171 -48 -226q-46 -55 -196 -55t-196 55q-47 56 -47 226t47 226t196 56t196 -56q48 -56 48 -226zM390 419q-22 34 -100 34
t-100 -34t-22 -143t22 -143q22 -33 100 -33t100 33q22 34 22 143t-22 143z" />
    <glyph glyph-name="uni01D3" unicode="&#x1d3;" horiz-adv-x="754" 
d="M491 972l25 -14q10 -8 3 -15l-92 -127q-5 -8 -18 -8h-64q-12 0 -18 8l-92 127q-7 7 3 15l25 14q7 6 16 0l98 -74l98 74q9 6 16 0zM571 765h98q15 0 15 -15v-369q0 -124 -13.5 -194t-48.5 -115q-35 -44 -90.5 -60.5t-154.5 -16.5t-154.5 16.5t-90.5 60.5q-35 45 -48.5 115
t-13.5 194v369q0 15 15 15h99q15 0 15 -15v-369q0 -163 35 -219q36 -55 143 -55t143 55q36 56 36 219v369q0 9 3 12t12 3z" />
    <glyph glyph-name="uni01D4" unicode="&#x1d4;" horiz-adv-x="600" 
d="M408 772l25 -14q11 -8 3 -15l-92 -127q-6 -8 -19 -8h-63q-13 0 -18 8l-92 127q-8 7 3 15l25 14q7 6 16 0l98 -74l98 74q9 6 16 0zM429 553h92q15 0 15 -15v-510q0 -6 -2 -9.5t-4.5 -4.5t-8.5 -2q-87 -17 -223 -17q-79 0 -118.5 8t-68.5 33t-39.5 69.5t-10.5 127.5v305
q0 15 17 15h90q14 0 14 -15v-283q0 -61 4.5 -89.5t19.5 -43.5t32.5 -18.5t60.5 -3.5h115v438q0 15 15 15z" />
    <glyph glyph-name="uni01D5" unicode="&#x1d5;" horiz-adv-x="754" 
d="M240 1098h273q15 0 15 -15v-51q0 -15 -15 -15h-273q-15 0 -15 15v51q0 15 15 15zM276 957q68 0 68 -66q0 -67 -68 -67q-70 0 -70 67q0 66 70 66zM548 891q0 -67 -69 -67t-69 67q0 66 69 66t69 -66zM571 765h98q15 0 15 -15v-369q0 -124 -13.5 -194t-48.5 -115
q-35 -44 -90.5 -60.5t-154.5 -16.5t-154.5 16.5t-90.5 60.5q-35 45 -48.5 115t-13.5 194v369q0 15 15 15h99q15 0 15 -15v-369q0 -163 35 -219q36 -55 143 -55t143 55q36 56 36 219v369q0 9 3 12t12 3z" />
    <glyph glyph-name="uni01D6" unicode="&#x1d6;" horiz-adv-x="600" 
d="M157 886h273q15 0 15 -15v-51q0 -15 -15 -15h-273q-15 0 -15 15v51q0 15 15 15zM193 757q68 0 68 -66q0 -67 -68 -67q-70 0 -70 67q0 66 70 66zM465 691q0 -67 -69 -67t-69 67q0 66 69 66t69 -66zM429 553h92q15 0 15 -15v-510q0 -6 -2 -9.5t-4.5 -4.5t-8.5 -2
q-87 -17 -223 -17q-79 0 -118.5 8t-68.5 33t-39.5 69.5t-10.5 127.5v305q0 15 17 15h90q14 0 14 -15v-283q0 -61 4.5 -89.5t19.5 -43.5t32.5 -18.5t60.5 -3.5h115v438q0 15 15 15z" />
    <glyph glyph-name="uni01D7" unicode="&#x1d7;" horiz-adv-x="754" 
d="M428 1138h116q10 0 10 -10v-7q0 -7 -5 -12l-158 -135q-7 -6 -14 0l-31 19q-8 6 -3 14l73 125q3 6 12 6zM276 957q68 0 68 -66q0 -67 -68 -67q-70 0 -70 67q0 66 70 66zM548 891q0 -67 -69 -67t-69 67q0 66 69 66t69 -66zM571 765h98q15 0 15 -15v-369q0 -124 -13.5 -194
t-48.5 -115q-35 -44 -90.5 -60.5t-154.5 -16.5t-154.5 16.5t-90.5 60.5q-35 45 -48.5 115t-13.5 194v369q0 15 15 15h99q15 0 15 -15v-369q0 -163 35 -219q36 -55 143 -55t143 55q36 56 36 219v369q0 9 3 12t12 3z" />
    <glyph glyph-name="uni01D8" unicode="&#x1d8;" horiz-adv-x="600" 
d="M347 942h116q10 0 10 -10v-7q0 -7 -5 -12l-158 -135q-6 -5 -14 0l-31 19q-8 6 -3 14l73 125q3 6 12 6zM193 757q68 0 68 -66q0 -67 -68 -67q-70 0 -70 67q0 66 70 66zM465 691q0 -67 -69 -67t-69 67q0 66 69 66t69 -66zM429 553h92q15 0 15 -15v-510q0 -6 -2 -9.5
t-4.5 -4.5t-8.5 -2q-87 -17 -223 -17q-79 0 -118.5 8t-68.5 33t-39.5 69.5t-10.5 127.5v305q0 15 17 15h90q14 0 14 -15v-283q0 -61 4.5 -89.5t19.5 -43.5t32.5 -18.5t60.5 -3.5h115v438q0 15 15 15z" />
    <glyph glyph-name="uni01D9" unicode="&#x1d9;" horiz-adv-x="754" 
d="M491 1143l25 -14q10 -7 3 -15l-92 -127q-6 -8 -18 -8h-64q-10 0 -18 8l-92 127q-7 8 3 15l25 14q8 8 16 0l98 -74l98 74q8 8 16 0zM276 957q68 0 68 -66q0 -67 -68 -67q-70 0 -70 67q0 66 70 66zM548 891q0 -67 -69 -67t-69 67q0 66 69 66t69 -66zM571 765h98
q15 0 15 -15v-369q0 -124 -13.5 -194t-48.5 -115q-35 -44 -90.5 -60.5t-154.5 -16.5t-154.5 16.5t-90.5 60.5q-35 45 -48.5 115t-13.5 194v369q0 15 15 15h99q15 0 15 -15v-369q0 -163 35 -219q36 -55 143 -55t143 55q36 56 36 219v369q0 9 3 12t12 3z" />
    <glyph glyph-name="uni01DA" unicode="&#x1da;" horiz-adv-x="600" 
d="M408 942l25 -14q9 -6 3 -16l-92 -126q-6 -8 -19 -8h-63q-13 0 -18 8l-92 126q-7 9 3 16l25 14q7 6 16 0l98 -74l98 74q9 6 16 0zM193 757q68 0 68 -66q0 -67 -68 -67q-70 0 -70 67q0 66 70 66zM465 691q0 -67 -69 -67t-69 67q0 66 69 66t69 -66zM429 553h92q15 0 15 -15
v-510q0 -6 -2 -9.5t-4.5 -4.5t-8.5 -2q-87 -17 -223 -17q-79 0 -118.5 8t-68.5 33t-39.5 69.5t-10.5 127.5v305q0 15 17 15h90q14 0 14 -15v-283q0 -61 4.5 -89.5t19.5 -43.5t32.5 -18.5t60.5 -3.5h115v438q0 15 15 15z" />
    <glyph glyph-name="uni01DB" unicode="&#x1db;" horiz-adv-x="754" 
d="M218 1138h116q9 0 12 -6l73 -125q5 -8 -3 -14l-31 -19q-7 -6 -14 0l-158 135q-5 5 -5 12v7q0 10 10 10zM276 957q68 0 68 -66q0 -67 -68 -67q-70 0 -70 67q0 66 70 66zM548 891q0 -67 -69 -67t-69 67q0 66 69 66t69 -66zM571 765h98q15 0 15 -15v-369q0 -124 -13.5 -194
t-48.5 -115q-35 -44 -90.5 -60.5t-154.5 -16.5t-154.5 16.5t-90.5 60.5q-35 45 -48.5 115t-13.5 194v369q0 15 15 15h99q15 0 15 -15v-369q0 -163 35 -219q36 -55 143 -55t143 55q36 56 36 219v369q0 9 3 12t12 3z" />
    <glyph glyph-name="uni01DC" unicode="&#x1dc;" horiz-adv-x="600" 
d="M124 942h116q9 0 12 -6l73 -125q5 -8 -3 -14l-31 -19q-8 -5 -14 0l-158 135q-5 5 -5 12v7q0 10 10 10zM193 757q68 0 68 -66q0 -67 -68 -67q-70 0 -70 67q0 66 70 66zM465 691q0 -67 -69 -67t-69 67q0 66 69 66t69 -66zM429 553h92q15 0 15 -15v-510q0 -6 -2 -9.5
t-4.5 -4.5t-8.5 -2q-87 -17 -223 -17q-79 0 -118.5 8t-68.5 33t-39.5 69.5t-10.5 127.5v305q0 15 17 15h90q14 0 14 -15v-283q0 -61 4.5 -89.5t19.5 -43.5t32.5 -18.5t60.5 -3.5h115v438q0 15 15 15z" />
    <glyph glyph-name="Aringacute" unicode="&#x1fa;" horiz-adv-x="691" 
d="M369 1119h116q10 0 10 -10v-7q0 -7 -5 -12l-101 -74q67 -18 67 -101q0 -107 -112 -107q-111 0 -111 107q0 84 69 102l55 96q3 6 12 6zM406 915q0 62 -62 62t-62 -62t62 -62t62 62zM344 770q84 0 109 -19q26 -20 48 -98l173 -637q3 -16 -12 -16h-102q-10 0 -14 16l-59 215
h-285l-60 -215q-4 -16 -13 -16h-103q-15 0 -12 16l178 637q23 78 47 97q26 20 105 20zM344 661q-17 0 -21.5 -6t-13.5 -35l-77 -281h226l-75 281q-9 29 -14 35t-25 6z" />
    <glyph glyph-name="aringacute" unicode="&#x1fb;" horiz-adv-x="549" 
d="M295 919h116q10 0 10 -10v-7q0 -7 -5 -12l-102 -73q67 -19 67 -102q0 -107 -111 -107t-111 107q0 84 68 102l56 96q3 6 12 6zM332 715q0 62 -62 62t-62 -62t62 -62t62 62zM255 558q126 0 180 -39t54 -125v-348q0 -21 -20 -29q-75 -22 -225 -22q-114 0 -163 32
q-48 33 -48 135q0 89 44.5 124t145.5 35h145v52q0 42 -26.5 61t-86.5 19h-164q-9 0 -12 3t-3 12v61q0 9 2.5 11.5t11.5 4.5q68 13 165 13zM368 107v127h-138q-42 0 -59.5 -15t-17.5 -52q0 -41 21.5 -56t79.5 -15q70 0 114 11z" />
    <glyph glyph-name="AEacute" unicode="&#x1fc;" horiz-adv-x="994" 
d="M585 975h116q10 0 10 -10v-7q0 -7 -5 -12l-158 -135q-7 -6 -14 0l-31 19q-8 5 -3 14l73 125q3 6 12 6zM344 770l247 -5h340q15 0 15 -15v-82q0 -15 -15 -15h-331v-224h298q16 0 16 -15v-79q0 -15 -16 -15h-298v-208h331q15 0 15 -15v-82q0 -15 -15 -15h-444q-15 0 -15 15
v216h-270l-60 -215q-4 -16 -13 -16h-103q-15 0 -12 16l178 637q23 78 47 97q26 20 105 20zM472 339v322h-118q-23 0 -31 -8.5t-16 -40.5l-75 -273h240z" />
    <glyph glyph-name="aeacute" unicode="&#x1fd;" horiz-adv-x="879" 
d="M476 775h116q10 0 10 -10v-7q0 -7 -5 -12l-158 -135q-6 -5 -14 0l-31 19q-8 5 -3 14l73 125q3 6 12 6zM607 558q141 0 187 -54q45 -53 47 -217v-30q0 -15 -7 -21t-27 -6h-316q1 -79 26 -105q24 -25 98 -25h170q15 0 15 -15v-62q0 -14 -14 -17q-75 -11 -179 -11
q-43 0 -95 11q-49 12 -74 28q-75 -39 -194 -39q-114 0 -163 32q-48 33 -48 135q0 89 44.5 124t145.5 35h145v52q0 42 -26.5 61t-86.5 19h-164q-9 0 -12 3t-3 12v61q0 9 2.5 11.5t11.5 4.5q68 13 165 13q125 0 180 -47q50 47 172 47zM607 453q-70 0 -92 -28q-24 -28 -25 -108
h230q-1 82 -24 109t-89 27zM371 234h-141q-42 0 -59.5 -15t-17.5 -52q0 -42 21.5 -57t78.5 -15q91 0 136 22q-18 42 -18 117z" />
    <glyph glyph-name="Oslashacute" unicode="&#x1fe;" horiz-adv-x="732" 
d="M412 975h116q10 0 10 -10v-7q0 -7 -5 -12l-158 -135q-6 -5 -14 0l-31 19q-8 5 -3 14l73 125q3 6 12 6zM680 381q0 -120 -14 -189.5t-50 -114.5q-35 -45 -93.5 -63.5t-156.5 -18.5q-133 0 -200 38l-30 -42q-9 -14 -20 -3l-34 23q-11 7 -4 20l35 49q-61 80 -61 301
q0 120 14 190.5t50 115.5q36 46 94 64.5t156 18.5q139 0 203 -40l26 38q11 14 21 4l34 -23q12 -7 3 -21l-32 -46q59 -80 59 -301zM366 658q-114 0 -149 -57q-35 -56 -35 -220q0 -121 17 -177l296 421q-39 33 -129 33zM551 381q0 121 -17 177l-294 -420q38 -31 126 -31
q115 0 149 55q36 56 36 219z" />
    <glyph glyph-name="oslashacute" unicode="&#x1ff;" horiz-adv-x="581" 
d="M328 775h116q10 0 10 -10v-7q0 -7 -5 -12l-158 -135q-7 -6 -14 0l-31 19q-8 5 -3 14l73 125q3 6 12 6zM534 276q0 -171 -48 -226q-46 -55 -196 -55q-94 0 -145 20l-21 -29q-9 -14 -20 -3l-34 23q-13 7 -4 20l23 33q-42 55 -42 217q0 170 47 226t196 56q90 0 138 -17
l18 26q11 14 21 4l34 -23q12 -8 3 -21l-18 -25q48 -54 48 -226zM290 453q-78 0 -100 -34t-22 -143q0 -68 6 -96l185 263q-23 10 -69 10zM404 384l-190 -271q25 -13 76 -13q78 0 100 33q22 34 22 143q0 78 -8 108z" />
    <glyph glyph-name="uni0218" unicode="&#x218;" horiz-adv-x="613" 
d="M322 770q85 0 201 -17q16 -3 16 -16v-62q0 -17 -15 -17h-231q-112 0 -112 -77v-16q0 -34 14.5 -53.5t52.5 -35.5l203 -81q69 -28 97.5 -70t28.5 -117v-31q0 -107 -80 -148q-71 -34 -195 -34q-123 0 -246 18q-14 3 -14 18v60q0 16 16 16h279q111 0 111 75v17
q0 36 -16 57.5t-58 38.5l-216 85q-58 21 -82 65t-24 121v23q0 105 68.5 143t201.5 38zM254 -39h100q10 0 10 -10v-7q0 -9 -5 -12l-142 -126q-7 -6 -14 0l-27 17q-8 5 -3 14l69 118q3 6 12 6z" />
    <glyph glyph-name="uni0219" unicode="&#x219;" horiz-adv-x="494" 
d="M264 558q82 0 156 -11q15 -3 15 -16v-59q0 -15 -16 -15h-184q-66 0 -66 -44v-12q0 -38 55 -59l131 -48q58 -22 80 -56t22 -90v-13q0 -79 -48.5 -109.5t-158.5 -30.5q-96 0 -195 9q-15 2 -15 15v62q0 16 16 16h194q52 0 70 8.5t18 34.5v10q0 19 -12.5 32t-44.5 25l-132 50
q-100 36 -100 147v20q0 73 53 103.5t162 30.5zM198 -39h100q10 0 10 -10v-7q0 -9 -5 -12l-142 -126q-7 -6 -14 0l-27 17q-8 5 -3 14l69 118q3 6 12 6z" />
    <glyph glyph-name="uni021A" unicode="&#x21a;" horiz-adv-x="625" 
d="M30 765h565q15 0 15 -15v-82q0 -15 -15 -15h-219v-638q0 -15 -15 -15h-98q-15 0 -15 15v638h-218q-15 0 -15 15v82q0 15 15 15zM261 -39h100q10 0 10 -10v-7q0 -7 -5 -12l-142 -126q-7 -6 -14 0l-27 17q-8 5 -3 14l69 118q3 6 12 6z" />
    <glyph glyph-name="uni021B" unicode="&#x21b;" horiz-adv-x="362" 
d="M110 683l91 23q17 5 17 -14v-140h99q16 0 16 -15v-63q0 -16 -16 -16h-99v-305q0 -33 12.5 -43t49.5 -10h44q17 0 17 -14v-66q0 -15 -15 -18q-36 -7 -71 -7q-56 0 -89 8q-34 9 -50.5 35t-19.5 79v341h-57q-16 0 -16 16v63q0 15 16 15h57v115q0 13 14 16zM168 -39h100
q10 0 10 -10v-7q0 -9 -5 -12l-142 -126q-7 -6 -14 0l-27 17q-8 5 -3 14l69 118q3 6 12 6z" />
    <glyph glyph-name="circumflex.001" unicode="&#x2c6;" horiz-adv-x="529" 
d="M233 775h63q13 0 18 -8l92 -127q8 -8 -3 -15l-24 -14q-8 -5 -16 0l-98 74l-99 -74q-7 -6 -16 0l-24 14q-10 7 -3 15l92 127q5 8 18 8z" />
    <glyph glyph-name="caron.001" unicode="&#x2c7;" horiz-adv-x="529" 
d="M379 772l24 -14q11 -8 3 -15l-92 -127q-5 -8 -18 -8h-63q-13 0 -18 8l-92 127q-7 7 3 15l24 14q9 6 16 0l99 -74l98 74q8 5 16 0z" />
    <glyph glyph-name="breve.001" unicode="&#x2d8;" horiz-adv-x="565" 
d="M385 765h45q17 0 14 -16q-10 -72 -45 -101q-35 -27 -116 -27q-83 0 -117 27q-35 29 -45 101q-3 16 14 16h45q12 0 17 -12q13 -31 31.5 -42.5t54.5 -11.5t54 11.5t31 42.5q6 12 17 12z" />
    <glyph glyph-name="dotaccent.001" unicode="&#x2d9;" horiz-adv-x="384" 
d="M264 691q0 -69 -72 -69t-72 69q0 68 72 68t72 -68z" />
    <glyph glyph-name="ring" unicode="&#x2da;" horiz-adv-x="463" 
d="M231 823q112 0 112 -108q0 -107 -112 -107q-111 0 -111 107q0 108 111 108zM293 715q0 62 -62 62t-62 -62t62 -62t62 62z" />
    <glyph glyph-name="ogonek" unicode="&#x2db;" horiz-adv-x="412" 
d="M155 18h39q16 0 13 -16q-8 -43 -8 -57q0 -18 10 -23.5t41 -5.5h35q15 0 15 -14v-47q0 -13 -12 -18q-21 -8 -70 -8q-52 0 -75 17.5t-23 59.5t18 100q4 12 17 12z" />
    <glyph glyph-name="tilde" unicode="&#x2dc;" horiz-adv-x="587" 
d="M219 758q24 0 75 -20t64 -20q18 0 27 7t18 27q7 13 19 10l33 -9q14 -6 10 -22q-17 -62 -37.5 -83.5t-61.5 -21.5q-24 0 -75 20t-64 20q-17 0 -26.5 -7t-18.5 -27q-6 -14 -19 -10l-32 8q-15 6 -11 22q18 62 38.5 84t60.5 22z" />
    <glyph glyph-name="hungarumlaut.001" unicode="&#x2dd;" horiz-adv-x="607" 
d="M207 775h88q10 0 10 -10v-7q0 -7 -5 -12l-142 -131q-7 -6 -14 0l-19 15q-8 6 -3 14l73 125q3 6 12 6zM389 775h88q10 0 10 -10v-7q0 -7 -5 -12l-142 -131q-7 -6 -14 0l-19 15q-8 6 -3 14l73 125q3 6 12 6z" />
    <glyph glyph-name="uni0326" unicode="&#x326;" horiz-adv-x="0" 
d="M200 -39h100q10 0 10 -10v-7q0 -9 -5 -12l-142 -126q-7 -6 -14 0l-27 17q-8 5 -3 14l69 118q3 6 12 6z" />
    <glyph glyph-name="pi" unicode="&#x3c0;" horiz-adv-x="665" 
d="M38 554h592q15 0 15 -15v-79q0 -15 -15 -15h-84v-430q0 -15 -15 -15h-85q-15 0 -15 15v430h-191q0 -215 -37 -430q-3 -15 -15 -15h-85q-17 0 -15 15q37 215 37 430h-87q-15 0 -15 15v79q0 15 15 15z" />
    <glyph glyph-name="uni0401" unicode="&#x401;" horiz-adv-x="639" 
d="M225 957q69 0 69 -66q0 -67 -69 -67q-70 0 -70 67q0 66 70 66zM497 891q0 -67 -69 -67t-69 67q0 66 69 66t69 -66zM92 765h484q16 0 16 -15v-82q0 -15 -16 -15h-370v-224h338q15 0 15 -15v-79q0 -15 -15 -15h-338v-208h370q16 0 16 -15v-82q0 -15 -16 -15h-484
q-15 0 -15 15v735q0 15 15 15z" />
    <glyph glyph-name="uni0410" unicode="&#x410;" horiz-adv-x="691" 
d="M344 770q84 0 109 -19q26 -20 48 -98l173 -637q3 -16 -12 -16h-102q-10 0 -14 16l-59 215h-285l-60 -215q-4 -16 -13 -16h-103q-15 0 -12 16l178 637q23 78 47 97q26 20 105 20zM344 661q-17 0 -21.5 -6t-13.5 -35l-77 -281h226l-75 281q-9 29 -14 35t-25 6z" />
    <glyph glyph-name="uni0411" unicode="&#x411;" horiz-adv-x="688" 
d="M206 653v-191h181q137 0 198 -46q62 -45 62 -165v-48q0 -119 -62 -164q-62 -44 -198 -44q-175 0 -295 9q-9 1 -12 3.5t-3 10.5v732q0 15 16 15h501q15 0 15 -15v-82q0 -15 -15 -15h-388zM518 215v24q0 64 -31 88.5t-102 24.5h-179v-245h177q74 0 104.5 23t30.5 85z" />
    <glyph glyph-name="uni0412" unicode="&#x412;" horiz-adv-x="693" 
d="M360 770q140 0 204 -47q64 -46 64 -165q0 -79 -23 -120t-76 -52v-3q63 -9 90.5 -53.5t27.5 -126.5q0 -119 -62 -164q-62 -44 -198 -44q-175 0 -295 9q-9 1 -12 3.5t-3 10.5v730q0 8 3 10.5t12 3.5q114 8 268 8zM348 658h-142v-227h113q108 0 143 19q37 19 37 92
q0 67 -33.5 91.5t-117.5 24.5zM385 334h-179v-227h177q74 0 104.5 23t30.5 85q0 67 -31 93t-102 26z" />
    <glyph glyph-name="uni0413" unicode="&#x413;" horiz-adv-x="553" 
d="M191 0h-99q-15 0 -15 15v735q0 15 15 15h434q15 0 15 -15v-82q0 -15 -15 -15h-320v-638q0 -15 -15 -15z" />
    <glyph glyph-name="uni0414" unicode="&#x414;" horiz-adv-x="712" 
d="M222 765h376q15 0 15 -15v-638h45q15 0 15 -15v-235q0 -15 -15 -15h-92q-15 0 -15 15v138h-402v-138q0 -15 -15 -15h-93q-15 0 -15 15v237q0 13 16 13h41q31 9 45.5 40t21.5 95l57 503q1 15 15 15zM485 112v541h-161l-50 -445q-8 -59 -22 -96h233z" />
    <glyph glyph-name="uni0415" unicode="&#x415;" horiz-adv-x="639" 
d="M92 765h484q16 0 16 -15v-82q0 -15 -16 -15h-370v-224h338q15 0 15 -15v-79q0 -15 -15 -15h-338v-208h370q16 0 16 -15v-82q0 -15 -16 -15h-484q-15 0 -15 15v735q0 15 15 15z" />
    <glyph glyph-name="uni0416" unicode="&#x416;" horiz-adv-x="979" 
d="M949 746l-267 -334l291 -385q9 -9 5 -18t-22 -9h-107q-16 0 -22 11l-273 372v-368q0 -15 -15 -15h-98q-15 0 -15 15v368l-273 -372q-6 -11 -22 -11h-107q-18 0 -22.5 9t5.5 18l291 385l-267 334q-16 19 9 19h110q14 0 21 -10l255 -321v316q0 15 15 15h98q15 0 15 -15
v-316l255 321q7 10 21 10h110q25 0 9 -19z" />
    <glyph glyph-name="uni0417" unicode="&#x417;" horiz-adv-x="615" 
d="M248 770q172 0 240 -39t68 -157v-33q0 -134 -92 -158q92 -26 92 -157v-30q0 -121 -67 -161t-241 -40q-105 0 -188 11q-19 4 -19 15v76q0 10 15 10h188q114 0 148 21q35 21 35 86v6q0 63 -25 87q-24 24 -100 24h-204q-13 0 -13 12v79q0 13 13 13h203q77 0 101 24
q25 24 25 88v12q0 63 -37 81q-36 18 -152 18h-182q-15 0 -15 11v74q0 12 19 16q72 11 188 11z" />
    <glyph glyph-name="uni0418" unicode="&#x418;" horiz-adv-x="779" 
d="M92 765h99q15 0 15 -15v-519l339 503q12 19 22.5 24.5t36.5 6.5h83q15 0 15 -15v-734q0 -16 -15 -16h-98q-15 0 -15 16v545l-363 -539q-15 -22 -42 -22h-77q-15 0 -15 16v734q0 15 15 15z" />
    <glyph glyph-name="uni0419" unicode="&#x419;" horiz-adv-x="779" 
d="M488 965h45q17 0 14 -16q-10 -71 -46 -101q-35 -27 -116 -27t-116 27q-36 30 -46 101q-3 16 14 16h45q12 0 17 -12q13 -31 31.5 -42.5t54.5 -11.5t54.5 11.5t31.5 42.5q5 12 17 12zM92 765h99q15 0 15 -15v-519l339 503q12 19 22.5 24.5t36.5 6.5h83q15 0 15 -15v-734
q0 -16 -15 -16h-98q-15 0 -15 16v545l-363 -539q-15 -22 -42 -22h-77q-15 0 -15 16v734q0 15 15 15z" />
    <glyph glyph-name="uni041A" unicode="&#x41a;" horiz-adv-x="649" 
d="M500 765h110q24 0 9 -19l-279 -334l303 -385q9 -9 5 -18t-22 -9h-108q-16 0 -22 11l-290 372v-368q0 -15 -15 -15h-99q-15 0 -15 15v735q0 15 15 15h99q15 0 15 -15v-316l273 321q7 10 21 10z" />
    <glyph glyph-name="uni041B" unicode="&#x41b;" horiz-adv-x="706" 
d="M237 765h377q15 0 15 -15v-735q0 -15 -15 -15h-98q-15 0 -15 15v638h-161l-52 -460q-13 -112 -59 -155q-44 -43 -120 -43q-35 0 -65 8q-19 4 -19 22v67q0 15 15 15h20q58 0 77 27q21 30 28 98l57 518q2 15 15 15z" />
    <glyph glyph-name="uni041C" unicode="&#x41c;" horiz-adv-x="961" 
d="M732 765h99q13 0 14 -15l68 -734q1 -16 -15 -16h-98q-14 0 -15 16l-45 525l-198 -503q-6 -13 -20 -13h-83q-15 0 -19 13l-198 503l-46 -525q-1 -16 -15 -16h-98q-16 0 -15 16l68 734q2 15 14 15h99q21 0 30.5 -8t17.5 -31l204 -529l203 530q9 23 18.5 30.5t29.5 7.5z" />
    <glyph glyph-name="uni041D" unicode="&#x41d;" horiz-adv-x="781" 
d="M590 765h99q15 0 15 -15v-734q0 -16 -15 -16h-99q-15 0 -15 16v313h-369v-313q0 -16 -15 -16h-99q-15 0 -15 16v734q0 15 15 15h99q15 0 15 -15v-308h369v308q0 15 15 15z" />
    <glyph glyph-name="uni041E" unicode="&#x41e;" horiz-adv-x="732" 
d="M366 770q99 0 157 -18.5t93 -64.5q36 -45 50 -115.5t14 -190.5t-14 -189.5t-50 -114.5q-35 -45 -93.5 -63.5t-156.5 -18.5q-97 0 -155.5 18.5t-94.5 63.5q-36 44 -50 114.5t-14 189.5q0 120 14 190.5t50 115.5q36 46 94 64.5t156 18.5zM182 381q0 -163 35 -219
q34 -55 149 -55t149 55q36 56 36 219q0 165 -36 220q-35 57 -149 57t-149 -57q-35 -56 -35 -220z" />
    <glyph glyph-name="uni041F" unicode="&#x41f;" horiz-adv-x="697" 
d="M92 765h513q15 0 15 -15v-735q0 -15 -15 -15h-98q-15 0 -15 15v638h-287v-638q0 -15 -15 -15h-98q-15 0 -15 15v735q0 15 15 15z" />
    <glyph glyph-name="uni0420" unicode="&#x420;" horiz-adv-x="661" 
d="M331 770q170 0 234 -50q63 -49 63 -199q0 -119 -40 -174q-19 -26 -58 -42q-62 -24 -199 -24h-125v-266q0 -9 -3 -12t-12 -3h-99q-9 0 -12 3t-3 12v733q0 8 3 10.5t12 3.5q114 8 239 8zM319 658h-113v-274h113q63 0 91.5 3.5t50.5 17.5t29.5 38.5t7.5 74.5q0 88 -35 114
t-144 26z" />
    <glyph glyph-name="uni0421" unicode="&#x421;" horiz-adv-x="610" 
d="M365 770q127 0 191 -12q19 -3 19 -21v-63q0 -16 -15 -16h-195q-114 0 -149 -56q-34 -55 -34 -219q0 -166 34 -221t149 -55h195q15 0 15 -15v-63q0 -19 -19 -22q-74 -12 -191 -12q-97 0 -155.5 18.5t-94.5 63.5q-35 46 -49 116.5t-14 189.5q0 120 14 190t49 115
q36 46 93.5 64t156.5 18z" />
    <glyph glyph-name="uni0422" unicode="&#x422;" horiz-adv-x="625" 
d="M30 765h565q15 0 15 -15v-82q0 -15 -15 -15h-219v-638q0 -15 -15 -15h-98q-15 0 -15 15v638h-218q-15 0 -15 15v82q0 15 15 15z" />
    <glyph glyph-name="uni0423" unicode="&#x423;" horiz-adv-x="604" 
d="M488 765h105q20 0 12 -17l-206 -555q-42 -114 -90 -156q-47 -42 -122 -42q-47 0 -83 10q-18 5 -18 23v64q0 15 15 15h60q35 0 56.5 18.5t43.5 67.5l-260 554q-8 18 11 18h109q12 0 17 -11l185 -395l147 394q6 12 18 12z" />
    <glyph glyph-name="uni0424" unicode="&#x424;" horiz-adv-x="847" 
d="M376 773h95q15 0 15 -15v-74q191 -6 258 -67q68 -60 68 -230t-68 -232q-68 -60 -258 -66v-73q0 -16 -15 -16h-95q-15 0 -15 16v73q-99 3 -158 17.5t-98 47.5q-38 35 -54 89t-16 144t16 144t54 87q39 34 97.5 48.5t158.5 17.5v74q0 15 15 15zM361 203v368
q-117 -4 -158 -42q-39 -38 -39 -142q0 -105 39 -142q41 -38 158 -42zM486 571v-368q119 5 158 42t39 142q0 104 -39 142q-39 37 -158 42z" />
    <glyph glyph-name="uni0425" unicode="&#x425;" horiz-adv-x="671" 
d="M523 765h108q24 0 11 -22l-231 -345l253 -379q15 -22 -11 -22h-108q-17 0 -27 16l-183 281l-181 -278q-10 -16 -27 -16h-108q-26 0 -11 22l252 376l-231 345q-13 22 11 22h108q17 0 27 -16l160 -247l161 247q10 16 27 16z" />
    <glyph glyph-name="uni0426" unicode="&#x426;" horiz-adv-x="731" 
d="M627 750v-638h66q15 0 15 -15v-235q0 -15 -15 -15h-92q-15 0 -15 15v138h-494q-15 0 -15 15v735q0 15 15 15h98q15 0 15 -15v-638h294v638q0 15 15 15h98q15 0 15 -15z" />
    <glyph glyph-name="uni0427" unicode="&#x427;" horiz-adv-x="661" 
d="M470 765h99q15 0 15 -15v-734q0 -16 -15 -16h-99q-15 0 -15 16v259h-109q-92 0 -143 9t-88 33q-37 25 -51.5 70.5t-14.5 126.5v236q0 15 15 15h99q15 0 15 -15v-230q0 -89 34 -111t146 -22h97v363q0 15 15 15z" />
    <glyph glyph-name="uni0428" unicode="&#x428;" horiz-adv-x="977" 
d="M786 765h99q15 0 15 -15v-735q0 -15 -15 -15h-793q-15 0 -15 15v735q0 15 15 15h98q15 0 15 -15v-638h219v638q0 15 15 15h98q15 0 15 -15v-638h219v638q0 15 15 15z" />
    <glyph glyph-name="uni0429" unicode="&#x429;" horiz-adv-x="1004" 
d="M900 750v-638h65q15 0 15 -15v-235q0 -15 -15 -15h-91q-15 0 -15 15v138h-767q-15 0 -15 15v735q0 15 15 15h98q15 0 15 -15v-638h219v638q0 15 15 15h98q15 0 15 -15v-638h219v638q0 15 15 15h99q15 0 15 -15z" />
    <glyph glyph-name="uni042A" unicode="&#x42a;" horiz-adv-x="728" 
d="M253 750v-288h182q137 0 198 -46q62 -45 62 -165v-48q0 -119 -62 -164q-62 -44 -198 -44q-177 0 -295 9q-9 1 -12 3.5t-3 10.5v635h-93q-15 0 -15 15v82q0 15 15 15h206q15 0 15 -15zM565 215v24q0 64 -31 88.5t-102 24.5h-179v-245h178q74 0 104 23t30 85z" />
    <glyph glyph-name="uni042B" unicode="&#x42b;" horiz-adv-x="940" 
d="M205 750v-288h182q137 0 198 -46q62 -45 62 -165v-48q0 -119 -62 -164q-62 -44 -198 -44q-177 0 -295 9q-9 1 -12 3.5t-3 10.5v732q0 15 15 15h98q15 0 15 -15zM750 765h98q15 0 15 -15v-734q0 -16 -15 -16h-98q-15 0 -15 16v734q0 15 15 15zM518 215v24q0 64 -31 88.5
t-102 24.5h-180v-245h178q74 0 104.5 23t30.5 85z" />
    <glyph glyph-name="uni042C" unicode="&#x42c;" horiz-adv-x="680" 
d="M206 750v-288h181q137 0 198 -46q62 -45 62 -165v-48q0 -119 -62 -164q-62 -44 -198 -44q-175 0 -295 9q-9 1 -12 3.5t-3 10.5v732q0 15 15 15h99q15 0 15 -15zM518 215v24q0 64 -31 88.5t-102 24.5h-179v-245h177q74 0 104.5 23t30.5 85z" />
    <glyph glyph-name="uni042D" unicode="&#x42d;" horiz-adv-x="634" 
d="M270 770q99 0 156.5 -18t92.5 -64q35 -45 49 -115t14 -190q0 -119 -14 -189.5t-49 -116.5q-35 -45 -93.5 -63.5t-155.5 -18.5q-142 0 -217 12q-19 3 -19 22v63q0 15 15 15h221q105 0 141 46q36 45 41 176h-285q-15 0 -15 15v77q0 15 15 15h285q-5 131 -41 176
q-36 46 -141 46h-221q-15 0 -15 16v63q0 18 19 21q67 12 217 12z" />
    <glyph glyph-name="uni042E" unicode="&#x42e;" horiz-adv-x="1017" 
d="M651 770q99 0 157 -18.5t93 -64.5q36 -45 50 -115.5t14 -190.5t-14 -189.5t-50 -114.5q-35 -45 -93.5 -63.5t-156.5 -18.5q-175 0 -241 70q-64 71 -72 264h-132v-313q0 -16 -15 -16h-99q-15 0 -15 16v734q0 15 15 15h99q15 0 15 -15v-308h132q7 188 74 258q66 70 239 70z
M466 381q0 -163 35 -219q36 -55 150 -55q115 0 149 55q36 56 36 219q0 165 -36 220q-35 57 -149 57t-150 -57q-35 -56 -35 -220z" />
    <glyph glyph-name="uni042F" unicode="&#x42f;" horiz-adv-x="676" 
d="M345 770q127 0 239 -8q9 -1 12 -3.5t3 -10.5v-733q0 -9 -3 -12t-12 -3h-98q-9 0 -12 3t-3 12v266h-123l-164 -259q-15 -22 -40 -22h-94q-11 0 -14.5 6t2.5 14l169 270q-88 13 -123 64q-35 52 -35 167q0 149 62 199q64 50 234 50zM471 384v274h-113q-108 0 -145 -26
q-35 -26 -35 -114q0 -50 7.5 -74.5t29.5 -38.5t50.5 -17.5t92.5 -3.5h113z" />
    <glyph glyph-name="uni0430" unicode="&#x430;" horiz-adv-x="549" 
d="M255 558q126 0 180 -39t54 -125v-348q0 -21 -20 -29q-75 -22 -225 -22q-114 0 -162 30q-47 31 -49 126v18q1 84 45.5 118t145.5 34h144v52q0 42 -26.5 61t-86.5 19h-164q-9 0 -12 3t-3 12v61q0 9 2.5 11.5t11.5 4.5q68 13 165 13zM368 108v126h-135q-53 0 -66 -13
q-14 -14 -14 -53v-7q0 -40 20 -52.5t73 -12.5q77 0 122 12z" />
    <glyph glyph-name="uni0431" unicode="&#x431;" horiz-adv-x="592" 
d="M467 770h40q14 0 14 -31q0 -52 -26.5 -74.5t-92.5 -31.5l-75 -12q-24 -3 -31 -5q-24 -5 -52 -16q-57 -24 -67 -106q21 26 53 37t85 11q138 0 184 -55q47 -55 47 -211q0 -171 -48 -226q-46 -55 -196 -55q-149 0 -197 55q-47 57 -46 226v88q0 200 67 280q20 24 59 43
q66 31 181 49q56 8 73 20q3 2 6 5.5t4.5 5t6 2.5t11.5 1zM180 276q0 -109 22 -143q22 -33 100 -33q77 0 100 33q22 34 22 143q0 102 -22 133q-23 32 -100 32t-100 -32q-22 -31 -22 -133z" />
    <glyph glyph-name="uni0432" unicode="&#x432;" horiz-adv-x="565" 
d="M293 558q115 0 164.5 -35.5t49.5 -118.5q0 -60 -19 -89t-66 -37v-2q54 -6 76.5 -36t22.5 -92q0 -84 -48.5 -118.5t-160.5 -34.5q-151 0 -234 8q-13 1 -13 14v521q0 11 13 12q98 8 215 8zM281 454h-91v-135h75q71 0 97 13.5t26 52.5t-24.5 54t-82.5 15zM305 234h-115v-134
h115q54 0 75.5 14.5t21.5 50.5q0 38 -23 53.5t-74 15.5z" />
    <glyph glyph-name="uni0433" unicode="&#x433;" horiz-adv-x="460" 
d="M78 553h349q13 0 13 -12v-88q0 -12 -13 -12h-234v-429q0 -12 -13 -12h-102q-13 0 -13 12v529q0 12 13 12z" />
    <glyph glyph-name="uni0434" unicode="&#x434;" horiz-adv-x="584" 
d="M172 553h312q13 0 13 -12v-435h38q13 0 13 -12v-185q0 -13 -13 -13h-89q-12 0 -12 13v91h-296v-91q0 -13 -13 -13h-88q-13 0 -13 13v186q0 11 13 11h31q41 14 52 104l39 331q1 12 13 12zM375 106v341h-104l-33 -274q-5 -39 -15 -67h152z" />
    <glyph glyph-name="uni0435" unicode="&#x435;" horiz-adv-x="558" 
d="M286 558q141 0 187 -54q45 -53 47 -217v-30q0 -15 -7 -21t-27 -6h-316q2 -80 25 -105q25 -25 99 -25h170q15 0 15 -15v-62q0 -14 -14 -17q-74 -11 -179 -11q-146 0 -192 55q-47 56 -47 226q0 171 46 226q47 56 193 56zM286 453q-69 0 -93 -28q-23 -27 -24 -108h230
q-1 80 -25 108q-22 28 -88 28z" />
    <glyph glyph-name="uni0436" unicode="&#x436;" horiz-adv-x="847" 
d="M816 538l-198 -239l221 -281q5 -7 2.5 -12.5t-12.5 -5.5h-119q-10 0 -18 8l-206 262v-255q0 -15 -15 -15h-95q-15 0 -15 15v255l-207 -262q-5 -8 -17 -8h-120q-9 0 -12 5.5t3 12.5l221 281l-199 239q-5 6 -1.5 10.5t13.5 4.5h110q13 0 17 -7l192 -230v222q0 15 15 15h95
q15 0 15 -15v-222l192 230q4 7 16 7h111q9 0 12.5 -4.5t-1.5 -10.5z" />
    <glyph glyph-name="uni0437" unicode="&#x437;" horiz-adv-x="511" 
d="M222 558q126 0 181 -28q56 -29 56 -109v-41q0 -88 -78 -104q78 -15 78 -104v-38q0 -82 -56 -111q-55 -28 -181 -28q-95 0 -164 13q-17 5 -17 21v63q0 12 13 12h161q71 0 94 12t23 46v7q0 35 -16.5 48t-64.5 13h-159q-13 0 -13 13v66q0 13 13 13h158q49 0 65.5 13t16.5 48
v11q0 34 -24 44q-24 11 -96 11h-158q-13 0 -13 12v64q0 17 17 20q56 13 164 13z" />
    <glyph glyph-name="uni0438" unicode="&#x438;" horiz-adv-x="632" 
d="M481 553h74q12 0 12 -11v-530q0 -12 -12 -12h-99q-12 0 -12 12v338l-258 -331q-13 -19 -39 -19h-70q-12 0 -12 12v530q0 11 12 11h99q12 0 12 -11v-330l244 317q18 24 49 24z" />
    <glyph glyph-name="uni0439" unicode="&#x439;" horiz-adv-x="632" 
d="M421 765h45q17 0 14 -16q-10 -71 -46 -101q-34 -27 -116 -27t-116 27q-35 29 -45 101q-3 16 14 16h44q13 0 17 -12q13 -31 31.5 -42.5t54.5 -11.5t54.5 11.5t31.5 42.5q4 12 17 12zM481 553h74q12 0 12 -11v-530q0 -12 -12 -12h-99q-12 0 -12 12v338l-258 -331
q-13 -19 -39 -19h-70q-12 0 -12 12v530q0 11 12 11h99q12 0 12 -11v-330l244 317q18 24 49 24z" />
    <glyph glyph-name="uni043A" unicode="&#x43a;" horiz-adv-x="550" 
d="M402 553h110q10 0 13.5 -4.5t-1.5 -10.5l-199 -239l221 -281q6 -7 3 -12.5t-12 -5.5h-119q-13 0 -18 8l-207 262v-255q0 -15 -15 -15h-98q-15 0 -15 15v523q0 15 15 15h98q15 0 15 -15v-222l192 230q6 7 17 7z" />
    <glyph glyph-name="uni043B" unicode="&#x43b;" horiz-adv-x="578" 
d="M181 553h321q11 0 11 -11v-531q0 -11 -11 -11h-101q-11 0 -11 11v434h-108l-34 -293q-18 -156 -151 -156q-33 0 -57 6q-18 4 -18 21v71q0 10 12 10h18q40 0 55.5 18t21.5 66l41 354q2 11 11 11z" />
    <glyph glyph-name="uni043C" unicode="&#x43c;" horiz-adv-x="787" 
d="M586 553h91q11 0 12 -10l56 -531q1 -12 -11 -12h-102q-10 0 -12 12l-34 342l-139 -326q-4 -10 -16 -10h-76q-10 0 -16 10l-137 326l-35 -342q-1 -12 -12 -12h-102q-13 0 -11 11l56 531q2 11 13 11h90q19 0 28.5 -6t16.5 -23l147 -344l148 345q7 17 16 22.5t29 5.5z" />
    <glyph glyph-name="uni043D" unicode="&#x43d;" horiz-adv-x="637" 
d="M458 553h99q15 0 15 -15v-523q0 -15 -15 -15h-99q-15 0 -15 15v203h-250v-203q0 -15 -15 -15h-98q-15 0 -15 15v523q0 15 15 15h98q15 0 15 -15v-207h250v207q0 15 15 15z" />
    <glyph glyph-name="uni043E" unicode="&#x43e;" horiz-adv-x="581" 
d="M290 558q150 0 197 -56t47 -226t-47 -226q-46 -55 -197 -55q-150 0 -196 55q-47 56 -47 226t47 226t196 56zM290 453q-78 0 -100 -34t-22 -143t22 -143q22 -33 100 -33t101 33q22 34 22 143t-22 143t-101 34z" />
    <glyph glyph-name="uni043F" unicode="&#x43f;" horiz-adv-x="574" 
d="M80 553h414q15 0 15 -15v-523q0 -15 -15 -15h-99q-15 0 -15 15v426h-187v-426q0 -15 -15 -15h-98q-15 0 -15 15v523q0 15 15 15z" />
    <glyph glyph-name="uni0440" unicode="&#x440;" horiz-adv-x="589" 
d="M295 558q151 0 199 -56t48 -221q0 -171 -46 -229q-45 -57 -183 -57q-75 0 -128 6v-185q0 -16 -15 -16h-91q-15 0 -15 16v704q0 17 19 20q108 18 212 18zM299 453h-114v-346q51 -6 109 -6q82 0 104 33q23 34 23 143q0 107 -21 142q-21 34 -101 34z" />
    <glyph glyph-name="uni0441" unicode="&#x441;" horiz-adv-x="498" 
d="M291 558q89 0 157 -11q16 -3 16 -18v-61q0 -15 -16 -15h-157q-78 0 -100 -34q-22 -32 -22 -142q0 -109 22 -143t100 -34h157q16 0 16 -15v-61q0 -15 -16 -18q-68 -11 -157 -11q-151 0 -197 55t-46 227q0 92 9.5 141.5t35.5 82.5q27 33 72 45t126 12z" />
    <glyph glyph-name="uni0442" unicode="&#x442;" horiz-adv-x="515" 
d="M35 553h445q15 0 15 -15v-82q0 -15 -15 -15h-158v-426q0 -15 -15 -15h-99q-15 0 -15 15v426h-158q-15 0 -15 15v82q0 15 15 15z" />
    <glyph glyph-name="uni0443" unicode="&#x443;" horiz-adv-x="606" 
d="M435 553h91q15 0 15 -15v-506q0 -106 -26 -158q-20 -42 -70.5 -60.5t-141.5 -18.5q-89 0 -169 11q-13 3 -13 16v59q0 15 14 15h161q74 0 99 22q25 21 25 81v5q-56 -9 -128 -9q-137 0 -185 56q-47 56 -47 209v278q0 15 15 15h91q15 0 15 -15v-261q0 -108 23 -143
q24 -33 107 -33q67 0 109 6v431q0 15 15 15z" />
    <glyph glyph-name="uni0444" unicode="&#x444;" horiz-adv-x="785" 
d="M555 558q95 0 139.5 -66t44.5 -216q0 -149 -44.5 -215t-139.5 -66q-74 0 -102 25v-204q0 -16 -15 -16h-91q-15 0 -15 16v204q-28 -25 -102 -25q-95 0 -139.5 66t-44.5 215q0 150 44.5 216t139.5 66q68 0 102 -25v217q0 15 15 15h91q15 0 15 -15v-217q34 25 102 25z
M331 119v315q-23 18 -73 18q-56 0 -73 -38q-17 -39 -17 -138t17 -138q16 -37 73 -37q50 0 73 18zM526 101q58 0 74 37q17 39 17 138t-17 138q-17 38 -74 38q-50 0 -72 -18v-315q22 -18 72 -18z" />
    <glyph glyph-name="uni0445" unicode="&#x445;" horiz-adv-x="553" 
d="M402 553h111q9 0 11 -5.5t-4 -12.5l-171 -243l191 -274q11 -18 -8 -18h-111q-11 0 -15 9l-130 187l-131 -187q-5 -9 -14 -9h-111q-20 0 -9 18l192 273l-172 244q-6 7 -3.5 12.5t10.5 5.5h112q10 0 17 -9l109 -157l109 157q7 9 17 9z" />
    <glyph glyph-name="uni0446" unicode="&#x446;" horiz-adv-x="603" 
d="M513 538v-426h47q15 0 15 -15v-185q0 -15 -15 -15h-93q-15 0 -15 15v88h-372q-15 0 -15 15v523q0 15 15 15h99q15 0 15 -15v-426h190v426q0 15 15 15h99q15 0 15 -15z" />
    <glyph glyph-name="uni0447" unicode="&#x447;" horiz-adv-x="549" 
d="M370 553h99q15 0 15 -15v-522q0 -16 -15 -16h-99q-15 0 -15 16v166h-34q-59 0 -98 3q-88 7 -126 39q-30 26 -43 72t-13 125v117q0 15 15 15h99q15 0 15 -15v-111q0 -89 27 -112q28 -21 136 -21h22v244q0 15 15 15z" />
    <glyph glyph-name="uni0448" unicode="&#x448;" horiz-adv-x="797" 
d="M619 553h98q15 0 15 -15v-523q0 -15 -15 -15h-637q-15 0 -15 15v523q0 15 15 15h98q15 0 15 -15v-429h145v429q0 15 15 15h92q15 0 15 -15v-429h144v429q0 15 15 15z" />
    <glyph glyph-name="uni0449" unicode="&#x449;" horiz-adv-x="818" 
d="M728 538v-426h47q15 0 15 -15v-185q0 -15 -15 -15h-92q-15 0 -15 15v88h-588q-15 0 -15 15v523q0 15 15 15h98q15 0 15 -15v-426h139v426q0 15 15 15h98q15 0 15 -15v-426h139v426q0 15 15 15h99q15 0 15 -15z" />
    <glyph glyph-name="uni044A" unicode="&#x44a;" horiz-adv-x="625" 
d="M260 542v-200h125q113 0 161.5 -34.5t48.5 -117.5v-42q0 -84 -48.5 -118.5t-161.5 -34.5q-153 0 -238 8q-11 2 -11 11v429h-105q-12 0 -12 11v88q0 11 12 11h217q12 0 12 -11zM472 163v17q0 35 -20.5 48.5t-66.5 13.5h-125v-140h117q54 0 74.5 12.5t20.5 48.5z" />
    <glyph glyph-name="uni044B" unicode="&#x44b;" horiz-adv-x="766" 
d="M190 542v-200h124q113 0 162 -34.5t49 -117.5v-42q0 -84 -48.5 -118.5t-162.5 -34.5q-153 0 -238 8q-11 2 -11 11v528q0 11 12 11h101q12 0 12 -11zM595 553h91q15 0 15 -15v-523q0 -15 -15 -15h-91q-15 0 -15 15v523q0 15 15 15zM401 163v17q0 34 -20.5 48t-65.5 14
h-125v-140h116q54 0 74.5 12.5t20.5 48.5z" />
    <glyph glyph-name="uni044C" unicode="&#x44c;" horiz-adv-x="555" 
d="M190 541v-199h124q113 0 162 -34.5t49 -117.5v-42q0 -84 -48.5 -118.5t-162.5 -34.5q-153 0 -238 8q-11 2 -11 13v526q0 11 13 11h99q13 0 13 -12zM401 163v17q0 34 -20.5 48t-65.5 14h-125v-140h116q54 0 74.5 12.5t20.5 48.5z" />
    <glyph glyph-name="uni044D" unicode="&#x44d;" horiz-adv-x="525" 
d="M228 558q148 0 199 -59q52 -58 52 -222q0 -165 -52 -223q-51 -59 -199 -59q-103 0 -172 13q-18 3 -18 19v63q0 12 12 12h178q72 0 97 27q26 29 30 100h-217q-12 0 -12 11v74q0 10 12 10h217q-4 71 -30 100q-25 28 -97 28h-178q-12 0 -12 11v63q0 16 18 20q57 12 172 12z
" />
    <glyph glyph-name="uni044E" unicode="&#x44e;" horiz-adv-x="817" 
d="M526 558q150 0 197 -56t47 -226t-47 -226q-46 -55 -197 -55q-136 0 -185 45q-48 46 -56 178h-92v-203q0 -15 -15 -15h-98q-15 0 -15 15v523q0 15 15 15h98q15 0 15 -15v-207h92q6 135 55 181t186 46zM526 100q78 0 101 33q22 34 22 143t-22 143t-101 34q-78 0 -100 -34
q-21 -35 -21 -143t21 -143q22 -33 100 -33z" />
    <glyph glyph-name="uni044F" unicode="&#x44f;" horiz-adv-x="557" 
d="M281 558q134 0 198 -7q12 -1 12 -11v-529q0 -11 -12 -11h-101q-7 0 -9 2t-2 9v186h-75l-127 -181q-10 -16 -31 -16h-97q-20 0 -9 14l132 192q-66 12 -92.5 49.5t-26.5 115.5q0 105 53 146t187 41zM367 288v161h-84q-67 0 -92 -17q-23 -17 -23 -66t22 -64q23 -14 93 -14
h84z" />
    <glyph glyph-name="uni0451" unicode="&#x451;" horiz-adv-x="558" 
d="M184 757q68 0 68 -66q0 -67 -68 -67q-70 0 -70 67q0 66 70 66zM456 691q0 -67 -69 -67t-69 67q0 66 69 66t69 -66zM286 558q141 0 187 -54q45 -53 47 -217v-30q0 -15 -7 -21t-27 -6h-316q2 -80 25 -105q25 -25 99 -25h170q15 0 15 -15v-62q0 -14 -14 -17
q-74 -11 -179 -11q-146 0 -192 55q-47 56 -47 226q0 171 46 226q47 56 193 56zM286 453q-69 0 -93 -28q-23 -27 -24 -108h230q-1 80 -25 108q-22 28 -88 28z" />
    <glyph glyph-name="Wgrave" unicode="&#x1e80;" horiz-adv-x="1094" 
d="M386 975h116q9 0 12 -6l73 -125q5 -9 -3 -14l-31 -19q-7 -6 -14 0l-158 135q-5 8 -5 12v7q0 10 10 10zM948 765h105q9 0 11.5 -3t1.5 -13l-130 -636q-17 -79 -40 -98q-25 -20 -100 -20q-85 0 -108 19q-22 20 -42 99l-99 417l-99 -417q-11 -37 -14 -48t-13.5 -30
t-14.5 -21.5t-23.5 -9t-34 -7t-51.5 -2.5q-74 0 -99 20q-23 19 -40 98l-130 636q-1 10 1.5 13t11.5 3h104q7 0 9.5 -3t4.5 -13l118 -587q5 -26 11 -34t19 -8q15 0 21 7.5t14 34.5l137 558q4 16 19 16h98q15 0 19 -16l137 -558q7 -27 13 -34.5t22 -7.5q13 0 18.5 8t11.5 34
l118 587q1 16 13 16z" />
    <glyph glyph-name="wgrave" unicode="&#x1e81;" horiz-adv-x="860" 
d="M267 775h116q9 0 12 -6l73 -125q5 -9 -3 -14l-31 -19q-7 -6 -14 0l-158 135q-5 8 -5 12v7q0 10 10 10zM721 553h99q8 0 10.5 -3t1.5 -12l-87 -436q-13 -69 -38 -89q-23 -18 -89 -18q-74 0 -94 17q-21 18 -37 90l-57 252l-57 -252q-17 -74 -37 -90q-20 -17 -94 -17
q-66 0 -89 18q-23 20 -38 89l-87 436q-2 15 12 15h99q6 0 8 -2.5t4 -12.5l76 -409q4 -18 8.5 -23.5t13.5 -5.5q10 0 13.5 4.5t8.5 24.5l95 393q3 15 14 15h100q10 0 15 -15l95 -393q4 -20 7.5 -24.5t13.5 -4.5t14 5.5t8 23.5l76 409q3 15 12 15z" />
    <glyph glyph-name="Wacute" unicode="&#x1e82;" horiz-adv-x="1094" 
d="M582 975h116q10 0 10 -10v-7q0 -4 -5 -12l-158 -135q-7 -6 -14 0l-31 19q-8 5 -3 14l73 125q3 6 12 6zM948 765h105q9 0 11.5 -3t1.5 -13l-130 -636q-17 -79 -40 -98q-25 -20 -100 -20q-85 0 -108 19q-22 20 -42 99l-99 417l-99 -417q-11 -37 -14 -48t-13.5 -30
t-14.5 -21.5t-23.5 -9t-34 -7t-51.5 -2.5q-74 0 -99 20q-23 19 -40 98l-130 636q-1 10 1.5 13t11.5 3h104q7 0 9.5 -3t4.5 -13l118 -587q5 -26 11 -34t19 -8q15 0 21 7.5t14 34.5l137 558q4 16 19 16h98q15 0 19 -16l137 -558q7 -27 13 -34.5t22 -7.5q13 0 18.5 8t11.5 34
l118 587q1 16 13 16z" />
    <glyph glyph-name="wacute" unicode="&#x1e83;" horiz-adv-x="860" 
d="M464 775h116q10 0 10 -10v-7q0 -7 -5 -12l-158 -135q-7 -6 -14 0l-31 19q-8 5 -3 14l73 125q3 6 12 6zM721 553h99q8 0 10.5 -3t1.5 -12l-87 -436q-13 -69 -38 -89q-23 -18 -89 -18q-74 0 -94 17q-21 18 -37 90l-57 252l-57 -252q-17 -74 -37 -90q-20 -17 -94 -17
q-66 0 -89 18q-23 20 -38 89l-87 436q-2 15 12 15h99q6 0 8 -2.5t4 -12.5l76 -409q4 -18 8.5 -23.5t13.5 -5.5q10 0 13.5 4.5t8.5 24.5l95 393q3 15 14 15h100q10 0 15 -15l95 -393q4 -20 7.5 -24.5t13.5 -4.5t14 5.5t8 23.5l76 409q3 15 12 15z" />
    <glyph glyph-name="Wdieresis" unicode="&#x1e84;" horiz-adv-x="1094" 
d="M446 957q68 0 68 -66q0 -67 -68 -67q-70 0 -70 67q0 66 70 66zM718 891q0 -67 -69 -67t-69 67q0 66 69 66t69 -66zM948 765h105q9 0 11.5 -3t1.5 -13l-130 -636q-17 -79 -40 -98q-25 -20 -100 -20q-85 0 -108 19q-22 20 -42 99l-99 417l-99 -417q-11 -37 -14 -48
t-13.5 -30t-14.5 -21.5t-23.5 -9t-34 -7t-51.5 -2.5q-74 0 -99 20q-23 19 -40 98l-130 636q-1 10 1.5 13t11.5 3h104q7 0 9.5 -3t4.5 -13l118 -587q5 -26 11 -34t19 -8q15 0 21 7.5t14 34.5l137 558q4 16 19 16h98q15 0 19 -16l137 -558q7 -27 13 -34.5t22 -7.5q13 0 18.5 8
t11.5 34l118 587q1 16 13 16z" />
    <glyph glyph-name="wdieresis" unicode="&#x1e85;" horiz-adv-x="860" 
d="M329 757q68 0 68 -66q0 -67 -68 -67q-70 0 -70 67q0 66 70 66zM601 691q0 -67 -69 -67t-69 67q0 66 69 66t69 -66zM721 553h99q8 0 10.5 -3t1.5 -12l-87 -436q-13 -69 -38 -89q-23 -18 -89 -18q-74 0 -94 17q-21 18 -37 90l-57 252l-57 -252q-17 -74 -37 -90
q-20 -17 -94 -17q-66 0 -89 18q-23 20 -38 89l-87 436q-2 15 12 15h99q6 0 8 -2.5t4 -12.5l76 -409q4 -18 8.5 -23.5t13.5 -5.5q10 0 13.5 4.5t8.5 24.5l95 393q3 15 14 15h100q10 0 15 -15l95 -393q4 -20 7.5 -24.5t13.5 -4.5t14 5.5t8 23.5l76 409q3 15 12 15z" />
    <glyph glyph-name="Ygrave" unicode="&#x1ef2;" horiz-adv-x="685" 
d="M179 975h116q9 0 12 -6l73 -125q5 -9 -3 -14l-31 -19q-8 -5 -14 0l-158 135q-5 5 -5 12v7q0 10 10 10zM560 765h109q23 0 11 -22l-274 -504v-223q0 -16 -15 -16h-98q-15 0 -15 16v224l-273 503q-12 22 11 22h108q18 0 27 -16l191 -377l191 377q9 16 27 16z" />
    <glyph glyph-name="ygrave" unicode="&#x1ef3;" horiz-adv-x="606" 
d="M158 775h116q9 0 12 -6l73 -125q5 -9 -3 -14l-31 -19q-8 -5 -14 0l-158 135q-5 5 -5 12v7q0 10 10 10zM435 553h91q15 0 15 -15v-506q0 -106 -26 -158q-20 -42 -70.5 -60.5t-141.5 -18.5q-89 0 -169 11q-13 3 -13 16v59q0 15 14 15h161q74 0 99 22q25 21 25 81v5
q-56 -9 -128 -9q-137 0 -185 56q-47 56 -47 209v278q0 15 15 15h91q15 0 15 -15v-261q0 -108 23 -143q24 -33 107 -33q67 0 109 6v431q0 15 15 15z" />
    <glyph glyph-name="uni1EF8" unicode="&#x1ef8;" horiz-adv-x="685" 
d="M269 958q24 0 75 -20t64 -20q17 0 26.5 7t18.5 27q6 14 19 10l32 -9q16 -5 11 -22q-18 -62 -38 -83.5t-61 -21.5q-24 0 -75 20t-64 20q-18 0 -27.5 -7t-17.5 -27q-8 -14 -19 -10l-33 8q-14 6 -10 22q17 62 37.5 84t61.5 22zM560 765h109q23 0 11 -22l-274 -504v-223
q0 -16 -15 -16h-98q-15 0 -15 16v224l-273 503q-12 22 11 22h108q18 0 27 -16l191 -377l191 377q9 16 27 16z" />
    <glyph glyph-name="uni1EF9" unicode="&#x1ef9;" horiz-adv-x="606" 
d="M232 758q24 0 75 -20t64 -20q17 0 26.5 7t18.5 27q6 14 18 10l33 -9q14 -5 11 -22q-18 -62 -38 -83.5t-61 -21.5q-25 0 -76 20t-63 20q-18 0 -27.5 -7t-17.5 -27q-8 -14 -19 -10l-33 8q-14 6 -10 22q17 62 37.5 84t61.5 22zM435 553h91q15 0 15 -15v-506q0 -106 -26 -158
q-20 -42 -70.5 -60.5t-141.5 -18.5q-89 0 -169 11q-13 3 -13 16v59q0 15 14 15h161q74 0 99 22q25 21 25 81v5q-56 -9 -128 -9q-137 0 -185 56q-47 56 -47 209v278q0 15 15 15h91q15 0 15 -15v-261q0 -108 23 -143q24 -33 107 -33q67 0 109 6v431q0 15 15 15z" />
    <glyph glyph-name="endash" unicode="&#x2013;" horiz-adv-x="618" 
d="M76 341h466q15 0 15 -15v-82q0 -15 -15 -15h-466q-15 0 -15 15v82q0 15 15 15z" />
    <glyph glyph-name="emdash" unicode="&#x2014;" horiz-adv-x="924" 
d="M76 341h772q15 0 15 -15v-82q0 -15 -15 -15h-772q-15 0 -15 15v82q0 15 15 15z" />
    <glyph glyph-name="quoteleft.001" unicode="&#x2018;" horiz-adv-x="275" 
d="M208 764l33 -18q7 -4 3 -14l-71 -246q-3 -9 -12 -9h-120q-10 0 -10 10v19q0 5 5 13l157 240q8 9 15 5z" />
    <glyph glyph-name="quoteright" unicode="&#x2019;" horiz-adv-x="268" 
d="M120 765h119q10 0 10 -10v-18q0 -6 -5 -14l-157 -240q-5 -8 -14 -4l-34 18q-7 4 -3 14l72 246q3 8 12 8z" />
    <glyph glyph-name="quotesinglbase" unicode="&#x201a;" horiz-adv-x="263" 
d="M85 122h120q10 0 10 -10v-18q0 -6 -5 -14l-157 -240q-8 -8 -15 -4l-33 18q-7 4 -3 14l71 246q3 8 12 8z" />
    <glyph glyph-name="quotedblleft.001" unicode="&#x201c;" horiz-adv-x="492" 
d="M207 764l34 -18q7 -4 3 -14l-71 -246q-3 -9 -13 -9h-119q-10 0 -10 10v19q0 5 5 13l157 240q6 10 14 5zM424 764l34 -18q7 -4 3 -14l-71 -246q-3 -9 -13 -9h-119q-10 0 -10 10v19q0 5 5 13l157 240q6 10 14 5z" />
    <glyph glyph-name="quotedblright" unicode="&#x201d;" horiz-adv-x="495" 
d="M120 765h119q10 0 10 -10v-18q0 -6 -5 -14l-157 -240q-5 -8 -14 -4l-34 18q-7 4 -3 14l72 246q3 8 12 8zM346 765h120q10 0 10 -10v-18q0 -6 -5 -14l-158 -240q-5 -8 -14 -4l-34 18q-7 4 -3 14l72 246q3 8 12 8z" />
    <glyph glyph-name="quotedblbase" unicode="&#x201e;" horiz-adv-x="483" 
d="M85 122h120q10 0 10 -10v-18q0 -6 -5 -14l-158 -240q-7 -8 -14 -4l-34 18q-7 4 -3 14l72 246q3 8 12 8zM306 122h119q10 0 10 -10v-18q0 -6 -5 -14l-157 -240q-5 -8 -14 -4l-34 18q-7 4 -3 14l71 246q3 8 13 8z" />
    <glyph glyph-name="dagger.001" unicode="&#x2020;" horiz-adv-x="493" 
d="M434 476h-127v-461q0 -15 -15 -15h-91q-15 0 -15 15v462h-126q-15 0 -15 15v73q0 15 15 15h126v170q0 15 15 15h91q15 0 15 -15v-170h127q15 0 15 -15v-74q0 -15 -15 -15z" />
    <glyph glyph-name="daggerdbl" unicode="&#x2021;" horiz-adv-x="493" 
d="M201 765h91q15 0 15 -15v-170h127q15 0 15 -15v-74q0 -15 -15 -15h-127v-177h127q15 0 15 -15v-73q0 -15 -15 -15h-127v-181q0 -15 -15 -15h-91q-15 0 -15 15v182h-126q-15 0 -15 15v72q0 15 15 15h126v178h-126q-15 0 -15 15v73q0 15 15 15h126v170q0 15 15 15z" />
    <glyph glyph-name="bullet" unicode="&#x2022;" horiz-adv-x="560" 
d="M281 437q77 0 120.5 -39t43.5 -108q0 -70 -43.5 -109t-120.5 -39q-79 0 -122.5 39t-43.5 109q0 69 43.5 108t122.5 39z" />
    <glyph glyph-name="ellipsis.001" unicode="&#x2026;" horiz-adv-x="668" 
d="M117 133q72 0 72 -69t-72 -69q-35 0 -54 18t-19 51t19 51t54 18zM333 133q72 0 72 -69t-72 -69q-35 0 -54 18t-19 51t19 51t54 18zM552 133q72 0 72 -69t-72 -69q-35 0 -54 18t-19 51t19 51t54 18z" />
    <glyph glyph-name="perthousand.001" unicode="&#x2030;" horiz-adv-x="1357" 
d="M213 770q109 0 146 -43q38 -43 38 -161q0 -119 -38 -163q-37 -42 -146 -42q-108 0 -145 43q-38 44 -38 162t38 161q37 43 145 43zM639 765h49q15 0 6 -15l-386 -735q-8 -15 -23 -15h-49q-14 0 -7 15l386 735q9 15 24 15zM133 566q0 -66 17 -90.5t63 -24.5t63.5 24.5
t17.5 90.5q0 65 -17.5 89.5t-63.5 24.5t-63 -24.5t-17 -89.5zM710 404q109 0 146 -43q38 -43 38 -162q0 -118 -38 -162q-38 -42 -146 -42t-145 42q-38 44 -38 162t38 162q37 43 145 43zM1000 361q37 43 145 43t145 -43q38 -44 38 -162t-38 -162q-38 -42 -145 -42t-146 42
q-38 44 -38 162q0 119 39 162zM710 85q47 0 64 24t17 90t-17.5 90.5t-63.5 24.5t-63 -24.5t-17 -90.5t17 -90t63 -24zM1145 85q46 0 63 24t17 90t-17 90.5t-63 24.5t-63.5 -24.5t-17.5 -90.5t17 -90t64 -24z" />
    <glyph glyph-name="guilsinglleft" unicode="&#x2039;" horiz-adv-x="326" 
d="M172 473h90q15 0 15 -15v-7q0 -11 -7 -18l-126 -158l126 -157q7 -7 7 -18v-7q0 -15 -15 -15h-90q-10 0 -18 9l-110 143q-8 14 -8 22v46q0 11 8 22l110 144q8 9 18 9z" />
    <glyph glyph-name="guilsinglright" unicode="&#x203a;" horiz-adv-x="325" 
d="M64 473h90q10 0 18 -9l110 -144q7 -10 7 -22v-46q0 -12 -7 -22l-110 -143q-8 -9 -18 -9h-90q-15 0 -15 15v7q0 11 7 18l126 157l-126 158q-7 7 -7 18v7q0 15 15 15z" />
    <glyph glyph-name="fraction.001" unicode="&#x2044;" horiz-adv-x="140" 
d="M238 801h35q13 0 7 -17l-353 -805q-9 -17 -22 -17h-37q-16 0 -7 17l354 805q8 17 23 17z" />
    <glyph glyph-name="uni2070" unicode="&#x2070;" horiz-adv-x="386" 
d="M68 878q32 44 125 44q92 0 124 -44t32 -164t-32 -164q-31 -43 -124 -43q-94 0 -125 43t-31 164t31 164zM253 823q-15 29 -60 29q-44 0 -61 -29q-15 -29 -15 -109t15 -109q16 -28 61 -28t60 28q16 28 16 109t-16 109z" />
    <glyph glyph-name="uni2074" unicode="&#x2074;" horiz-adv-x="382" 
d="M107 919h64q9 0 5 -9l-64 -230h100v93q0 7 6 10l64 22q10 3 10 -6v-119h60q8 0 8 -8v-54q0 -8 -8 -8h-60v-92q0 -8 -8 -8h-65q-7 0 -7 8v92h-179q-8 0 -8 8v37q0 7 4 18l68 241q3 5 10 5z" />
    <glyph glyph-name="uni2075" unicode="&#x2075;" horiz-adv-x="354" 
d="M61 919h240q8 0 8 -8v-54q0 -8 -8 -8h-178l-6 -90q19 4 57 4q76 0 111 -24t35 -85v-38q0 -61 -36.5 -85t-122.5 -24q-66 0 -112 8q-9 1 -9 11v44q0 7 8 7h107q48 0 66 10t18 39v16q0 30 -18.5 40.5t-65.5 10.5h-102q-13 0 -13 10v48l12 160q2 8 9 8z" />
    <glyph glyph-name="uni2076" unicode="&#x2076;" horiz-adv-x="355" 
d="M154 919h69q9 0 5 -10l-77 -156q22 5 46 5q132 0 132 -98v-53q0 -54 -36 -77t-112 -23q-75 0 -112.5 24t-38.5 80v45q0 28 11 52l103 206q3 5 10 5zM181 693q-40 0 -55.5 -10t-15.5 -39v-17q0 -29 15.5 -39.5t55.5 -10.5q39 0 53.5 10.5t14.5 39.5v17q0 29 -14.5 39
t-53.5 10z" />
    <glyph glyph-name="uni2077" unicode="&#x2077;" horiz-adv-x="340" 
d="M31 919h281q8 0 8 -8v-41q0 -7 -4 -12l-179 -343q-2 -5 -9 -5h-75q-11 0 -6 9l174 330h-190q-9 0 -9 7v55q0 8 9 8z" />
    <glyph glyph-name="uni2078" unicode="&#x2078;" horiz-adv-x="377" 
d="M185 922h9q138 0 138 -112q0 -68 -55 -99q66 -23 66 -93q0 -111 -150 -111h-10q-150 0 -150 110q0 71 69 103q-55 24 -55 91q0 111 138 111zM192 852h-7q-57 0 -57 -50q0 -20 10 -31t33 -17l48 -10q32 17 32 56q0 52 -59 52zM219 675l-59 14q-45 -17 -45 -58
q0 -54 70 -54h6q71 0 71 48q0 40 -43 50z" />
    <glyph glyph-name="uni2079" unicode="&#x2079;" horiz-adv-x="354" 
d="M174 921q75 0 112.5 -24t38.5 -80v-45q0 -29 -11 -51l-104 -206q-2 -5 -9 -5h-69q-10 0 -6 9l79 157q-20 -5 -47 -5q-132 0 -132 98v52q0 55 35.5 77.5t112.5 22.5zM174 851q-39 0 -53.5 -10t-14.5 -39v-18q0 -29 14.5 -39t53.5 -10q40 0 55 10t15 39v18q0 29 -15 39
t-55 10z" />
    <glyph glyph-name="uni207D" unicode="&#x207d;" horiz-adv-x="212" 
d="M132 946h58q4 0 4 -3v-5q0 -5 -1 -6q-60 -79 -72 -119q-12 -39 -12 -125q0 -79 13 -117q13 -36 71 -127q1 -1 1 -6v-5q0 -3 -4 -3h-58q-5 0 -8 3q-36 43 -52.5 70t-24.5 58q-7 33 -9 53q-1 14 -1 74q0 94 8 126q13 54 79 129q3 3 8 3z" />
    <glyph glyph-name="uni207E" unicode="&#x207e;" horiz-adv-x="212" 
d="M22 946h58q5 0 8 -3q36 -43 52.5 -70t24.5 -58q7 -33 9 -54q1 -13 1 -73q0 -94 -8 -126q-13 -54 -79 -129q-3 -3 -8 -3h-58q-4 0 -4 3v5q0 5 1 6q60 79 72 119q12 39 12 125q0 77 -14 117t-70 127q-1 1 -1 6v5q0 3 4 3z" />
    <glyph glyph-name="lira" unicode="&#x20a4;" horiz-adv-x="634" 
d="M437 767q48 0 123 -9q19 -4 19 -18v-74q0 -11 -15 -11h-129q-108 0 -143 -25q-36 -24 -36 -94v-99h233q16 0 16 -15v-35q0 -15 -16 -15h-233v-69h233q16 0 16 -15v-35q0 -15 -16 -15h-233v-126h329q15 0 15 -15v-82q0 -15 -15 -15h-544q-16 0 -13 15l15 82q1 15 17 15h68
v126h-56q-15 0 -15 15v35q0 15 15 15h56v69h-56q-15 0 -15 15v35q0 15 15 15h56v118q0 124 68 168t241 44z" />
    <glyph glyph-name="Euro" unicode="&#x20ac;" horiz-adv-x="659" 
d="M586 658h-133q-96 0 -134 -38q-39 -39 -46 -138h255q16 0 12 -15l-10 -36q-3 -15 -19 -15h-241v-33v-24h226q14 0 11 -15l-9 -36q-4 -15 -20 -15h-206q7 -105 46 -147q38 -39 135 -39h142q15 0 15 -15v-63q0 -19 -19 -22q-73 -12 -138 -12q-167 0 -234 64q-67 65 -77 234
h-107q-15 0 -11 15l9 36q3 15 20 15h87v24v33h-72q-15 0 -12 15l10 36q4 15 19 15h58q10 164 77 226q68 62 233 62q85 0 149 -12q24 -4 18 -24l-18 -60q-4 -16 -16 -16z" />
    <glyph glyph-name="uni20B9" unicode="&#x20b9;" horiz-adv-x="691" 
d="M64 764h582q15 0 15 -15v-34q0 -15 -15 -15h-176q37 -43 43 -134h134q15 0 15 -15v-35q0 -15 -15 -15h-133q-1 -105 -38 -152q-34 -45 -120 -59l169 -270q6 -8 2.5 -14t-14.5 -6h-93q-25 0 -40 22l-165 259h-151q-15 0 -15 15v73q0 15 15 15h142q106 0 141 20t38 97h-321
q-15 0 -15 15v35q0 15 15 15h318q-8 58 -45 74q-37 18 -131 18h-142q-15 0 -15 15v76q0 15 15 15z" />
    <glyph glyph-name="uni20BD" unicode="&#x20bd;" horiz-adv-x="712" 
d="M384 300h-125v-66h174q15 0 15 -15v-54q0 -15 -15 -15h-174v-135q0 -9 -3 -12t-12 -3h-99q-9 0 -12 3t-3 12v135h-77q-15 0 -15 15v54q0 15 15 15h77v84h-77q-15 0 -15 15v55q0 15 15 15h77v345q0 8 3 10.5t12 3.5q114 8 239 8q135 0 199 -25q54 -20 76 -69.5t22 -142.5
q0 -78 -15 -123.5t-50 -71.5q-21 -15 -57 -24q-61 -14 -175 -14zM259 658v-255h113q87 0 123 9q33 11 43 34.5t13 83.5q0 48 -7.5 72t-30.5 36q-23 14 -52 17t-89 3h-113z" />
    <glyph glyph-name="uni2113" unicode="&#x2113;" horiz-adv-x="417" 
d="M212 770q71 0 111 -20q50 -23 50 -98v-322q0 -75 -48 -99q-40 -20 -110 -20h-54v-73q0 -29 13.5 -41.5t43.5 -13.5h101q15 0 15 -15v-50q0 -14 -14 -16q-52 -7 -105 -7q-77 0 -114.5 26t-37.5 92v539q0 66 37.5 92t111.5 26zM218 683q-32 0 -44.5 -11t-12.5 -41v-332h56
q33 2 45.5 13.5t12.5 40.5v278q0 29 -13 40.5t-44 11.5z" />
    <glyph glyph-name="uni2116" unicode="&#x2116;" horiz-adv-x="1100" 
d="M927 770q137 0 137 -132t-137 -132q-138 0 -138 132t138 132zM595 765h98q15 0 15 -15v-734q0 -16 -15 -16h-77q-27 0 -42 22l-362 539v-545q0 -16 -15 -16h-99q-15 0 -15 16v734q0 15 15 15h83q26 -1 36.5 -6.5t23.5 -24.5l339 -503v519q0 15 15 15zM927 703
q-66 0 -66 -65t66 -65q65 0 65 65t-65 65zM804 446h245q15 0 15 -15v-32q0 -15 -15 -15h-245q-15 0 -15 15v32q0 15 15 15z" />
    <glyph glyph-name="uni2117" unicode="&#x2117;" horiz-adv-x="854" 
d="M715 85q-91 -93 -288 -93t-288 93q-92 94 -92 290t92 290q91 93 288 93t288 -93q92 -94 92 -290t-92 -290zM105 375q0 -167 78 -246t244 -79t244 79t78 246t-78 246t-244 79t-244 -78.5t-78 -246.5zM448 565q81 0 113 -28.5t32 -102.5q0 -73 -31 -98t-114 -25h-63v-131
q0 -5 -1.5 -6.5t-6.5 -1.5h-71q-5 0 -6.5 1.5t-1.5 6.5v371q0 8 7 8q72 6 143 6zM438 488h-53v-110h53q40 0 53 10.5t13 43.5t-13 44.5t-53 11.5z" />
    <glyph glyph-name="uni2120" unicode="&#x2120;" horiz-adv-x="1021" 
d="M232 767q64 0 123 -10q8 -3 8 -9v-52q0 -7 -8 -7h-143q-59 0 -59 -41v-9q0 -32 37 -48l115 -45q45 -18 63 -43t18 -73v-19q0 -61 -42.5 -87t-129.5 -26q-79 0 -150 11q-8 2 -8 10v50q0 8 9 8h175q55 0 55 37v9q0 37 -45 53l-124 46q-64 23 -64 118v14q0 63 41 88t129 25z
M846 765h72q7 0 7 -10l43 -444q1 -10 -10 -10h-71q-9 0 -10 10l-27 292l-109 -278q-3 -8 -12 -8h-58q-8 0 -13 8l-110 279l-26 -293q-1 -10 -10 -10h-71q-10 0 -10 10l43 443q1 10 8 10h71q14 0 20 -4.5t12 -19.5l114 -298l115 299q5 14 11.5 19t20.5 5z" />
    <glyph glyph-name="trademark.001" unicode="&#x2122;" horiz-adv-x="994" 
d="M36 765h344q10 0 10 -11v-58q0 -10 -10 -10h-127v-375q0 -10 -10 -10h-71q-9 0 -9 10v375h-127q-10 0 -10 10v58q0 11 10 11zM818 765h71q8 0 8 -11l43 -442q0 -11 -10 -11h-71q-8 0 -10 11l-26 291l-110 -278q-3 -8 -13 -8h-58q-9 0 -12 8l-110 279l-26 -292
q0 -11 -10 -11h-70q-11 0 -11 11l42 443q1 10 8 10h72q14 0 20.5 -5t11.5 -19l114 -299l115 299q5 14 11.5 19t20.5 5z" />
    <glyph glyph-name="Omega" unicode="&#x2126;" horiz-adv-x="866" 
d="M816 404q0 -114 -50 -194t-145 -107h165q15 0 15 -15v-73q0 -15 -15 -15h-275q-15 0 -15 15v114q0 14 13 17q78 13 131 79q54 65 54 167q0 139 -63.5 203.5t-197.5 64.5t-197 -65t-63 -203q0 -102 53 -167q52 -64 131 -79q14 -3 14 -17v-114q0 -15 -15 -15h-276
q-15 0 -15 15v73q0 15 15 15h166q-95 27 -145.5 107t-50.5 194q0 188 93.5 276.5t289.5 88.5t289.5 -88.5t93.5 -276.5z" />
    <glyph glyph-name="estimated" unicode="&#x212e;" horiz-adv-x="622" 
d="M318 575q125 0 198 -85q75 -84 75 -206h-429v-193q66 -63 152 -63q72 0 120 31t90 96l31 -19q-47 -72 -102.5 -106.5t-138.5 -34.5q-118 0 -195 84q-76 85 -76 206q0 123 75 206q75 84 200 84zM318 542q-96 0 -156 -62v-163h309v163q-68 62 -153 62z" />
    <glyph glyph-name="oneeighth" unicode="&#x215b;" horiz-adv-x="862" 
d="M578 801h35q13 0 7 -17l-353 -805q-9 -17 -22 -17h-37q-16 0 -7 17l354 805q8 17 23 17zM262 417v-54q0 -7 -9 -7h-209q-8 0 -8 8v53q0 9 8 9h68v246q0 17 -9 23t-29 6h-34q-9 0 -9 9v42q0 7 8 10q27 6 54 6q48 0 72 -16t24 -58v-268h64q9 0 9 -9zM769 202q66 -26 66 -93
q0 -112 -150 -112h-10q-150 0 -150 111q0 70 69 102q-55 24 -55 91q0 57 33.5 84t104.5 27h9q71 0 104.5 -27t33.5 -85q0 -67 -55 -98zM684 342h-7q-57 0 -57 -50q0 -35 43 -47l48 -11q32 18 32 57q0 51 -59 51zM677 67h6q71 0 71 49q0 39 -44 50l-58 14q-45 -16 -45 -58
q0 -55 70 -55z" />
    <glyph glyph-name="threeeighths" unicode="&#x215c;" horiz-adv-x="901" 
d="M603 801h35q13 0 7 -17l-353 -805q-8 -17 -22 -17h-37q-15 0 -7 17l354 805q8 17 23 17zM308 665v-23q0 -67 -62 -81q62 -11 62 -81v-24q0 -58 -35 -80.5t-110 -22.5q-70 0 -118 9q-10 1 -10 12v42q0 7 8 7h96q53 0 71 9t18 37v12q1 25 -18 36.5t-60 11.5h-82q-8 0 -8 7
v48q0 7 8 7h82q43 0 60.5 11t17.5 38v12q0 27 -19 36.5t-70 9.5h-96q-8 0 -8 7v43q0 10 10 11q48 9 118 9q74 0 109.5 -23t35.5 -80zM715 412h9q71 0 105 -27t34 -85q0 -67 -55 -98q66 -26 66 -93q0 -112 -151 -112h-10q-150 0 -150 111q0 70 69 102q-55 24 -55 91
q0 111 138 111zM723 342h-7q-57 0 -57 -50q0 -35 42 -47l49 -11q31 18 31 57q0 51 -58 51zM749 166l-59 14q-45 -16 -45 -58q0 -55 70 -55h7q70 0 70 49q0 40 -43 50z" />
    <glyph glyph-name="fiveeighths" unicode="&#x215d;" horiz-adv-x="893" 
d="M612 801h34q14 0 8 -17l-353 -805q-9 -17 -22 -17h-37q-16 0 -7 17l354 805q8 17 23 17zM60 765h240q8 0 8 -8v-54q0 -8 -8 -8h-178l-6 -90q19 4 57 4q76 0 111 -24t35 -85v-38q0 -61 -36.5 -85t-122.5 -24q-66 0 -112 8q-9 1 -9 11v44q0 7 7 7h108q47 0 65.5 10t18.5 39
v16q0 30 -18.5 40.5t-65.5 10.5h-102q-13 0 -13 10v48l12 160q2 8 9 8zM708 412h9q71 0 104.5 -27t33.5 -85q0 -67 -55 -98q66 -26 66 -93q0 -112 -150 -112h-10q-150 0 -150 111q0 70 69 102q-55 24 -55 91q0 57 33.5 84t104.5 27zM715 342h-7q-57 0 -57 -50q0 -35 43 -47
l48 -11q32 18 32 57q0 51 -59 51zM742 166l-59 14q-45 -16 -45 -58q0 -55 70 -55h6q71 0 71 49q0 40 -43 50z" />
    <glyph glyph-name="seveneighths" unicode="&#x215e;" horiz-adv-x="839" 
d="M534 801h35q13 0 7 -17l-352 -805q-8 -17 -23 -17h-37q-16 0 -7 17l354 805q8 17 23 17zM35 765h281q8 0 8 -8v-41q0 -7 -4 -12l-179 -343q-3 -5 -9 -5h-75q-11 0 -6 9l174 330h-190q-9 0 -9 7v55q0 8 9 8zM652 412h9q71 0 104.5 -27t33.5 -85q0 -67 -55 -98
q66 -26 66 -93q0 -112 -150 -112h-10q-150 0 -150 111q0 70 69 102q-56 24 -56 91q0 111 139 111zM659 342h-7q-57 0 -57 -50q0 -35 43 -47l48 -11q31 18 31 57q0 51 -58 51zM685 166l-59 14q-45 -18 -45 -58q0 -55 70 -55h7q71 0 71 49q0 39 -44 50z" />
    <glyph glyph-name="arrowleft" unicode="&#x2190;" horiz-adv-x="919" 
d="M403 499h26q10 0 10 -10v-154h389q15 0 15 -15v-67q0 -15 -15 -15h-389v-154q0 -10 -10 -10h-26q-6 0 -19 5l-307 176q-10 6 -10 19v24q0 15 10 19l308 176q12 6 18 6z" />
    <glyph glyph-name="arrowup" unicode="&#x2191;" horiz-adv-x="553" 
d="M265 674h24q15 0 19 -9l176 -307q5 -13 5 -19v-27q0 -10 -9 -10h-155v-388q0 -16 -15 -16h-67q-15 0 -15 16v388h-154q-10 0 -10 10v27l6 18l176 308q4 9 19 9z" />
    <glyph glyph-name="arrowright" unicode="&#x2192;" horiz-adv-x="919" 
d="M490 499h27q6 0 18 -6l308 -176q9 -5 9 -19v-24q0 -13 -9 -19l-307 -176q-13 -5 -19 -5h-27q-10 0 -10 10v154h-388q-16 0 -16 15v67q0 15 16 15h388v154q0 10 10 10z" />
    <glyph glyph-name="arrowdown" unicode="&#x2193;" horiz-adv-x="553" 
d="M243 674h67q15 0 15 -15v-389h155q9 0 9 -10v-26q0 -1 -5 -18l-176 -308q-7 -10 -20 -10h-23q-15 0 -19 10l-176 307q-6 13 -6 19v26q0 10 10 10h154v389q0 15 15 15z" />
    <glyph glyph-name="arrowboth" unicode="&#x2194;" horiz-adv-x="1168" 
d="M738 499h27q6 0 18 -6l308 -175q10 -7 10 -20v-24q-2 -14 -10 -19l-307 -176q-13 -5 -19 -5h-27q-10 0 -10 10v154h-288v-154q0 -10 -10 -10h-27q-6 0 -18 5l-308 176q-8 5 -10 19v24q0 13 10 20l309 175q10 6 17 6h27q8 0 10 -9v-155h288v155q2 9 10 9z" />
    <glyph glyph-name="arrowupdn" unicode="&#x2195;" horiz-adv-x="564" 
d="M270 803h24q15 0 19 -10l176 -307q5 -12 5 -18v-27q0 -10 -9 -10h-155v-289h155q9 0 9 -10v-26q0 -6 -5 -19l-176 -307q-4 -10 -19 -10l-24 -1q-14 0 -19 11l-176 308q-6 12 -6 18v26q0 10 10 10h154v289h-154q-10 0 -10 10v27q0 2 6 17l176 308q4 10 19 10z" />
    <glyph glyph-name="uni2196" unicode="&#x2196;" horiz-adv-x="723" 
d="M113 582l342 -93q11 -3 17 -9l19 -19q6 -6 0 -14l-110 -109l275 -275q12 -11 0 -21l-47 -47q-11 -11 -21 0l-275 275l-109 -110q-7 -4 -14 0l-19 19q-3 3 -8 17l-94 342q-3 11 7 21l17 17q8 9 20 6z" />
    <glyph glyph-name="uni2197" unicode="&#x2197;" horiz-adv-x="723" 
d="M268 488l342 95q10 3 21 -8l16 -16q10 -10 7 -21l-93 -341q-3 -11 -9 -17l-19 -19q-7 -7 -14 -1l-109 110l-274 -275q-12 -10 -22 0l-48 47q-10 10 1 22l274 275l-109 109q-6 6 0 13l19 19q3 4 17 8z" />
    <glyph glyph-name="uni2198" unicode="&#x2198;" horiz-adv-x="722" 
d="M135 578l275 -275l109 110q7 7 14 -1l19 -19q4 -4 8 -16l94 -343q3 -10 -7 -20l-17 -17q-10 -10 -20 -7l-342 93q-14 6 -17 9l-19 20q-6 8 0 14l109 108l-275 275q-10 12 0 22l47 47q12 10 22 0z" />
    <glyph glyph-name="uni2199" unicode="&#x2199;" horiz-adv-x="723" 
d="M610 578l47 -48q10 -10 -1 -21l-274 -275l109 -109q6 -6 0 -14l-19 -19q-4 -4 -17 -8l-342 -94q-10 -3 -20 7l-17 17q-11 11 -7 20l93 342l9 17l19 18q7 7 14 1l110 -109l274 275q11 11 22 0z" />
    <glyph glyph-name="partialdiff" unicode="&#x2202;" horiz-adv-x="644" 
d="M374 765h107q12 0 15 -10l105 -387q10 -46 -6 -113l-8 -46q-27 -114 -105.5 -164t-221.5 -50q-141 0 -194.5 50t-26.5 164l8 46q27 110 101.5 160t207.5 50q47 0 80 -9l-77 291q-5 18 15 18zM346 357q-80 0 -119 -28t-55 -95l-1 -4q-16 -68 9 -95.5t105 -27.5
q81 0 121 28t56 95l1 4q17 67 -9.5 95t-107.5 28z" />
    <glyph glyph-name="Delta" unicode="&#x2206;" horiz-adv-x="696" 
d="M296 706h106q14 0 18 -12l251 -648q3 -9 3 -14v-24q0 -8 -10 -8h-634q-9 0 -9 8v24q0 6 3 13l254 649q6 12 18 12zM520 115l-172 448l-164 -448h336z" />
    <glyph glyph-name="product.001" unicode="&#x220f;" horiz-adv-x="685" 
d="M23 802h639q15 0 15 -15v-79q0 -15 -15 -15h-84v-741q0 -15 -15 -15h-87q-15 0 -15 15v741h-236v-741q0 -15 -15 -15h-88q-15 0 -15 15v741h-84q-15 0 -15 15v79q0 15 15 15z" />
    <glyph glyph-name="summation.001" unicode="&#x2211;" horiz-adv-x="589" 
d="M33 802h486q15 0 15 -15v-85q0 -15 -15 -15h-338l196 -301q5 -8 5 -17v-7q0 -10 -5 -18l-199 -298h376q15 0 15 -15v-85q0 -15 -15 -15h-524q-15 0 -15 15v56q0 9 6 18l212 323q6 9 6 18v4q0 10 -5 18l-210 328q-6 11 -6 19v57q0 15 15 15z" />
    <glyph glyph-name="minus" unicode="&#x2212;" horiz-adv-x="528" 
d="M78 365h372q15 0 15 -15v-83q0 -15 -15 -15h-372q-15 0 -15 15v83q0 15 15 15z" />
    <glyph glyph-name="radical" unicode="&#x221a;" horiz-adv-x="604" 
d="M482 809h94q18 0 13 -17l-206 -878q-3 -13 -16 -13h-109q-12 0 -17 12l-135 392l-56 -24q-14 -5 -20 9l-26 74q-6 14 9 20l163 62q14 6 19 -9l110 -327l161 686q3 13 16 13z" />
    <glyph glyph-name="infinity.001" unicode="&#x221e;" horiz-adv-x="855" 
d="M627 483q95 0 138 -42t43 -135q0 -95 -42.5 -137t-138.5 -42q-84 0 -160 73l-39 37l-38 -36q-80 -74 -162 -74q-96 0 -138.5 42t-42.5 137q0 93 43 135t138 42q78 0 155 -69l45 -42l45 43q71 66 154 68zM232 383q-43 0 -63 -18.5t-21 -59.5q1 -41 21 -59.5t63 -18.5
q44 0 96 47l35 31l-36 33q-51 45 -95 45zM623 383q-48 0 -91 -41l-40 -37l40 -37q44 -41 91 -41q83 0 83 78t-83 78z" />
    <glyph glyph-name="integral.001" unicode="&#x222b;" horiz-adv-x="414" 
d="M289 804q43 0 98 -9q14 -3 14 -18v-63q0 -15 -16 -15h-66q-41 0 -56 -9t-15 -38q0 -102 19 -292q20 -198 20 -292q0 -85 -55 -109q-42 -19 -107 -19q-51 0 -98 9q-14 3 -14 18v63q0 15 16 15h66q41 0 56 9t15 37q0 94 -20 292q-19 190 -19 293q0 84 54 109q43 19 108 19z
" />
    <glyph glyph-name="approxequal.001" unicode="&#x2248;" horiz-adv-x="632" 
d="M201 579q42 2 116 -42.5t100 -42.5q55 0 80 49q7 11 19 4l54 -34q8 -6 4 -19q-17 -51 -58.5 -81.5t-95.5 -30.5q-34 -2 -75.5 20t-79 44t-61.5 21q-55 0 -80 -48q-6 -13 -18 -6l-54 35q-11 6 -5 19q17 51 58.5 81.5t95.5 30.5zM213 363q42 2 116 -42.5t100 -42.5
q55 0 80 49q7 13 20 4l53 -34q9 -6 5 -18q-18 -51 -59.5 -81.5t-95.5 -30.5q-34 -1 -75.5 21t-79 44t-61.5 20q-54 0 -79 -49q-7 -13 -19 -5l-54 35q-9 6 -5 18q17 51 58.5 81.5t95.5 30.5z" />
    <glyph glyph-name="notequal.001" unicode="&#x2260;" horiz-adv-x="655" 
d="M456 625h43q15 0 7 -17l-49 -112h120q15 0 15 -15v-82q0 -15 -15 -15h-169l-60 -138h229q15 0 15 -15v-82q0 -15 -15 -15h-278l-45 -103q-8 -17 -22 -17h-45q-15 0 -7 17l45 103h-147q-15 0 -15 15v82q0 15 15 15h196l61 138h-257q-15 0 -15 15v82q0 15 15 15h306l49 112
q8 17 23 17z" />
    <glyph glyph-name="lessequal" unicode="&#x2264;" horiz-adv-x="586" 
d="M497 638h11q9 0 9 -8v-82q0 -13 -13 -16l-287 -93l287 -94q13 -3 13 -16v-82q0 -8 -9 -8h-11q-6 0 -10 2l-418 143q-12 4 -12 17v76q0 13 12 17l418 142q4 2 10 2zM72 185h428q15 0 15 -15v-68q0 -15 -15 -15h-428q-15 0 -15 15v68q0 15 15 15z" />
    <glyph glyph-name="greaterequal" unicode="&#x2265;" horiz-adv-x="586" 
d="M77 638h12q4 0 10 -2l417 -142q13 -4 13 -17v-76q0 -13 -12 -17l-418 -143q-6 -2 -10 -2h-12q-8 0 -8 8v82q0 13 12 16l287 94l-287 93q-12 3 -12 16v82q0 8 8 8zM85 185h429q15 0 15 -15v-68q0 -15 -15 -15h-429q-15 0 -15 15v68q0 15 15 15z" />
    <glyph glyph-name="uni2460" unicode="&#x2460;" horiz-adv-x="800" 
d="M34 383q0 179 93.5 272.5t272.5 93.5q180 0 273 -92.5t93 -273.5q0 -178 -93.5 -271.5t-272.5 -93.5t-272.5 93.5t-93.5 271.5zM400 69q314 0 314 314q0 315 -314 315q-315 0 -315 -315q0 -314 315 -314zM457 515v-268h64q9 0 9 -9v-54q0 -7 -9 -7h-209q-8 0 -8 8v53
q0 9 8 9h67v246q0 17 -8.5 23t-28.5 6h-35q-8 0 -8 9v42q0 7 8 10q27 6 54 6q44 2 68.5 -13.5t27.5 -60.5z" />
    <glyph glyph-name="uni2461" unicode="&#x2461;" horiz-adv-x="800" 
d="M34 383q0 179 93.5 272.5t272.5 93.5q180 0 273 -93t93 -273q0 -178 -93.5 -271.5t-272.5 -93.5t-272.5 93.5t-93.5 271.5zM400 69q314 0 314 314q0 315 -314 315q-315 0 -315 -315q0 -314 315 -314zM390 589q75 0 111.5 -21t36.5 -75v-47q0 -35 -10.5 -55.5t-42.5 -42.5
l-97 -58q-38 -23 -38 -37v-6h189q5 0 5 -4v-62q0 -4 -4 -4h-270q-14 0 -14 15v46q0 33 14 52.5t53 44.5l107 70q28 16 28 54v14q0 26 -16 36t-55 10h-106q-7 0 -7 7v43q0 9 10 12q51 8 106 8z" />
    <glyph glyph-name="uni2462" unicode="&#x2462;" horiz-adv-x="800" 
d="M34 383q0 179 93.5 272.5t272.5 93.5t272.5 -94t93.5 -272t-93.5 -271.5t-272.5 -93.5t-272.5 93.5t-93.5 271.5zM400 69q314 0 314 314q0 315 -314 315q-315 0 -315 -315q0 -314 315 -314zM391 589q75 0 110.5 -22.5t35.5 -80.5v-23q0 -67 -63 -81q63 -12 63 -81v-24
q0 -58 -35.5 -80.5t-110.5 -22.5q-69 0 -117 9q-10 1 -10 12v42q0 7 7 7h96q53 0 71 9t18 37v12q1 25 -18 36.5t-60 11.5h-82q-7 0 -7 7v48q0 7 7 7h82q43 0 60.5 11t17.5 38v12q0 27 -19 36.5t-70 9.5h-96q-7 0 -7 7v43q0 10 10 11q48 9 117 9z" />
    <glyph glyph-name="uni2463" unicode="&#x2463;" horiz-adv-x="800" 
d="M34 383q0 179 93.5 272.5t272.5 93.5t272.5 -94t93.5 -272t-93.5 -271.5t-272.5 -93.5t-272.5 93.5t-93.5 271.5zM400 69q314 0 314 314q0 315 -314 315q-315 0 -315 -315q0 -314 315 -314zM314 586h64q9 0 6 -9l-65 -230h100v93q0 7 6 10l65 22q9 3 9 -6v-119h60
q9 0 9 -8v-54q0 -8 -9 -8h-60v-92q0 -8 -8 -8h-64q-8 0 -8 8v92h-179q-7 0 -7 8v37q0 11 4 18l68 241q2 5 9 5z" />
    <glyph glyph-name="uni2464" unicode="&#x2464;" horiz-adv-x="800" 
d="M34 383q0 179 93.5 272.5t272.5 93.5t272.5 -94t93.5 -272t-93.5 -271.5t-272.5 -93.5t-272.5 93.5t-93.5 271.5zM400 69q314 0 314 314q0 315 -314 315q-315 0 -315 -315q0 -314 315 -314zM281 586h240q8 0 8 -8v-54q0 -8 -8 -8h-178l-6 -90q19 4 57 4q76 0 111 -24
t35 -85v-38q0 -61 -36.5 -85t-122.5 -24q-66 0 -112 8q-9 2 -9 11v44q0 7 7 7h108q47 0 65.5 10t18.5 39v16q0 30 -18.5 40.5t-65.5 10.5h-102q-13 0 -13 10v48l12 160q2 8 9 8z" />
    <glyph glyph-name="uni2465" unicode="&#x2465;" horiz-adv-x="800" 
d="M34 383q0 179 93.5 272.5t272.5 93.5t272.5 -94t93.5 -272t-93.5 -271.5t-272.5 -93.5t-272.5 93.5t-93.5 271.5zM400 69q314 0 314 314q0 315 -314 315q-315 0 -315 -315q0 -314 315 -314zM374 586h69q10 0 6 -10l-78 -156q25 5 47 5q132 0 132 -98v-53q0 -55 -36 -77.5
t-113 -22.5q-75 0 -112 24t-38 80v45q0 31 10 52l104 206q3 5 9 5zM401 360q-40 0 -55 -10t-15 -39v-17q0 -29 15 -39.5t55 -10.5q39 0 53.5 10.5t14.5 39.5v17q0 29 -14.5 39t-53.5 10z" />
    <glyph glyph-name="uni2466" unicode="&#x2466;" horiz-adv-x="800" 
d="M34 383q0 179 93.5 272.5t272.5 93.5t272.5 -94t93.5 -272t-93.5 -271.5t-272.5 -93.5t-272.5 93.5t-93.5 271.5zM400 69q314 0 314 314q0 315 -314 315q-315 0 -315 -315q0 -314 315 -314zM260 586h281q8 0 8 -8v-41q0 -8 -4 -12l-179 -343q-2 -5 -9 -5h-75q-10 0 -6 9
l174 330h-190q-9 0 -9 7v55q0 8 9 8z" />
    <glyph glyph-name="uni2467" unicode="&#x2467;" horiz-adv-x="800" 
d="M34 383q0 179 93.5 272.5t272.5 93.5t272.5 -94t93.5 -272t-93.5 -271.5t-272.5 -93.5t-272.5 93.5t-93.5 271.5zM400 69q314 0 314 314q0 315 -314 315q-315 0 -315 -315q0 -314 315 -314zM397 589h9q138 0 138 -112q0 -68 -55 -99q66 -22 66 -93q0 -111 -150 -111h-10
q-150 0 -150 110q0 72 69 103q-55 24 -55 91q0 111 138 111zM403 519h-7q-57 0 -57 -50q0 -36 42 -48l49 -10q31 16 31 56q0 52 -58 52zM430 342l-58 14q-45 -16 -45 -58q0 -54 70 -54h6q71 0 71 48q0 39 -44 50z" />
    <glyph glyph-name="uni2468" unicode="&#x2468;" horiz-adv-x="800" 
d="M34 383q0 179 93.5 272.5t272.5 93.5t272.5 -94t93.5 -272t-93.5 -271.5t-272.5 -93.5t-272.5 93.5t-93.5 271.5zM400 69q314 0 314 314q0 315 -314 315q-315 0 -315 -315q0 -314 315 -314zM398 588q77 0 114 -24t38 -80v-45q-2 -31 -12 -51l-104 -206q-2 -5 -9 -5h-68
q-11 0 -6 9l78 157q-18 -5 -47 -5q-131 0 -131 98v52q0 55 36 77.5t111 22.5zM399 518q-39 0 -53.5 -10t-14.5 -39v-18q0 -29 14.5 -39t53.5 -10q40 0 55 10t15 39v18q0 29 -15 39t-55 10z" />
    <glyph glyph-name="uni24EA" unicode="&#x24ea;" horiz-adv-x="800" 
d="M34 383q0 179 94 272.5t273 93.5q182 0 273 -94q92 -94 92 -272q0 -179 -93 -272t-272 -93t-273 93.5t-94 271.5zM401 69q314 0 314 314q0 315 -314 315q-316 0 -316 -315q0 -314 316 -314zM275 546q32 44 125 44t124 -43q32 -44 32 -165t-32 -165q-31 -43 -124 -43
q-94 0 -125 43t-31 165q0 121 31 164zM460 490q-15 29 -60 29t-60 -28t-15 -109q0 -80 15 -109q15 -28 60 -28t60 28q16 28 16 109q0 80 -16 108z" />
    <glyph glyph-name="uni24FF" unicode="&#x24ff;" horiz-adv-x="800" 
d="M654 109q-86 -86 -254 -86q-167 0 -255 86q-86 86 -86 254t86 254q88 86 255 86q168 0 254 -86t86 -254t-86 -254zM523 527q-31 43 -124 43t-125 -44q-31 -43 -31 -164q0 -122 31 -165t125 -43q93 0 124 43q32 44 32 165t-32 165zM339 471q15 28 60 28t60 -29
q16 -28 16 -108q0 -81 -16 -109q-15 -28 -60 -28t-60 28t-15 109q0 80 15 109z" />
    <glyph glyph-name="lozenge.001" unicode="&#x25ca;" horiz-adv-x="573" 
d="M254 715h65q12 0 18 -10l210 -346q6 -10 -1 -20l-210 -329q-6 -10 -18 -10h-64q-12 0 -18 10l-209 329q-7 10 -1 20l210 346q6 10 18 10zM409 360l-113 188q-10 17 -20 0l-113 -188q-6 -10 0 -20l113 -180q10 -16 20 0l113 180q7 10 0 20z" />
    <glyph glyph-name="uni261E" unicode="&#x261e;" horiz-adv-x="912" 
d="M664 602l154 -3q50 0 67 -14.5t17 -57.5t-17 -58t-67 -15h-52q3 -6 3 -25q0 -27 -15 -42q15 -17 15 -45q0 -27 -15 -42q15 -16 15 -45q0 -30 -13.5 -43t-52.5 -20q-162 -22 -258 -21q-95 2 -215 30v-36q0 -10 -9 -10h-136q-9 0 -9 10q-60 195 0 391q0 2 1 3q2 5 8 5h136
q9 0 9 -9v-22q105 42 187 55q90 14 247 14zM544 496h274q26 0 34.5 6t8.5 25t-8.5 24.5t-36.5 5.5l-152 3q-161 0 -248 -15q-86 -13 -186 -57v-244q109 -29 197 -32q91 -3 258 18q26 4 34 8.5t8 16.5q0 15 -8.5 19.5t-34.5 4.5h-141q-9 0 -9 10v24q0 9 9 9h142q26 0 34 3.5
t8 16.5q0 16 -8.5 20.5t-34.5 4.5h-141q-9 0 -9 9v24q0 9 9 9h142q26 0 34 3.5t8 16.5q0 16 -8.5 20.5t-34.5 4.5h-140q-9 0 -9 9v24q0 9 9 9zM189 198v324h-80q-45 -148 -3 -324h83z" />
    <glyph glyph-name="uni267C" unicode="&#x267c;" horiz-adv-x="800" 
d="M754 380q0 -147 -104 -251q-103 -103 -250 -103t-250 103q-104 104 -104 251q0 146 104 250t250 104t250 -104t104 -250zM405 564l41 -69l-39 -24l129 1l63 112l-42 -25l-28 46q-16 25 -41 31l-8 1l-162 1q-35 -4 -52 -26l-4 -8l-57 -98l114 -65l71 125q10 10 15 -2z
M555 276l-81 -1v46l-64 -112l65 -112v49l54 1q28 0 47 21l5 6l81 140q16 33 4 58l-4 8l-57 97l-113 -64l72 -126q2 -5 -0.5 -8.5t-8.5 -2.5zM230 290l40 71l40 -23l-66 111l-128 -1l42 -24l-26 -47q-15 -27 -6 -51l3 -8l81 -140q24 -32 50 -32h8h113l-1 130h-144
q-14 2 -6 14z" />
    <glyph glyph-name="uni2776" unicode="&#x2776;" horiz-adv-x="800" 
d="M654 109q-86 -86 -254 -86t-254 86t-86 254t86 254t254 86t254 -86t86 -254t-86 -254zM521 227h-64v268q0 42 -24.5 58t-71.5 16q-27 0 -54 -6q-8 -3 -8 -10v-42q0 -9 8 -9h35q20 0 28.5 -6t8.5 -23v-246h-67q-8 0 -8 -9v-53q0 -8 8 -8h209q9 0 9 7v54q0 9 -9 9z" />
    <glyph glyph-name="uni2777" unicode="&#x2777;" horiz-adv-x="800" 
d="M654 109q-86 -86 -254 -86t-254 86t-86 254t86 254t254 86t254 -86t86 -254t-86 -254zM390 569q-55 0 -106 -8q-10 -3 -10 -12v-43q0 -7 7 -7h106q39 0 55 -10t16 -36v-14q0 -38 -28 -54l-107 -70q-39 -25 -53 -44.5t-14 -52.5v-46q0 -15 14 -15h270q4 0 4 4v62q0 4 -5 4
h-189v6q0 14 38 37l97 58q32 22 42.5 42.5t10.5 55.5v47q0 54 -36.5 75t-111.5 21z" />
    <glyph glyph-name="uni2778" unicode="&#x2778;" horiz-adv-x="800" 
d="M654 109q-86 -86 -254 -86t-254 86t-86 254t86 254t254 86t254 -86t86 -254t-86 -254zM391 569q-69 0 -117 -9q-10 -1 -10 -11v-43q0 -7 7 -7h96q51 0 70 -9.5t19 -36.5v-12q0 -27 -17.5 -38t-60.5 -11h-82q-7 0 -7 -7v-48q0 -7 7 -7h82q41 0 60 -11.5t18 -36.5v-12
q0 -28 -18 -37t-71 -9h-96q-7 0 -7 -7v-42q0 -11 10 -12q48 -9 117 -9q75 0 110.5 22.5t35.5 80.5v24q0 69 -63 81q63 14 63 81v23q0 58 -35.5 80.5t-110.5 22.5z" />
    <glyph glyph-name="uni2779" unicode="&#x2779;" horiz-adv-x="800" 
d="M654 109q-86 -86 -254 -86t-254 86t-86 254t86 254t254 86t254 -86t86 -254t-86 -254zM378 566h-64q-7 0 -9 -5l-68 -241q-4 -7 -4 -18v-37q0 -8 7 -8h179v-92q0 -8 8 -8h64q8 0 8 8v92h60q9 0 9 8v54q0 8 -9 8h-60v119q0 9 -9 6l-65 -22q-6 -3 -6 -10v-93h-100l65 230
q3 9 -6 9z" />
    <glyph glyph-name="uni277A" unicode="&#x277a;" horiz-adv-x="800" 
d="M654 109q-86 -86 -254 -86t-254 86t-86 254t86 254t254 86t254 -86t86 -254t-86 -254zM521 566h-240q-7 0 -9 -8l-12 -160v-48q0 -10 13 -10h102q47 0 65.5 -10.5t18.5 -40.5v-16q0 -29 -18.5 -39t-65.5 -10h-108q-7 0 -7 -7v-44q0 -9 9 -11q46 -8 112 -8q86 0 122.5 24
t36.5 85v38q0 61 -35 85t-111 24q-38 0 -57 -4l6 90h178q8 0 8 8v54q0 8 -8 8z" />
    <glyph glyph-name="uni277B" unicode="&#x277b;" horiz-adv-x="800" 
d="M654 109q-86 -86 -254 -86t-254 86t-86 254t86 254t254 86t254 -86t86 -254t-86 -254zM443 566h-69q-6 0 -9 -5l-104 -206q-10 -21 -10 -52v-45q1 -56 38 -80t112 -24q77 0 113 22.5t36 77.5v53q0 98 -132 98q-22 0 -47 -5l78 156q4 10 -6 10zM401 340q39 0 53.5 -10
t14.5 -39v-17q0 -29 -14.5 -39.5t-53.5 -10.5q-40 0 -55 10.5t-15 39.5v17q0 29 15 39t55 10z" />
    <glyph glyph-name="uni277C" unicode="&#x277c;" horiz-adv-x="800" 
d="M654 109q-86 -86 -254 -86t-254 86t-86 254t86 254t254 86t254 -86t86 -254t-86 -254zM541 566h-281q-9 0 -9 -8v-55q0 -7 9 -7h190l-174 -330q-4 -9 6 -9h75q7 0 9 5l179 343q4 4 4 12v41q0 8 -8 8z" />
    <glyph glyph-name="uni277D" unicode="&#x277d;" horiz-adv-x="800" 
d="M654 109q-86 -86 -254 -86t-254 86t-86 254t86 254t254 86t254 -86t86 -254t-86 -254zM406 569h-9q-138 0 -138 -111q0 -67 55 -91q-69 -31 -69 -103q0 -110 150 -110h10q150 0 150 111q0 71 -66 93q55 31 55 99q0 112 -138 112zM396 499h7q58 0 58 -52q0 -40 -31 -56
l-49 10q-42 12 -42 48q0 50 57 50zM372 336l58 -14q44 -11 44 -50q0 -48 -71 -48h-6q-70 0 -70 54q0 42 45 58z" />
    <glyph glyph-name="uni277E" unicode="&#x277e;" horiz-adv-x="800" 
d="M654 109q-86 -86 -254 -86t-254 86t-86 254t86 254t254 86t254 -86t86 -254t-86 -254zM398 568q-75 0 -111 -22.5t-36 -77.5v-52q0 -98 131 -98q29 0 47 5l-78 -157q-5 -9 6 -9h68q7 0 9 5l104 206q10 20 12 51v45q-1 56 -38 80t-114 24zM399 498q40 0 55 -10t15 -39v-18
q0 -29 -15 -39t-55 -10q-39 0 -53.5 10t-14.5 39v18q0 29 14.5 39t53.5 10z" />
    <glyph glyph-name="uniF8FF" unicode="&#xf8ff;" horiz-adv-x="921" 
d="M871 20h-821v700h821v-700zM491 387q12 0 16 7h1l2 -6h8v73h-11v-19q0 -6 1 -9h-1q-5 8 -15 8t-16 -7q-13 -20 0 -40q6 -7 15 -7zM644 449q1 -1 5 -1t5 1q2 5 0 10q-1 1 -5 1t-5 -1q-2 -5 0 -10zM161 388h10l20 57h1q0 -6 -1 -10v-47h11v69h-16l-20 -55l-19 55h-16v-69
h10v33q0 19 -1 25h1zM351 396q-3 0 -5 2t-2 6v28h15v8h-15v12h-7l-4 -11l-8 -4v-5h8v-29q0 -16 15 -16h6q3 0 5 2v8q-1 -1 -8 -1zM261 434q-6 7 -18 7t-19 -7q-6 -7 -6 -20q0 -8 3 -14q3 -7 9 -10q4 -3 13 -3q12 0 18 7q15 20 0 40zM318 403q0 1 -1 3t-1 3l-4 5l-10 4l-10 5
q-2 2 -2 4q0 5 9 5q5 0 14 -3l4 8q-20 9 -33 0q-5 -3 -5 -10q0 -6 3 -9q3 -4 12 -7l8 -4q3 0 3 -2q2 -2 2 -4q0 -6 -11 -6q-6 0 -17 4v-9q6 -3 17 -3t16 4q6 5 6 12zM405 388h7v35q0 9 -5 14q-4 4 -15 4q-7 0 -9 -1t-5.5 -2.5t-4.5 -1.5l4 -8q3 3 7 3q2 1 8 1q5 0 7 -2t2 -8
v-2l-9 -1q-14 0 -18 -4q-6 -5 -6 -12q0 -11 9.5 -15t16.5 0q2 1 8 7zM461 430l1 11h-5q-6 0 -9 -3q-6 -4 -7 -7h-1l-1 9h-9v-52h11v27q0 6 4 11q5 5 11 5q4 0 5 -1zM559 387h10l8 3v9l-9 -3h-3q-3 -1 -5 -1q-8 0 -11 5q-4 3 -4 11h35v6q0 16 -14.5 22.5t-25.5 -5.5
q-7 -7 -7 -21q0 -26 26 -26zM629 403q0 6 -5 11l-10 4l-10 5q-2 2 -2 4q0 5 9 5q5 0 14 -3l4 8q-20 9 -33 0q-5 -3 -5 -10q0 -6 3 -9q3 -4 12 -7l8 -4q3 0 3 -2q1 -1 1 -4q0 -6 -10 -6q-6 0 -17 4v-9q11 -5 26 -1.5t12 14.5zM717 434v6h-18h-1q-1 1 -3 1h-5q-10 0 -15 -5
q-6 -5 -6 -13q0 -6 3 -9q3 -5 7 -6q-1 0 -5 -4q-2 -2 -2 -5l1 -4q1 -3 4 -3q-5 -2 -8 -5t-3 -8q0 -6 5 -11q7 -4 17 -4q13 0 21 5q7 4 7 14q0 7 -4 11q-4 3 -14 3h-9q-3 0 -4 1h-2q-2 2 -2 3q0 4 4 5h5q11 0 15 4q6 4 6 13q0 2 -1 3v2q-1 1 -2 4zM763 388h12v34q0 19 -19 19
q-2 0 -10 -2q-4 -1 -7 -6l-2 7h-9v-52h12v26q0 18 13 18q5 0 8 -3q2 -2 2 -9v-32zM655 388v52h-12v-52h12zM683 431q1 3 7 3t7 -3q3 -3 3 -8q0 -10 -10 -10q-1 0 -7 2q-8 8 0 16zM569 419h-24q0 7 4 10q5 6 12.5 3t7.5 -13zM229 414q0 9 4 13q3 5 10 5q13 0 13 -18t-13 -18
q-14 0 -14 18zM494 396q-6 0 -9 4q-3 5 -3 14t3 13q3 5 9 5q7 0 10 -4q4 -4 4 -14v-2q0 -9 -4 -12q-3 -4 -10 -4zM388 395q-4 0 -6 2t-2 6t3 7q8 2 12 2l6 1v-5q0 -6 -3 -9q-4 -4 -10 -4zM676 379q0 5 2 7q6 2 8 2h8q7 0 9 -2q3 -2 3 -5q0 -4 -5 -6q-5 -3 -13 -3q-3 0 -9 2
q-3 2 -3 5zM664 278h1l2 -7h8v74h-11v-19v-4q1 -3 1 -5q-6 7 -16 7t-16 -7q-13 -20 0 -40q6 -7 16 -7t15 8zM155 271v60h21v9h-52v-9h20v-60h11zM401 271v29h26v9h-26v22h28v9h-39v-69h11zM179 324l21 -53l-2 -5q-3 -9 -11 -9h-6v-8q2 -1 7 -1q15 0 21 16l22 60h-12
q-3 -10 -6 -18.5t-4.5 -12t-1.5 -5.5q-1 -1 -1 -6h-1q0 6 -3 12l-11 30h-12zM268 270q8 0 15 7q6 7 6 20q0 14 -6 20q-4 7 -15 7t-16 -8l-2 8h-9v-76h11v29q6 -7 16 -7zM327 270q7 0 9 1q5 0 8 3v9q-4 -3 -8 -3q-2 -1 -9 -1t-11 4q-4 5 -4 12h35v6q0 23 -22 23
q-16 0 -22.5 -17t4.5 -30q7 -7 20 -7zM482 317q-6 7 -18 7t-18 -7q-7 -6 -7 -20q0 -8 3 -14q4 -6 9 -10q6 -3 13 -3q16 -3 23 16t-5 31zM541 271h8v53h-11v-27q0 -9 -3 -14q-4 -4 -10 -4q-11 0 -11 12v33h-11v-35q0 -19 19 -19q2 0 10 2l7 6zM602 271h11v34q0 19 -18 19
q-6 0 -10 -2t-7 -5l-2 7h-9v-53h11v26q0 9 4 14q3 4 10 4q5 0 8 -3q2 -6 2 -9v-32zM724 314l1 10h-5q-10 0 -16 -10l-2 10h-9v-53h11v27q0 7 5 12q3 4 10 4h5zM729 324l21 -53l-2 -5q-3 -9 -11 -9h-6v-8q2 -1 7 -1q15 0 21 16l22 60h-12q-3 -10 -6 -18.5t-4.5 -12t-1.5 -5.5
q-1 -1 -1 -6h-1q0 6 -3 12l-11 30h-12zM325 316q5 0 8 -3q3 -5 3 -10h-24q1 2 2.5 5.5t1.5 4.5q3 3 9 3zM265 315q6 0 9 -4q3 -5 3 -14t-3 -13q-3 -5 -9 -5q-7 0 -10 5q-3 3 -3 13v2q0 9 3 12q3 4 10 4zM451 297q0 9 3 14q3 4 10 4q13 0 13 -18t-13 -18t-13 18zM652 279
q-9 0 -12.5 11t2.5 21q4 4 9 4q7 0 11 -4q3 -5 3 -14v-1q0 -8 -3 -13q-4 -4 -10 -4z" />
    <glyph glyph-name="u1F603" unicode="&#x1f603;" horiz-adv-x="860" 
d="M426 4q-191 0 -281.5 91.5t-90.5 287.5t90 287.5t282 91.5q197 0 288.5 -91t91.5 -288q0 -196 -91.5 -287.5t-288.5 -91.5zM426 59q167 0 246.5 79t79.5 245t-79.5 245t-246.5 79q-163 0 -240.5 -78.5t-77.5 -245.5q0 -165 78 -244.5t240 -79.5zM284 392
q-36 0 -52.5 16.5t-16.5 53.5t16.5 53.5t52.5 16.5q37 0 53.5 -16.5t16.5 -53.5t-16.5 -53.5t-53.5 -16.5zM558 392q-37 0 -53.5 16.5t-16.5 53.5t16.5 53.5t53.5 16.5q36 0 52.5 -16.5t16.5 -53.5t-16.5 -53.5t-52.5 -16.5zM426 129q-109 0 -161.5 41.5t-50.5 120.5h413
q2 -78 -48.5 -119.5t-152.5 -42.5z" />
    <glyph glyph-name="NULL" horiz-adv-x="0" 
 />
    <glyph glyph-name="CR" horiz-adv-x="333" 
 />
    <glyph glyph-name="Q.salt" horiz-adv-x="732" 
d="M520 13l114 -58q14 -7 6 -21l-41 -71q-7 -12 -20 -5l-229 137q-93 2 -148.5 21t-89.5 65q-33 46 -46.5 115.5t-13.5 184.5q0 120 14 190.5t50 115.5q36 46 94 64.5t156 18.5q99 0 157 -18.5t93 -64.5q36 -45 50 -115.5t14 -190.5q0 -172 -35 -256t-125 -112zM182 381
q0 -163 35 -219q34 -55 149 -55t149 55q36 56 36 219q0 165 -36 220q-35 57 -149 57t-149 -57q-35 -56 -35 -220z" />
    <glyph glyph-name="i.locl" horiz-adv-x="252" 
d="M198 691q0 -69 -72 -69t-72 69q0 68 72 68t72 -68zM80 553h92q15 0 15 -15v-523q0 -15 -15 -15h-92q-15 0 -15 15v523q0 15 15 15z" />
    <glyph glyph-name="g.salt" horiz-adv-x="586" 
d="M507 585l48 -48q11 -11 0 -21l-41 -42q16 -39 16 -120q0 -121 -47 -160q-47 -38 -195 -38q-61 0 -92 4l-7 -18q-11 -26 -2 -34.5t54 -12.5l189 -16q70 -6 88 -49q16 -34 16 -86v-9q0 -82 -52 -109q-52 -28 -172 -28q-123 0 -231 9q-14 2 -14 15v60q0 15 16 15h246
q53 0 70.5 8t17.5 34v5q0 21 -9.5 29t-36.5 10l-205 17q-44 4 -67 24t-22.5 46t8.5 54l24 61q-34 18 -47.5 57t-13.5 112q0 124 46 164t196 40q101 0 154 -17l44 44q10 11 21 0zM288 455q-76 0 -98 -21q-22 -19 -22 -81q0 -61 22 -82q23 -21 98 -21q76 0 98 21q23 21 23 82
q0 62 -22 81q-23 21 -99 21z" />
    <glyph glyph-name="hungarumlaut.salt" horiz-adv-x="586" 
d="M133 749q-3 16 14 16h45q12 0 17 -12q13 -31 31.5 -42.5t54.5 -11.5t54 11.5t32 42.5q5 12 17 12h44q17 0 14 -16q-10 -72 -45 -101q-35 -27 -116 -27t-117 27q-35 29 -45 101zM507 585l48 -48q11 -11 0 -21l-41 -42q16 -39 16 -120q0 -122 -47 -161t-195 -39
q-63 0 -108 6q-11 -27 -1.5 -36t52.5 -13l199 -18q69 -6 88 -54q16 -38 16 -90v-14q0 -82 -52 -109q-52 -28 -172 -28q-123 0 -231 9q-14 2 -14 15v60q0 15 16 15h246q53 0 70.5 8t17.5 34v10q0 46 -46 49l-208 19q-44 4 -67.5 24.5t-22.5 47t10 54.5l18 45q-29 21 -41 59.5
t-12 106.5q0 124 46 164t196 40q101 0 154 -17l44 44q10 11 21 0zM288 456q-76 0 -98 -21q-22 -19 -22 -82q0 -62 22 -83q23 -21 98 -21q76 0 98 21q23 21 23 83q0 63 -22 82q-23 21 -99 21z" />
    <glyph glyph-name="ring.salt" horiz-adv-x="586" 
d="M180 611l-24 14q-10 7 -3 15l92 127q5 8 18 8h63q13 0 18 -8l93 -127q6 -8 -4 -15l-24 -14q-8 -5 -16 0l-98 74l-99 -74q-7 -6 -16 0zM507 585l48 -48q11 -11 0 -21l-41 -42q16 -39 16 -120q0 -122 -47 -161t-195 -39q-63 0 -108 6q-11 -27 -1.5 -36t52.5 -13l199 -18
q69 -6 88 -54q16 -38 16 -90v-14q0 -82 -52 -109q-52 -28 -172 -28q-123 0 -231 9q-14 2 -14 15v60q0 15 16 15h246q53 0 70.5 8t17.5 34v10q0 46 -46 49l-208 19q-44 4 -67.5 24.5t-22.5 47t10 54.5l18 45q-29 21 -41 59.5t-12 106.5q0 124 46 164t196 40q101 0 154 -17
l44 44q10 11 21 0zM288 456q-76 0 -98 -21q-22 -19 -22 -82q0 -62 22 -83q23 -21 98 -21q76 0 98 21q23 21 23 83q0 63 -22 82q-23 21 -99 21z" />
    </font>
</defs>
</svg>
