<?xml version="1.0" standalone="no"?>
<!DOCTYPE svg PUBLIC "-//W3C//DTD SVG 1.1//EN" "http://www.w3.org/Graphics/SVG/1.1/DTD/svg11.dtd" >
<svg>
<metadata>
Created by FontForge 20120731 at Fri Dec 23 08:24:32 2022
 By fw_worker
Copyright (c) 2016 by Mostardesign Type Foundry. All rights reserved.
</metadata>
<defs>
<font id="UniviaPro-Light" horiz-adv-x="605" >
  <font-face 
    font-family="Univia Pro Light"
    font-weight="300"
    font-stretch="normal"
    units-per-em="1000"
    panose-1="0 0 4 0 0 0 0 0 0 0"
    ascent="800"
    descent="-200"
    x-height="535"
    cap-height="741"
    bbox="-123.25 -257.667 1234 1077"
    underline-thickness="0"
    underline-position="0"
    unicode-range="U+0020-1F603"
  />
<missing-glyph horiz-adv-x="414" 
d="M97 741h456q9 0 9 -9v-723q0 -9 -9 -9h-456q-9 0 -9 9v723q0 9 9 9zM307 619q-43 0 -101 -5q-8 -2 -8 -10v-27q0 -7 7 -7h102q42 0 67 -6q45 -8 45 -63v-31q0 -32 -10 -49t-35 -29l-78 -37q-27 -15 -34.5 -26t-5.5 -33l2 -43q2 -5 5 -5h36q5 0 5 6l1 28q1 15 5.5 20.5
t23.5 15.5l71 34q41 21 55.5 44.5t14.5 72.5v37q0 59 -33 84q-39 29 -135 29zM247 157q0 -32 34 -32t34 32q0 33 -34 33t-34 -33z" />
    <glyph glyph-name="f_f" unicode="ff" horiz-adv-x="655" 
d="M643 741q8 -3 8 -9v-24q0 -9 -10 -9h-66q-32 0 -55 -8q-31 -8 -31 -50v-106h143q9 0 8 -10l-5 -26q-2 -8 -10 -8h-136v-482q0 -9 -9 -9h-35q-9 0 -9 9v482h-270v-482q0 -9 -10 -9h-34q-9 0 -9 9v482h-79q-10 0 -10 9v26q0 9 10 9h79v114q0 98 124 98q45 0 87 -6
q8 -3 8 -9v-24q0 -9 -10 -9h-71q-26 0 -45 -4q-40 -9 -40 -54v-106h270v114q0 98 125 98q40 0 82 -6z" />
    <glyph glyph-name="fi.001" unicode="fi" horiz-adv-x="548" 
d="M237 747q32 0 74 -6q8 -3 8 -9v-24q0 -9 -9 -9h-59q-26 0 -45 -4q-40 -9 -40 -54v-106h294q10 0 10 -9v-517q0 -9 -10 -9h-34q-9 0 -9 9v482h-251v-482q0 -9 -10 -9h-34q-9 0 -9 9v482h-79q-10 0 -10 9v26q0 9 10 9h79v114q0 98 124 98zM480 677q0 -38 -37 -38t-37 38
q0 36 37 36t37 -36z" />
    <glyph glyph-name="fl" unicode="fl" horiz-adv-x="537" 
d="M450 739q9 -1 9 -9v-721q0 -9 -9 -9h-35q-9 0 -9 9v687l-129 3q-56 2 -83.5 -17.5t-27.5 -68.5v-78h143q10 0 7 -10l-5 -26q-2 -8 -9 -8h-136v-482q0 -9 -10 -9h-34q-9 0 -9 9v482h-79q-10 0 -10 9v26q0 9 10 9h79v86q0 126 159 126q52 0 178 -8z" />
    <glyph glyph-name="f_f_i" unicode="ffi" horiz-adv-x="871" 
d="M561 747q31 0 79 -6q8 -3 8 -9v-24q0 -9 -10 -9h-63q-32 0 -55 -8q-31 -8 -31 -50v-106h295q9 0 9 -9v-517q0 -9 -9 -9h-35q-9 0 -9 9v482h-251v-482q0 -9 -9 -9h-35q-9 0 -9 9v482h-270v-482q0 -9 -10 -9h-34q-9 0 -9 9v482h-79q-10 0 -10 9v26q0 9 10 9h79v114
q0 98 124 98q50 0 92 -6q8 -2 8 -9v-24q0 -9 -9 -9h-77q-26 0 -45 -4q-40 -9 -40 -54v-106h270v114q0 98 125 98zM767 713q36 0 36 -36q0 -38 -36 -38q-37 0 -37 38q0 36 37 36z" />
    <glyph glyph-name="f_f_l" unicode="ffl" horiz-adv-x="861" 
d="M773 739q10 -1 10 -9v-721q0 -9 -10 -9h-34q-9 0 -9 9v687l-129 3q-57 2 -84.5 -17.5t-27.5 -68.5v-78h143q9 0 8 -10l-5 -26q-2 -8 -10 -8h-136v-482q0 -9 -9 -9h-35q-9 0 -9 9v482h-270v-482q0 -9 -10 -9h-34q-9 0 -9 9v482h-79q-10 0 -10 9v26q0 9 10 9h79v114
q0 98 124 98q61 0 103 -6q8 -3 8 -9v-24q0 -9 -9 -9h-88q-26 0 -45 -4q-40 -9 -40 -54v-106h270v86q0 126 160 126q51 0 177 -8z" />
    <glyph glyph-name="f_b" unicode="fb" horiz-adv-x="888" 
d="M602 542q109 0 162 -32q27 -17 39 -50q23 -60 23 -188q0 -93 -7 -139q-7 -48 -30 -83q-22 -32 -60.5 -43.5t-110.5 -11.5q-96 0 -200 15q-12 3 -12 15v671l-129 3q-56 2 -83.5 -17.5t-27.5 -68.5v-78h143q10 0 7 -10l-4 -26q-3 -8 -10 -8h-136v-482q0 -9 -9 -9h-35
q-9 0 -9 9v482h-79q-9 0 -9 9v26q0 9 9 9h79v86q0 126 159 126q52 0 178 -8q9 -1 9 -9v-193q85 5 143 5zM618 43q100 0 127 43q28 43 28 187q0 39 -2 79q-5 73 -26 99q-18 24 -51 33.5t-92 9.5h-143v-440q88 -11 159 -11z" />
    <glyph glyph-name="f_f_b" unicode="ffb" horiz-adv-x="1213" 
d="M927 542q79 0 120 -11t65 -43t31.5 -78t7.5 -138q0 -59 -3 -98q-7 -89 -34 -125q-21 -29 -61 -41.5t-109 -12.5q-96 0 -200 15q-12 3 -12 15v671l-129 3q-56 2 -83.5 -17.5t-27.5 -68.5v-78h143q8 0 7 -10l-5 -26q-2 -8 -10 -8h-135v-482q0 -9 -10 -9h-34q-10 0 -10 9
v482h-272v-482q0 -9 -9 -9h-35q-9 0 -9 9v482h-79q-9 0 -9 9v26q0 9 9 9h79v114q0 98 125 98q40 0 82 -6q8 -3 8 -9v-24q0 -9 -10 -9h-66q-32 0 -55 -8q-31 -8 -31 -50v-106h272v86q0 126 160 126q50 0 178 -8q9 -1 9 -9v-193q85 5 142 5zM944 43q55 0 83 9.5t45 36.5
q16 28 21 66t5 118q0 39 -2 79q-5 73 -26 99q-18 24 -51 33.5t-92 9.5h-142v-440q88 -11 159 -11z" />
    <glyph glyph-name="f_f_j" unicode="ffj" horiz-adv-x="854" 
d="M561 747q29 0 70 -6q8 -2 8 -9v-24q0 -9 -9 -9h-55q-32 0 -55 -8q-31 -8 -31 -50v-106h278q9 0 9 -9v-640q-1 -84 -84 -81q-34 0 -49 3q-8 2 -8 9v26q0 9 9 9h37q16 0 23.5 2.5t13 14t5.5 35.5v587h-234v-482q0 -9 -9 -9h-35q-9 0 -9 9v482h-270v-482q0 -9 -10 -9h-34
q-9 0 -9 9v482h-79q-10 0 -10 9v26q0 9 10 9h79v114q0 98 124 98q35 0 77 -6q8 -3 8 -9v-24q0 -9 -9 -9h-62q-26 0 -45 -4q-40 -9 -40 -54v-106h270v114q0 98 125 98zM787 677q0 -38 -37 -38t-37 38q0 36 37 36t37 -36z" />
    <glyph glyph-name="f_f_k" unicode="ffk" horiz-adv-x="1116" 
d="M1048 523l-207 -196l268 -313q3 -3 3.5 -6t-3.5 -5.5t-10 -2.5h-38q-12 0 -17 8l-262 308v-307q0 -9 -9 -9h-35q-9 0 -9 9v687l-129 3q-57 2 -84.5 -17.5t-27.5 -68.5v-78h143q9 0 8 -10l-5 -26q-2 -8 -10 -8h-136v-482q0 -9 -9 -9h-34q-10 0 -10 9v482h-269v-482
q0 -9 -9 -9h-35q-9 0 -9 9v482h-79q-9 0 -9 9v26q0 9 9 9h79v114q0 98 125 98q40 0 82 -6q8 -3 8 -9v-24q0 -9 -10 -9h-66q-32 0 -55 -8q-31 -8 -31 -50v-106h269v86q0 126 160 126q50 0 178 -8q9 -1 9 -9v-390l197 189q6 6 18 6h46q17 0 5 -12z" />
    <glyph glyph-name="f_j" unicode="fj" horiz-adv-x="531" 
d="M237 747q30 0 72 -6q8 -3 8 -9v-24q0 -9 -9 -9h-57q-26 0 -45 -4q-40 -9 -40 -54v-106h277q10 0 10 -9v-640q0 -57 -33 -71q-22 -10 -52 -10q-34 0 -49 3q-8 2 -8 9v26q0 9 10 9h37q12 0 18 1t12 6t8.5 16t2.5 29v587h-233v-482q0 -9 -10 -9h-34q-9 0 -9 9v482h-79
q-10 0 -10 9v26q0 9 10 9h79v114q0 98 124 98zM427 713q36 0 36 -36q0 -38 -36 -38q-37 0 -37 38q0 36 37 36z" />
    <glyph glyph-name="f_k" unicode="fk" horiz-adv-x="793" 
d="M726 523l-208 -196l268 -313q4 -4 1.5 -9t-11.5 -5h-37q-10 0 -18 8l-262 308v-307q0 -9 -9 -9h-35q-9 0 -9 9v687l-129 3q-56 2 -83.5 -17.5t-27.5 -68.5v-78h143q10 0 7 -10l-5 -26q-2 -8 -9 -8h-136v-482q0 -9 -10 -9h-34q-9 0 -9 9v482h-79q-10 0 -10 9v26q0 9 10 9
h79v86q0 126 159 126q52 0 178 -8q9 -1 9 -9v-390l198 189q5 6 17 6h47q7 0 8.5 -3.5t-3.5 -8.5z" />
    <glyph glyph-name=".notdef" horiz-adv-x="414" 
d="M97 741h456q9 0 9 -9v-723q0 -9 -9 -9h-456q-9 0 -9 9v723q0 9 9 9zM307 619q-43 0 -101 -5q-8 -2 -8 -10v-27q0 -7 7 -7h102q42 0 67 -6q45 -8 45 -63v-31q0 -32 -10 -49t-35 -29l-78 -37q-27 -15 -34.5 -26t-5.5 -33l2 -43q2 -5 5 -5h36q5 0 5 6l1 28q1 15 5.5 20.5
t23.5 15.5l71 34q41 21 55.5 44.5t14.5 72.5v37q0 59 -33 84q-39 29 -135 29zM247 157q0 -32 34 -32t34 32q0 33 -34 33t-34 -33z" />
    <glyph glyph-name=".null" horiz-adv-x="0" 
 />
    <glyph glyph-name="nonmarkingreturn" horiz-adv-x="333" 
 />
    <glyph glyph-name="space" unicode=" " horiz-adv-x="244" 
 />
    <glyph glyph-name="exclam" unicode="!" horiz-adv-x="239" 
d="M102 741h34q10 0 10 -9v-389q0 -11 -1 -16l-7 -148q-1 -10 -9 -10h-19q-9 0 -9 10l-8 148v16v389q0 9 9 9zM156 33q0 -38 -37 -38t-37 38q0 36 37 36t37 -36z" />
    <glyph glyph-name="quotedbl" unicode="&#x22;" horiz-adv-x="353" 
d="M80 741h34q9 0 9 -9v-130v-16l-8 -118q0 -10 -9 -10h-19q-8 0 -9 10l-7 118q-1 5 -1 16v130q0 9 10 9zM240 741h34q9 0 9 -9v-130v-16l-8 -118q0 -10 -9 -10h-18q-9 0 -10 10l-7 118q-1 5 -1 16v130q0 9 10 9z" />
    <glyph glyph-name="numbersign" unicode="#" horiz-adv-x="614" 
d="M448 502v-268h103q9 0 9 -10v-30q0 -9 -9 -9h-103v-176q0 -9 -10 -9h-33q-9 0 -9 9v176h-185v-176q0 -9 -9 -9h-33q-9 0 -9 9v176h-96q-9 0 -9 9v30q0 10 9 10h96v268h-97q-9 0 -9 9v30q0 9 9 9h97v182q0 9 9 9h33q9 0 9 -9v-182h185v182q0 9 9 9h33q10 0 10 -9v-182h102
q9 0 9 -9v-30q0 -9 -9 -9h-102zM211 502v-268h185v268h-185z" />
    <glyph glyph-name="dollar" unicode="$" horiz-adv-x="594" 
d="M206 443l234 -90q104 -42 104 -154v-24q0 -71 -46 -108q-20 -15 -52 -24q-51 -13 -124 -13v-82q0 -9 -10 -9h-25q-10 0 -10 9v82q-155 3 -220 6q-6 0 -6 6v33q0 5 6 5h265h41q50 2 73 13q53 22 53 82v20q0 83 -81 117l-242 93q-61 23 -82.5 55.5t-21.5 89.5v18
q0 74 51 107.5t155 36.5v82q0 9 9 9h26q9 0 9 -9v-82q103 0 187 -6q6 0 6 -6v-33q0 -5 -6 -5h-224q-82 0 -119.5 -22.5t-37.5 -73.5v-11q0 -44 18 -67.5t70 -44.5z" />
    <glyph glyph-name="percent" unicode="%" horiz-adv-x="922" 
d="M209 362q-97 0 -133 41q-35 41 -35 151t36 151t132 41t131 -41q36 -41 36 -151t-36 -151q-35 -41 -131 -41zM619 741h30q11 0 5 -10l-379 -722q-5 -9 -13 -9h-31q-11 0 -5 10l379 722q5 9 14 9zM209 698q-66 0 -91 -31q-24 -31 -24 -113t24 -114q26 -30 91 -30t89 31
q25 31 25 113t-25 113q-24 31 -89 31zM714 378q96 0 131 -41q36 -41 36 -150q0 -111 -36 -151q-35 -41 -131 -41q-97 0 -133 41q-35 41 -35 151q0 109 35 150q36 41 133 41zM714 331q-66 0 -91 -31q-24 -32 -24 -113q0 -83 24 -114q25 -30 91 -30q65 0 89 31q25 31 25 113
t-25 113q-24 31 -89 31z" />
    <glyph glyph-name="ampersand" unicode="&#x26;" horiz-adv-x="638" 
d="M326 746q71 0 112 -4q9 -2 9 -8v-30q0 -7 -9 -7h-113q-100 0 -150 -26q-49 -25 -49 -107v-28q0 -78 43 -109.5t138 -31.5h259q10 0 10 -10v-21q0 -8 -10 -9l-73 -8v-247q0 -34 13.5 -45.5t51.5 -11.5h39q10 0 10 -9v-25q0 -7 -8 -10q-23 -4 -48 -4q-70 0 -94 32
q-59 -32 -151 -32q-110 0 -170 34q-66 37 -66 153v26q0 66 30 108t84 55q-53 13 -83.5 55.5t-30.5 107.5v27q0 115 71 152q63 33 185 33zM440 71v276h-133q-94 0 -137.5 -32t-43.5 -110v-24q0 -75 45 -106t135 -31q72 0 134 27z" />
    <glyph glyph-name="quotesingle" unicode="'" horiz-adv-x="192" 
d="M79 741h34q9 0 9 -9v-130v-16l-7 -118q-1 -10 -10 -10h-18q-9 0 -10 10l-7 118v16v130q0 9 9 9z" />
    <glyph glyph-name="parenleft" unicode="(" horiz-adv-x="294" 
d="M228 798h34q5 0 5 -5v-8l-2 -6q-37 -50 -65 -91q-36 -56 -68 -138q-8 -21 -13 -64q-2 -19 -5 -65v-82q0 -78 1 -97q2 -36 8 -73q8 -48 23 -78q38 -79 119 -191l2 -6v-8q0 -5 -5 -5h-34q-6 0 -9 4q-33 43 -67 90q-41 57 -71 138q-10 26 -14 67q-5 44 -6 70v89v90
q1 26 6 71q4 41 14 67t27 62q11 25 29 53t33 48t49 64q3 4 9 4z" />
    <glyph glyph-name="parenright" unicode=")" horiz-adv-x="295" 
d="M32 798h34q6 0 9 -4q57 -73 91 -126q32 -51 47 -105q16 -55 18 -94q2 -50 2 -130q0 -72 -1 -90q0 -21 -5 -69q-5 -45 -13 -67q-9 -24 -27 -63q-23 -50 -112 -165q-3 -4 -9 -4h-34q-5 0 -5 5v8l2 6q32 43 64 92q38 55 69 137q8 20 13 64q4 37 4 64q1 15 1 82q0 68 -1 83
q0 27 -4 64q-5 44 -13 65q-6 19 -26 60q-24 55 -107 168l-2 6v8q0 5 5 5z" />
    <glyph glyph-name="asterisk" unicode="*" horiz-adv-x="420" 
d="M198 759h22q10 0 10 -11l-2 -134l123 46q8 4 13 -5l7 -21q3 -10 -7 -13l-125 -41l85 -102q7 -7 -1 -14l-16 -13q-9 -8 -14 2l-83 106l-81 -108q-7 -8 -14 -1l-16 12q-10 6 -2 14l83 104l-125 41q-10 1 -7 12l7 21q2 13 13 6l123 -46l-2 134q-2 11 9 11z" />
    <glyph glyph-name="plus" unicode="+" horiz-adv-x="540" 
d="M254 540h32q10 0 10 -9v-191h191q10 0 10 -9v-33q0 -9 -10 -9h-191v-192q0 -9 -10 -9h-32q-9 0 -9 9v192h-192q-9 0 -9 9v33q0 9 9 9h192v191q0 9 9 9z" />
    <glyph glyph-name="comma" unicode="," horiz-adv-x="216" 
d="M99 104h46q7 0 7 -6v-11q0 -6 -4 -10l-100 -213q-4 -7 -10 -4l-13 6q-4 3 -3 10l68 223q2 5 9 5z" />
    <glyph glyph-name="hyphen" unicode="-" horiz-adv-x="438" 
d="M82 273h274q9 0 9 -10v-31q0 -9 -9 -9h-274q-9 0 -9 9v31q0 10 9 10z" />
    <glyph glyph-name="period" unicode="." horiz-adv-x="197" 
d="M99 69q36 0 36 -36q0 -38 -36 -38q-37 0 -37 38q0 36 37 36z" />
    <glyph glyph-name="slash" unicode="/" horiz-adv-x="437" 
d="M379 770h27q9 0 4 -11l-338 -776q-4 -10 -14 -10h-28q-8 0 -4 10l339 776q5 11 14 11z" />
    <glyph glyph-name="zero" unicode="0" horiz-adv-x="659" 
d="M329 746q159 0 211 -79q53 -79 53 -298q0 -220 -53 -297t-211 -77q-157 0 -210 77t-53 297q0 219 53 298q52 79 210 79zM495 628q-42 69 -166 69t-166 -69q-42 -68 -42 -259q0 -190 41 -258q42 -67 167 -67q126 0 166 67q42 67 42 258t-42 259z" />
    <glyph glyph-name="one" unicode="1" horiz-adv-x="392" 
d="M243 649v-600h120q9 0 9 -9v-31q0 -9 -9 -9h-302q-9 0 -9 9v31q0 9 9 9h126v590q0 34 -20 46t-65 12h-57q-10 -1 -10 9v24q0 6 9 9q29 7 67 7q39 0 63 -7q63 -13 69 -90z" />
    <glyph glyph-name="two" unicode="2" horiz-adv-x="568" 
d="M247 746q96 0 149 -17q110 -30 110 -155v-53q0 -63 -18 -100t-69 -65l-239 -136q-45 -27 -62 -50t-17 -62v-59h404q5 0 5 -5v-39q0 -5 -5 -5h-435q-25 0 -25 28v80q0 54 23 88q22 33 85 68l240 136q34 19 45.5 46.5t11.5 74.5v53q0 61 -41 90q-51 35 -162 33h-165
q-6 0 -6 5v31q0 6 5 6q84 7 166 7z" />
    <glyph glyph-name="three" unicode="3" horiz-adv-x="571" 
d="M219 746q119 0 179 -20q53 -16 78 -55.5t25 -109.5v-27q0 -66 -30 -108t-83 -55q53 -13 83 -55t30 -108v-26q0 -112 -65 -150q-64 -37 -217 -37q-96 0 -156 4q-9 1 -9 5v34q0 6 9 6h160q119 0 171 28t52 111v22q-1 78 -44 110t-138 32h-164q-8 0 -8 7v33q0 8 8 8h164
q95 0 138.5 31.5t43.5 109.5v27q0 82 -53 108q-54 26 -174 26h-156q-9 0 -9 6v33q0 4 9 6q60 4 156 4z" />
    <glyph glyph-name="four" unicode="4" horiz-adv-x="608" 
d="M196 741h37q10 0 7 -11l-148 -476h290v212q0 9 7 10l37 15q11 3 11 -6v-231h134q10 0 10 -9v-31q0 -9 -10 -9h-134v-196q0 -9 -9 -9h-37q-9 0 -9 9v196h-339q-9 0 -9 9v17q0 17 7 32l144 471q1 7 11 7z" />
    <glyph glyph-name="five" unicode="5" horiz-adv-x="574" 
d="M99 741h387q10 0 10 -9v-31q0 -9 -10 -9h-347l-18 -266q54 2 116 2q152 0 216 -40q65 -39 67 -156v-42q-2 -116 -67 -156q-65 -39 -216 -39q-115 0 -164 3q-8 0 -8 7v33q0 6 9 6h170q114 0 167 30t53 115v42q-1 84 -51.5 116t-168.5 32h-170q-9 0 -9 6v36l18 306
q2 14 16 14z" />
    <glyph glyph-name="six" unicode="6" horiz-adv-x="595" 
d="M287 741h41q12 0 7 -11l-162 -314q42 18 129 18q127 0 188 -42q62 -42 62 -153v-48q0 -108 -59.5 -152t-190.5 -44q-130 0 -189.5 44t-59.5 152v42q0 72 22 115l200 386q4 7 12 7zM108 237v-45q0 -82 46.5 -115t147.5 -33q102 0 148.5 33t46.5 115v45q0 82 -46.5 115
t-148.5 33q-101 0 -147.5 -33t-46.5 -115z" />
    <glyph glyph-name="seven" unicode="7" horiz-adv-x="535" 
d="M31 741h472q10 0 10 -9v-24q0 -5 -4 -14l-347 -687q-3 -7 -11 -7h-42q-13 0 -7 11l343 681h-414q-10 0 -10 9v31q0 9 10 9z" />
    <glyph glyph-name="eight" unicode="8" horiz-adv-x="633" 
d="M310 746h15q117 0 173 -49.5t56 -153.5q0 -129 -93 -181q112 -46 112 -169q0 -198 -249 -198h-17q-126 0 -187 49t-61 151q0 123 113 191q-92 50 -92 160q0 101 56.5 150.5t173.5 49.5zM325 697h-15q-174 0 -174 -146q0 -113 117 -140l158 -29q88 52 88 161
q0 154 -174 154zM383 331l-158 32q-111 -57 -111 -169q0 -150 193 -150h17q193 0 193 144q0 117 -134 143z" />
    <glyph glyph-name="nine" unicode="9" horiz-adv-x="595" 
d="M292 746q126 0 188 -42t62 -154v-42q0 -72 -22 -115l-201 -386q-3 -7 -11 -7h-42q-14 0 -6 11l162 314q-42 -18 -130 -18q-130 0 -189.5 43.5t-59.5 151.5v49q0 107 59.5 151t189.5 44zM98 549v-45q0 -82 46.5 -115t147.5 -33q102 0 148.5 33t46.5 115v45q0 82 -46.5 115
t-148.5 33q-101 0 -147.5 -33t-46.5 -115z" />
    <glyph glyph-name="colon" unicode=":" horiz-adv-x="222" 
d="M74 505q0 37 37 37t37 -37t-37 -37t-37 37zM148 33q0 -38 -37 -38t-37 38q0 36 37 36t37 -36z" />
    <glyph glyph-name="semicolon" unicode=";" horiz-adv-x="246" 
d="M129 542q36 0 36 -37t-36 -37q-37 0 -37 37t37 37zM113 104h46q6 0 6 -6v-11q0 -7 -3 -10l-101 -213q-3 -7 -10 -4l-12 6q-4 3 -3 10l68 223q2 5 9 5z" />
    <glyph glyph-name="less" unicode="&#x3c;" horiz-adv-x="579" 
d="M504 569h4q4 0 4 -3v-39q0 -6 -8 -11l-406 -160l406 -161q8 -5 8 -11v-39q0 -3 -4 -3h-4q-4 0 -7 1l-449 181q-7 3 -7 11v41q0 8 7 11l449 181q3 1 7 1z" />
    <glyph glyph-name="equal" unicode="=" horiz-adv-x="620" 
d="M84 475h452q9 0 9 -9v-33q0 -9 -9 -9h-452q-9 0 -9 9v33q0 9 9 9zM84 211h452q9 0 9 -9v-33q0 -9 -9 -9h-452q-9 0 -9 9v33q0 9 9 9z" />
    <glyph glyph-name="greater" unicode="&#x3e;" horiz-adv-x="579" 
d="M70 569h4q5 0 7 -1l449 -181q8 -3 8 -11v-41q0 -8 -8 -11l-449 -181q-2 -1 -7 -1h-4q-3 0 -3 3v39q0 7 7 11l407 161l-407 160q-7 4 -7 11v39q0 3 3 3z" />
    <glyph glyph-name="question" unicode="?" horiz-adv-x="480" 
d="M185 746q90 0 144 -15q51 -13 75.5 -49t27.5 -106v-57q0 -76 -23 -114q-23 -37 -84 -65l-110 -53q-28 -13 -35 -22.5t-8 -34.5l-1 -54q0 -7 -6 -7h-36q-6 0 -6 6l-2 72q-1 30 9 43q12 15 49 35l123 59q42 19 59 47q16 28 16 88v57q0 64 -37 92q-14 13 -43 19
q-41 10 -112 10h-143q-10 0 -10 9v26q0 9 9 9q70 5 144 5zM184 33q0 -38 -37 -38t-37 38q0 36 37 36t37 -36z" />
    <glyph glyph-name="at" unicode="@" horiz-adv-x="1039" 
d="M530 745q231 0 339.5 -97t108.5 -305q0 -159 -71 -229.5t-228 -69.5h-185q-83 1 -117 30t-34 99v6q0 59 33 87.5t102 28.5h151v67q0 50 -31 70.5t-97 20.5h-103q-7 0 -7 7v22q0 6 7 7q48 6 99 6q90 0 134.5 -29.5t44.5 -98.5v-286q133 0 198 56t65 205q0 190 -100 278.5
t-312 88.5q-229 0 -329 -106q-101 -106 -101 -326q0 -200 77 -306q35 -49 90 -79q95 -53 248 -58q9 0 9 -9v-17q0 -9 -9 -9q-234 1 -344 117.5t-110 361.5q0 239 111 353q113 114 361 114zM629 86v167h-150q-52 0 -70.5 -17t-18.5 -61v-3q0 -50 22.5 -67.5t84.5 -18.5h132z
" />
    <glyph glyph-name="A" unicode="A" horiz-adv-x="643" 
d="M321 746q57 0 75 -19q18 -20 39 -95l173 -622q1 -10 -7 -10h-41q-5 0 -8 9l-68 241h-325l-68 -241q-3 -9 -9 -9h-41q-9 0 -8 10l177 622q21 74 39 94q20 20 72 20zM321 697q-25 0 -34 -13q-9 -14 -24 -65l-90 -319h297l-88 319q-15 54 -25 65q-9 13 -36 13z" />
    <glyph glyph-name="B" unicode="B" horiz-adv-x="668" 
d="M336 746q129 0 191 -44t62 -160q0 -144 -86 -165v-2q106 -19 106 -178q0 -117 -60 -160q-59 -42 -181 -42q-199 0 -267 4q-10 0 -10 9v725q0 9 10 9q68 4 235 4zM333 697h-186v-298h208q103 0 140 25q39 26 39 115q0 92 -48 125t-153 33zM394 351h-247v-307h223
q99 0 141.5 33t42.5 120q0 85 -38 119.5t-122 34.5z" />
    <glyph glyph-name="C" unicode="C" horiz-adv-x="575" 
d="M355 746q103 0 173 -5q9 0 9 -9v-26q0 -9 -9 -9h-173q-76 0 -120 -15.5t-70 -54.5q-25 -38 -34.5 -96t-9.5 -161t9.5 -160.5t34.5 -95.5q26 -39 70 -54.5t120 -15.5h173q9 0 9 -9v-26q0 -9 -9 -9q-70 -5 -173 -5q-92 0 -146 18t-86 62q-32 45 -44.5 112.5t-12.5 182.5
q0 172 33 256q30 66 88 92t168 28z" />
    <glyph glyph-name="D" unicode="D" horiz-adv-x="727" 
d="M371 746q168 0 230 -83t62 -292q0 -211 -62 -294q-61 -82 -230 -82q-202 0 -270 4q-10 0 -10 9v725q0 9 10 9q68 4 270 4zM364 697h-217v-653h224q137 0 187 71t50 256q0 184 -52 254q-51 72 -192 72z" />
    <glyph glyph-name="E" unicode="E" 
d="M106 741h438q9 0 9 -9v-31q0 -9 -9 -9h-397v-312h360q9 0 9 -10v-31q0 -9 -9 -9h-360v-281h397q9 0 9 -9v-31q0 -9 -9 -9h-438q-15 0 -15 14v712q0 15 15 15z" />
    <glyph glyph-name="F" unicode="F" horiz-adv-x="585" 
d="M106 741h449q9 0 9 -9v-31q0 -9 -9 -9h-408v-312h370q9 0 9 -9v-31q0 -9 -9 -9h-370v-322q0 -9 -10 -9h-36q-10 0 -10 9v717q0 15 15 15z" />
    <glyph glyph-name="G" unicode="G" horiz-adv-x="642" 
d="M355 746q105 0 175 -5q9 0 9 -9v-26q0 -9 -10 -9h-174q-76 0 -120 -15.5t-70 -54.5q-25 -38 -34.5 -96t-9.5 -161t9.5 -160.5t34.5 -95.5q26 -39 70 -54.5t120 -15.5h174v307q0 9 9 9h35q9 0 9 -9v-326q0 -7 -4 -11q-32 -19 -223 -19q-135 0 -203 48q-34 25 -53 71
q-33 84 -33 256t33 256q30 66 88 92t168 28z" />
    <glyph glyph-name="H" unicode="H" horiz-adv-x="761" 
d="M624 741h37q9 0 9 -9v-723q0 -9 -9 -9h-37q-9 0 -9 9v348h-469v-348q0 -9 -9 -9h-37q-9 0 -9 9v723q0 9 9 9h37q9 0 9 -9v-325h469v325q0 9 9 9z" />
    <glyph glyph-name="I" unicode="I" horiz-adv-x="238" 
d="M101 741h36q10 0 10 -9v-723q0 -9 -10 -9h-36q-10 0 -10 9v723q0 9 10 9z" />
    <glyph glyph-name="J" unicode="J" horiz-adv-x="551" 
d="M130 741h322q15 0 15 -15l2 -348q0 -117 -13 -185q-14 -71 -49 -117q-34 -45 -91 -63t-152 -18q-72 0 -139 5q-9 0 -9 9v26q0 9 10 9h138q152 0 201 69t48 265l-1 314h-282q-9 0 -9 9v31q0 9 9 9z" />
    <glyph glyph-name="K" unicode="K" horiz-adv-x="574" 
d="M494 741h43q7 0 8.5 -3.5t-3.5 -8.5l-339 -330l355 -384q6 -5 3.5 -10t-13.5 -5h-40q-10 0 -14 6l-347 378v-375q0 -9 -10 -9h-36q-10 0 -10 9v723q0 9 10 9h36q10 0 10 -9v-316l334 320q5 5 13 5z" />
    <glyph glyph-name="L" unicode="L" horiz-adv-x="562" 
d="M101 741h36q10 0 10 -9v-683h391q10 0 10 -9v-31q0 -9 -10 -9h-432q-15 0 -15 14v718q0 9 10 9z" />
    <glyph glyph-name="M" unicode="M" horiz-adv-x="903" 
d="M728 741h36q13 0 15 -14l60 -718q0 -9 -9 -9h-37q-9 0 -9 9l-52 646l-245 -624q-5 -12 -18 -12h-35q-14 0 -18 12l-244 624l-52 -646q0 -9 -9 -9h-37q-10 0 -9 9l59 718q2 14 16 14h35q12 0 19 -7.5t16 -29.5l242 -624l242 624q9 22 15.5 29.5t18.5 7.5z" />
    <glyph glyph-name="N" unicode="N" horiz-adv-x="755" 
d="M618 741h37q9 0 9 -9v-723q0 -9 -9 -9h-39q-14 0 -23 12l-446 659v-662q0 -9 -10 -9h-36q-10 0 -10 9v723q0 9 10 9h42q21 0 33 -17l433 -639v647q0 9 9 9z" />
    <glyph glyph-name="O" unicode="O" horiz-adv-x="709" 
d="M354 746q136 0 203 -49q34 -25 52 -71q34 -82 34 -257q0 -171 -34 -257q-26 -64 -86.5 -90.5t-168.5 -26.5q-92 0 -146 17.5t-86 61.5t-44 110.5t-12 184.5t12 185t44 111q32 45 86 63t146 18zM121 369q0 -105 9 -162t34 -95q26 -38 69.5 -53t120.5 -15t120 15t69 53
t35 95t9 162q0 155 -26 224q-22 58 -68.5 80t-138.5 24q-112 0 -166 -42q-27 -21 -42 -62q-25 -70 -25 -224z" />
    <glyph glyph-name="P" unicode="P" horiz-adv-x="621" 
d="M273 746q63 0 102 -3q96 -5 135 -34q35 -25 50.5 -70.5t15.5 -124.5q0 -81 -15.5 -126t-49.5 -70q-21 -15 -59 -22q-44 -9 -77 -10q-50 -2 -102 -2h-126v-275q0 -9 -10 -9h-36q-10 0 -10 9v724q0 9 10 9q68 4 172 4zM270 697h-123v-363h123q57 0 75 1q76 2 106 15
q38 16 53.5 53t16.5 110q0 117 -52 156q-17 12 -48 18q-54 10 -151 10z" />
    <glyph glyph-name="Q" unicode="Q" horiz-adv-x="709" 
d="M643 369q0 -211 -52 -290q-53 -79 -205 -83l34 -117q3 -10 -9 -10h-36q-9 0 -12 9l-35 117q-83 3 -132.5 22t-78.5 63q-29 45 -40 111t-11 178q0 118 12 185t44 111q32 45 86 63t146 18q136 0 203 -49q34 -25 52 -71q34 -82 34 -257zM587 369q0 155 -26 224
q-22 58 -68.5 80t-138.5 24q-112 0 -166 -42q-27 -21 -42 -62q-25 -70 -25 -224q0 -105 9 -162t34 -95q26 -38 69.5 -53t120.5 -15t120 15t69 53t35 95t9 162z" />
    <glyph glyph-name="R" unicode="R" horiz-adv-x="632" 
d="M273 746q63 0 102 -3q96 -5 135 -34q35 -25 50.5 -70.5t15.5 -124.5q0 -123 -37 -169q-37 -45 -135 -56l175 -277q7 -12 -7 -12h-34q-14 0 -23 13l-172 271h-196v-275q0 -9 -10 -9h-36q-10 0 -10 9v724q0 9 10 9q68 4 172 4zM270 697h-123v-363h123q57 0 75 1
q76 2 106 15q38 16 53.5 53t16.5 110q0 117 -52 156q-17 12 -48 18q-54 10 -151 10z" />
    <glyph glyph-name="S" unicode="S" horiz-adv-x="587" 
d="M493 739q9 0 9 -8v-25q0 -9 -8 -9h-217q-84 0 -123 -26.5t-39 -84.5v-13q0 -49 18 -76t70 -48l234 -100q104 -47 104 -168v-27q0 -85 -52 -124q-19 -15 -57 -24q-38 -8 -63 -9q-34 -2 -71 -2q-158 0 -242 7q-8 0 -8 9v25q0 8 9 8h254q63 0 100 9q75 21 75 102v22
q0 93 -81 130l-242 101q-60 25 -82 61.5t-22 98.5v19q0 89 59 124t173 35q119 0 202 -7z" />
    <glyph glyph-name="T" unicode="T" horiz-adv-x="584" 
d="M23 741h538q10 0 10 -9v-31q0 -9 -10 -9h-241v-683q0 -9 -9 -9h-37q-9 0 -9 9v683h-242q-10 0 -10 9v31q0 9 10 9z" />
    <glyph glyph-name="U" unicode="U" horiz-adv-x="731" 
d="M601 741h37q9 0 9 -9v-362q0 -176 -34 -261q-29 -65 -84 -88.5t-163 -25.5q-134 0 -197 45q-48 39 -66 113.5t-19 216.5v362q0 9 9 9h37q9 0 9 -9v-362q0 -105 9.5 -164t35.5 -96t68 -51.5t114 -14.5q136 0 181 65q45 66 45 261v362q0 9 9 9z" />
    <glyph glyph-name="V" unicode="V" horiz-adv-x="630" 
d="M42 741h41q6 0 9 -9l173 -610q13 -52 21 -66q8 -12 28 -12q22 0 30 12q9 17 22 66l172 610q2 9 9 9h40q11 0 8 -10l-176 -622q-21 -77 -37 -96q-16 -18 -68 -18q-48 0 -65 18q-14 18 -37 96l-177 622q-3 10 7 10z" />
    <glyph glyph-name="W" unicode="W" horiz-adv-x="1053" 
d="M966 741h41q6 0 7.5 -2t0.5 -8l-158 -622q-20 -76 -36 -95t-66 -19q-54 0 -70 19q-18 21 -35 95l-123 503l-123 -503q-19 -75 -36 -95q-16 -19 -70 -19q-50 0 -66 19t-36 95l-158 622q-1 6 0.5 8t7.5 2h41q6 0 9 -9l153 -610q13 -52 21 -66q8 -12 28 -12q22 0 30 12
q8 13 23 66l144 578q1 9 11 9h42q8 0 10 -9l145 -578q13 -49 22 -66q7 -12 30 -12q21 0 28 12q7 14 21 66l153 610q3 9 9 9z" />
    <glyph glyph-name="X" unicode="X" horiz-adv-x="600" 
d="M512 741h42q13 0 6 -13l-227 -340l251 -375q9 -13 -6 -13h-43q-9 0 -15 9l-220 330l-219 -330q-6 -9 -15 -9h-43q-15 0 -6 13l250 375l-227 340q-7 13 6 13h42q10 0 15 -9l197 -294l197 294q5 9 15 9z" />
    <glyph glyph-name="Y" unicode="Y" horiz-adv-x="619" 
d="M560 741h41q14 0 7 -13l-271 -513v-206q0 -9 -9 -9h-37q-9 0 -9 9v206l-271 513q-7 13 7 13h41q11 0 15 -9l235 -452l236 452q5 9 15 9z" />
    <glyph glyph-name="Z" unicode="Z" horiz-adv-x="624" 
d="M52 741h518q12 0 12 -12v-22q0 -9 -6 -16l-472 -642h477q10 0 10 -9v-31q0 -9 -10 -9h-538q-12 0 -12 12v20q0 9 6 16l474 644h-458q-10 0 -10 9v31q0 9 9 9z" />
    <glyph glyph-name="bracketleft" unicode="[" horiz-adv-x="344" 
d="M104 798h198q9 0 9 -9v-29q0 -10 -9 -10h-155v-822h155q9 0 9 -10v-29q0 -9 -9 -9h-198q-10 0 -10 9v900q0 9 10 9z" />
    <glyph glyph-name="backslash" unicode="\" horiz-adv-x="437" 
d="M31 770h27q8 0 13 -11l340 -776q4 -10 -5 -10h-27q-10 0 -14 10l-339 776q-3 11 5 11z" />
    <glyph glyph-name="bracketright" unicode="]" horiz-adv-x="344" 
d="M42 798h198q10 0 10 -9v-900q0 -9 -10 -9h-198q-9 0 -9 9v29q0 10 9 10h155v822h-155q-9 0 -9 10v29q0 9 9 9z" />
    <glyph glyph-name="asciicircum" unicode="^" horiz-adv-x="473" 
d="M220 724h34q8 0 11 -7l160 -318q6 -11 -7 -11h-39q-8 0 -11 7l-132 264l-131 -264q-4 -7 -12 -7h-38q-12 0 -7 11l160 318q4 7 12 7z" />
    <glyph glyph-name="underscore" unicode="_" horiz-adv-x="506" 
d="M9 -42h488q9 0 9 -9v-23q0 -9 -9 -9h-488q-9 0 -9 9v23q0 9 9 9z" />
    <glyph glyph-name="grave" unicode="`" horiz-adv-x="376" 
d="M127 741h42q6 0 9 -5l76 -119q4 -5 -1 -10l-13 -9q-4 -4 -10 1l-107 118q-3 5 -3 9v7q0 8 7 8z" />
    <glyph glyph-name="a" unicode="a" horiz-adv-x="514" 
d="M225 542q106 0 160.5 -36.5t54.5 -120.5v-351q0 -18 -18 -23q-51 -16 -201 -16q-101 0 -141 34q-39 35 -39 122q0 75 38 108.5t123 33.5h185v86q0 62 -40.5 88.5t-121.5 26.5h-124q-9 0 -9 9v22q0 8 8 10q55 7 125 7zM387 54v192h-185q-58 0 -82.5 -22t-24.5 -73
q0 -61 29 -85t106 -24q104 0 157 12z" />
    <glyph glyph-name="b" unicode="b" horiz-adv-x="559" 
d="M87 741h35q9 0 9 -10v-194q85 5 142 5q79 0 120 -11t65 -43t31.5 -78t7.5 -138q0 -93 -7 -139q-7 -48 -30 -83q-23 -32 -60.5 -43.5t-109.5 -11.5q-96 0 -200 15q-12 2 -12 15v706q0 10 9 10zM273 494h-142v-440q88 -11 159 -11q55 0 83 9.5t45 36.5q16 28 21 66t5 118
q0 39 -2 79q-5 73 -26 99q-18 24 -51 33.5t-92 9.5z" />
    <glyph glyph-name="c" unicode="c" horiz-adv-x="466" 
d="M276 542q96 0 145 -6q9 -2 9 -9v-24q0 -9 -10 -9h-144q-100 0 -131 -45q-30 -43 -30 -180t30 -182q32 -44 131 -44h144q10 0 10 -10v-23q0 -8 -9 -9q-49 -6 -145 -6q-130 0 -173 54q-42 56 -42 220t42 218q43 55 173 55z" />
    <glyph glyph-name="d" unicode="d" horiz-adv-x="560" 
d="M438 741h34q10 0 10 -10v-706q0 -12 -13 -15q-103 -15 -199 -15q-72 0 -110.5 11.5t-60.5 43.5q-23 35 -30 83q-7 46 -7 139q0 128 22 188q22 47 65 63.5t137 18.5q56 0 143 -5v194q0 10 9 10zM429 54v440h-143q-59 0 -92 -9.5t-51 -33.5q-11 -13 -18 -42
q-10 -45 -10 -136q0 -80 5 -118t21 -66q17 -27 45.5 -36.5t83.5 -9.5q71 0 159 11z" />
    <glyph glyph-name="e" unicode="e" horiz-adv-x="525" 
d="M272 542q121 0 162 -50q40 -49 42 -202v-29q0 -12 -4 -15.5t-18 -3.5h-339q1 -119 32 -160q30 -39 125 -39h149q10 0 10 -10v-23q0 -8 -9 -9q-50 -6 -150 -6q-130 0 -170 54q-40 53 -40 220q0 90 8 138t31 80t61.5 43.5t109.5 11.5zM272 494q-96 0 -126 -40
q-29 -38 -31 -163h308q-2 125 -30 164q-29 39 -121 39z" />
    <glyph glyph-name="f" unicode="f" horiz-adv-x="332" 
d="M237 747q40 0 82 -6q8 -3 8 -9v-24q0 -9 -9 -9h-67q-26 0 -45 -4q-40 -9 -40 -54v-106h143q10 0 7 -10l-5 -26q-2 -8 -9 -8h-136v-482q0 -9 -10 -9h-34q-9 0 -9 9v482h-79q-10 0 -10 9v26q0 9 10 9h79v114q0 98 124 98z" />
    <glyph glyph-name="g" unicode="g" horiz-adv-x="559" 
d="M269 542q70 0 200 -8q12 -2 12 -15v-504q0 -67 -9 -105t-33 -64q-23 -25 -63 -35t-109 -10q-71 0 -134 5q-9 0 -9 10v23q0 10 9 10h134q97 0 129 30q32 29 32 114v8q-62 -6 -142 -6q-79 0 -120 11t-65 43q-24 31 -32 80q-7 45 -7 135q0 92 7 138q7 50 30 84
q22 33 60 44.5t110 11.5zM428 48v446h-159q-100 0 -127 -43q-27 -44 -27 -187q0 -39 2 -79q5 -73 26 -99q18 -24 51 -33.5t92 -9.5q77 0 142 5z" />
    <glyph glyph-name="h" unicode="h" horiz-adv-x="574" 
d="M87 741h35q9 0 9 -10v-194q68 5 160 5q64 0 98 -7.5t60 -29.5q50 -42 50 -183v-313q0 -9 -9 -9h-35q-9 0 -9 9v313q0 115 -37 145q-19 17 -42.5 22t-68.5 5h-167v-485q0 -9 -9 -9h-35q-9 0 -9 9v722q0 10 9 10z" />
    <glyph glyph-name="i" unicode="i" horiz-adv-x="209" 
d="M104 713q37 0 37 -36q0 -38 -37 -38q-36 0 -36 38q0 36 36 36zM87 535h35q9 0 9 -9v-517q0 -9 -9 -9h-35q-9 0 -9 9v517q0 9 9 9z" />
    <glyph glyph-name="j" unicode="j" horiz-adv-x="210" 
d="M143 677q0 -38 -37 -38t-37 38q0 36 37 36t37 -36zM88 535h35q9 0 9 -9v-640q0 -57 -33 -71q-22 -10 -51 -10q-34 0 -49 3q-8 2 -8 9v26q0 9 9 9h37q16 0 23.5 2.5t13 14t5.5 35.5v622q0 9 9 9z" />
    <glyph glyph-name="k" unicode="k" horiz-adv-x="465" 
d="M87 741h34q10 0 10 -10v-391l197 189q6 6 18 6h46q17 0 5 -12l-208 -196l269 -313q3 -3 3 -6t-4 -5.5t-10 -2.5h-37q-12 0 -17 8l-262 308v-306q0 -10 -10 -10h-34q-9 0 -9 10v721q0 10 9 10z" />
    <glyph glyph-name="l" unicode="l" horiz-adv-x="209" 
d="M87 741h34q10 0 10 -9v-723q0 -9 -10 -9h-34q-9 0 -9 9v723q0 9 9 9z" />
    <glyph glyph-name="m" unicode="m" horiz-adv-x="867" 
d="M585 542q64 0 98 -7.5t60 -29.5q50 -42 50 -183l-1 -313q0 -9 -9 -9h-34q-9 0 -9 9v313q0 115 -37 145q-19 17 -42.5 22t-68.5 5q-87 0 -151 -14q26 -46 26 -147l-1 -324q0 -9 -8 -9h-35q-9 0 -9 9v324q0 60 -8 92.5t-29 46.5q-20 14 -41.5 18t-69.5 4h-135v-485
q0 -9 -9 -9h-35q-9 0 -9 9v512q0 8 11 10q85 11 170 11q100 0 148 -27q84 27 178 27z" />
    <glyph glyph-name="n" unicode="n" horiz-adv-x="574" 
d="M291 542q64 0 98 -7.5t60 -29.5q50 -42 50 -183v-313q0 -9 -10 -9h-34q-9 0 -9 9v313q0 115 -37 145q-19 17 -42.5 22t-68.5 5h-167v-485q0 -9 -9 -9h-35q-9 0 -9 9v512q0 8 11 10q75 11 202 11z" />
    <glyph glyph-name="o" unicode="o" horiz-adv-x="552" 
d="M276 542q131 0 173 -55q42 -54 42 -218q0 -165 -42 -220q-42 -54 -173 -54q-130 0 -173 54q-42 56 -42 220t42 218q43 55 173 55zM276 494q-100 0 -131 -45q-30 -43 -30 -180t30 -182q32 -44 131 -44q101 0 131 44q31 44 31 182q0 137 -31 180q-30 45 -131 45z" />
    <glyph glyph-name="p" unicode="p" horiz-adv-x="559" 
d="M290 542q72 0 110 -11.5t60 -44.5q22 -34 30 -84q7 -46 7 -138q0 -90 -7 -135q-8 -49 -32 -80q-24 -32 -65 -43t-120 -11q-45 0 -142 5v-184q0 -10 -9 -10h-35q-9 0 -9 10v703q0 12 12 15q118 8 200 8zM290 494h-159v-446q63 -5 142 -5q84 0 126 25q21 14 29 41
q16 49 16 155q0 111 -15 160q-14 40 -44 54t-95 16z" />
    <glyph glyph-name="q" unicode="q" horiz-adv-x="559" 
d="M269 542q82 0 200 -8q12 -3 12 -15v-703q0 -10 -9 -10h-35q-9 0 -9 10v184q-72 -5 -142 -5q-79 0 -120 11t-65 43q-24 31 -32 80q-7 45 -7 135q0 92 7 138q7 50 30 84q22 33 60 44.5t110 11.5zM428 48v446h-159q-100 0 -127 -43q-27 -44 -27 -187q0 -39 2 -79
q5 -73 26 -99q18 -24 51 -33.5t92 -9.5q77 0 142 5z" />
    <glyph glyph-name="r" unicode="r" horiz-adv-x="330" 
d="M205 542q69 0 100 -7q8 -3 8 -10v-22q0 -10 -10 -9h-89q-85 0 -85 -58v-427q0 -9 -9 -9h-35q-9 0 -9 9v435q0 98 129 98z" />
    <glyph glyph-name="s" unicode="s" horiz-adv-x="464" 
d="M225 542q109 0 162 -6q8 -2 8 -9v-24q0 -9 -9 -9h-177q-101 0 -101 -68v-19q0 -34 14 -53t54 -36l152 -63q51 -21 70 -50t19 -76v-14q0 -71 -42 -96q-42 -24 -149 -24q-118 0 -168 6q-8 2 -8 9v23q0 10 9 10h168q79 0 108 15t29 57v15q0 30 -14 48.5t-47 33.5l-157 64
q-51 21 -71 51.5t-20 80.5v22q0 74 60 95q44 17 110 17z" />
    <glyph glyph-name="t" unicode="t" horiz-adv-x="307" 
d="M108 680l34 8q10 3 10 -8v-145h116q10 0 10 -9v-26q0 -9 -10 -9h-116v-391q0 -34 13 -45.5t52 -11.5h60q10 0 10 -9v-25q0 -7 -8 -10q-23 -4 -60 -4q-64 0 -92 20t-28 77v399h-57q-10 0 -10 9v26q0 9 10 9h57v135q0 7 9 10z" />
    <glyph glyph-name="u" unicode="u" horiz-adv-x="573" 
d="M451 535h35q9 0 9 -9v-511q0 -7 -11 -10q-67 -10 -202 -10q-63 0 -97.5 7.5t-61.5 28.5q-49 42 -49 183v312q0 9 10 9h34q9 0 9 -9v-312q0 -113 36 -144q20 -17 43.5 -22t68.5 -5h167v483q0 9 9 9z" />
    <glyph glyph-name="v" unicode="v" horiz-adv-x="510" 
d="M428 535h38q9 0 8 -10l-118 -416q-21 -79 -36 -97q-14 -17 -66 -17q-49 0 -63 17q-15 20 -37 97l-119 416q-3 10 7 10h39q7 0 9 -9l115 -404q14 -53 21 -65q8 -12 28 -12q22 0 30 12q9 14 22 65l113 404q1 9 9 9z" />
    <glyph glyph-name="w" unicode="w" horiz-adv-x="796" 
d="M712 535h36q9 0 8 -10l-91 -404q-20 -88 -35 -106q-15 -20 -59 -20q-46 0 -61 19q-14 20 -35 107l-77 318l-77 -318q-21 -88 -36 -107q-13 -19 -60 -19q-43 0 -60 20q-14 18 -34 106l-91 404q-1 10 8 10h37q7 0 8 -9l89 -399q11 -50 20 -67q8 -14 22 -14q18 0 25 12
q6 10 20 69l92 369q4 16 13 16h48q9 0 13 -16l92 -369q14 -59 20 -69q7 -12 25 -12q14 0 22 14q9 17 20 67l89 399q1 9 9 9z" />
    <glyph glyph-name="x" unicode="x" horiz-adv-x="497" 
d="M403 535h45q13 0 4 -11l-171 -239l196 -274q5 -11 -6 -11h-44q-7 0 -10 6l-168 236l-169 -236q-3 -6 -9 -6h-45q-13 0 -5 11l196 274l-172 239q-8 11 5 11h44q6 0 11 -5l144 -202l144 202q3 5 10 5z" />
    <glyph glyph-name="y" unicode="y" horiz-adv-x="571" 
d="M449 535h34q10 0 10 -9v-507q-2 -131 -43 -174q-41 -44 -172 -44q-71 0 -136 5q-9 0 -9 10v23q0 10 9 10h136q98 0 129 30q32 29 32 114v12q-81 -10 -158 -10q-72 0 -110.5 11.5t-60.5 43.5q-23 35 -30 83q-7 46 -7 139v254q0 9 10 9h34q10 0 10 -9v-253q0 -110 14 -160
q12 -39 45 -54.5t95 -15.5q79 0 158 11v472q0 9 10 9z" />
    <glyph glyph-name="z" unicode="z" horiz-adv-x="493" 
d="M57 535h383q10 0 10 -9v-14q0 -6 -6 -14l-336 -450h339q10 0 10 -10v-28q0 -10 -10 -10h-403q-11 0 -11 9v17q0 7 7 14l334 448h-317q-10 0 -10 9v29q0 9 10 9z" />
    <glyph glyph-name="braceleft" unicode="{" horiz-adv-x="308" 
d="M219 804q2 0 7.5 -0.5t15.5 -1t20 -0.5q8 -2 8 -9v-28q0 -9 -9 -9h-42q-39 0 -51.5 -18.5t-8.5 -62.5l27 -258q4 -34 -27 -50l-62 -27v-3l62 -27q32 -15 27 -50l-27 -258q-4 -44 8.5 -62.5t51.5 -18.5h42q9 0 9 -9v-28q0 -7 -8 -9q-10 0 -20 -0.5t-15.5 -1t-7.5 -0.5
q-71 0 -96.5 30t-18.5 100l27 257q2 12 -9 17l-75 34q-7 3 -7 16v23q0 13 7 17l75 33q11 5 9 17l-27 257q-7 70 18.5 100t96.5 30z" />
    <glyph glyph-name="bar" unicode="|" horiz-adv-x="241" 
d="M103 792h35q9 0 9 -9v-846q0 -10 -9 -10h-35q-9 0 -9 10v846q0 9 9 9z" />
    <glyph glyph-name="braceright" unicode="}" horiz-adv-x="308" 
d="M90 804q70 0 96 -30.5t18 -99.5l-27 -257q-2 -12 9 -17l75 -33q7 -4 7 -17v-23q0 -13 -7 -16l-75 -34q-11 -5 -9 -17l27 -257q8 -69 -18 -99.5t-96 -30.5q-3 0 -8 0.5t-15.5 1t-19.5 0.5q-9 1 -9 9v28q0 9 9 9h43q38 0 50.5 18.5t8.5 62.5l-27 258q-5 35 27 50l62 27v3
l-62 27q-31 16 -27 50l27 258q4 44 -8.5 62.5t-50.5 18.5h-43q-9 0 -9 9v28q0 7 9 9q9 0 19.5 0.5t15.5 1t8 0.5z" />
    <glyph glyph-name="asciitilde" unicode="~" horiz-adv-x="633" 
d="M197 407q58 0 122 -52q67 -51 111 -51q63 0 93 57q5 8 12 4l24 -15q6 -4 3 -12q-18 -40 -52 -63.5t-79 -23.5q-55 0 -122 51q-62 52 -111 52q-62 0 -85 -59q-5 -8 -12 -4l-24 12q-5 5 -5 12q13 41 46 66.5t79 25.5z" />
    <glyph glyph-name="Adieresis" unicode="&#xa1;" horiz-adv-x="228" 
d="M151 504q0 -36 -37 -36t-37 36q0 38 37 38t37 -38zM105 378h18q9 0 10 -9l7 -148v-16v-389q0 -10 -9 -10h-34q-9 0 -9 10v389v16l7 148q1 9 10 9z" />
    <glyph glyph-name="Aring" unicode="&#xa2;" horiz-adv-x="490" 
d="M422 494h-144q-100 0 -131 -45q-30 -43 -30 -180t30 -182q32 -44 131 -44h144q10 0 10 -10v-23q0 -8 -9 -9q-49 -6 -145 -6h-23l-11 -65q-2 -9 -11 -9h-26q-8 0 -8 9l12 69q-86 10 -118 69q-30 58 -30 201q0 163 42 217q41 54 171 56l11 65q0 9 10 9h26q9 0 8 -9l-12 -65
q68 -2 104 -6q9 -2 9 -9v-24q0 -9 -10 -9z" />
    <glyph glyph-name="Ccedilla" unicode="&#xa3;" horiz-adv-x="592" 
d="M412 741q56 0 105 -3q9 0 9 -7v-33q0 -6 -9 -6h-112q-115 0 -167 -30q-53 -30 -53 -115v-247h270q10 0 10 -9v-28q0 -10 -10 -10h-270v-204h363q9 0 9 -9v-31q0 -9 -9 -9h-505q-9 0 -8 9l5 31q2 9 11 9h78v204h-59q-10 0 -10 10v28q0 9 10 9h59v246q0 116 66 155
q65 40 217 40z" />
    <glyph glyph-name="Eacute" unicode="&#xa4;" horiz-adv-x="526" 
d="M73 490l18 19q7 6 14 0l41 -41q44 32 117 32t117 -32l41 41q7 6 14 0l18 -19q6 -5 1 -13l-43 -41q30 -42 30 -112t-30 -113l43 -41q7 -8 -1 -13l-18 -18q-7 -7 -14 0l-41 41q-44 -32 -117 -32t-117 32l-41 -41q-7 -7 -14 0l-18 18q-8 5 -1 13l42 41q-29 44 -29 113
q0 68 29 112l-42 41q-5 8 1 13zM356 419q-32 33 -93 33t-93 -33q-32 -32 -32 -95q0 -62 32 -96q32 -32 93 -32t93 32q32 34 32 96q0 63 -32 95z" />
    <glyph glyph-name="Ntilde" unicode="&#xa5;" horiz-adv-x="651" 
d="M576 741h41q14 0 7 -13l-259 -442h154q10 0 10 -9v-24q0 -9 -10 -9h-166v-83h166q10 0 10 -9v-24q0 -10 -10 -10h-166v-109q0 -9 -9 -9h-37q-9 0 -9 9v109h-166q-9 0 -9 10v24q0 9 9 9h166v83h-166q-9 0 -9 9v24q0 9 9 9h154l-259 442q-7 13 7 13h41q11 0 15 -9l235 -405
l236 405q5 9 15 9z" />
    <glyph glyph-name="Odieresis" unicode="&#xa6;" horiz-adv-x="241" 
d="M103 792h35q9 0 9 -9v-366q0 -9 -9 -9h-35q-9 0 -9 9v366q0 9 9 9zM103 312h35q9 0 9 -10v-365q0 -10 -9 -10h-35q-9 0 -9 10v365q0 10 9 10z" />
    <glyph glyph-name="Udieresis" unicode="&#xa7;" horiz-adv-x="427" 
d="M263 750q40 0 70 -6q9 -2 9 -10v-23q0 -9 -9 -9h-86q-64 0 -96.5 -17t-32.5 -60v-83l149 -57q95 -35 95 -141v-246q0 -88 -86 -110q-29 -8 -53 -9q-67 -6 -129 3q-9 2 -9 10v23q0 9 10 9h85q64 0 96.5 17.5t32.5 60.5v81l-149 56q-95 38 -95 141v249q0 62 40 90
q16 12 46 20q45 11 112 11zM238 443l-120 45v-108q0 -70 72 -99l119 -45v109q0 71 -71 98z" />
    <glyph glyph-name="aacute" unicode="&#xa8;" horiz-adv-x="475" 
d="M196 664q0 -40 -39 -40t-39 40q0 38 39 38t39 -38zM318 702q39 0 39 -38q0 -40 -39 -40q-40 0 -40 40q0 38 40 38z" />
    <glyph glyph-name="agrave" unicode="&#xa9;" horiz-adv-x="867" 
d="M434 -7q-193 0 -283.5 91t-90.5 285t90.5 285.5t283.5 91.5q192 0 282.5 -91.5t90.5 -285.5t-90.5 -285t-282.5 -91zM434 31q172 0 253.5 82t81.5 256t-81.5 256.5t-253.5 82.5q-173 0 -254.5 -82t-81.5 -257q0 -174 81.5 -256t254.5 -82zM437 557q59 0 92 -5q8 -2 8 -9
v-26q0 -5 -5 -5h-95q-61 0 -81 -30q-19 -29 -19 -116q0 -86 19 -117q20 -30 81 -30h95q5 0 5 -6v-26q0 -7 -8 -9q-45 -5 -92 -5q-90 0 -121 40q-30 41 -30 153t30 151q31 40 121 40z" />
    <glyph glyph-name="acircumflex" unicode="&#xaa;" horiz-adv-x="395" 
d="M185 746q68 0 100.5 -23t32.5 -75v-211q0 -11 -12 -13q-37 -10 -121 -10q-66 0 -92 20t-26 73v6q0 47 24.5 68t79.5 21h102v40q0 64 -88 64h-83q-5 0 -5 5v24q0 4 5 6q42 5 83 5zM273 459v104h-99q-35 0 -48 -11.5t-13 -39.5v-2q0 -33 15 -45t57 -12q59 0 88 6zM90 348
h206q9 0 9 -10v-20q0 -9 -9 -9h-206q-9 0 -9 9v20q0 10 9 10z" />
    <glyph glyph-name="adieresis" unicode="&#xab;" horiz-adv-x="448" 
d="M178 456h32q9 0 9 -10v-6q0 -7 -4 -11l-122 -156l122 -157q4 -4 4 -11v-6q0 -9 -9 -9h-32q-8 0 -12 6l-116 151q-5 8 -5 14v23q0 7 5 15l116 151q4 6 12 6zM343 456h32q9 0 9 -10v-6q0 -7 -4 -11l-122 -156l122 -157q4 -4 4 -11v-6q0 -9 -9 -9h-32q-7 0 -12 6l-116 151
q-5 7 -5 14v23q0 8 5 15l116 151q5 6 12 6z" />
    <glyph glyph-name="atilde" unicode="&#xac;" horiz-adv-x="602" 
d="M66 446h448q9 0 9 -10v-215q0 -9 -9 -9h-32q-9 0 -9 9v175h-407q-9 0 -9 9v31q0 10 9 10z" />
    <glyph glyph-name="aring" unicode="&#xae;" horiz-adv-x="867" 
d="M434 -7q-193 0 -283.5 91t-90.5 285t90.5 285.5t283.5 91.5q192 0 282.5 -91.5t90.5 -285.5t-90.5 -285t-282.5 -91zM434 31q172 0 253.5 82t81.5 256t-81.5 256.5t-253.5 82.5q-173 0 -254.5 -82t-81.5 -257q0 -174 81.5 -256t254.5 -82zM425 557q86 0 118 -24
q31 -22 31 -98q0 -59 -18 -83.5t-64 -30.5l87 -138q3 -7 -4 -7h-41q-8 0 -13 8l-85 133h-74v-135q0 -6 -5 -6h-41q-5 0 -5 6v367q0 5 5 5q54 3 109 3zM420 512h-58v-154h58q63 0 82 13q20 14 20 63q0 50 -21 64q-20 14 -81 14z" />
    <glyph glyph-name="ccedilla" unicode="&#xaf;" horiz-adv-x="500" 
d="M129 676h242q9 0 9 -9v-26q0 -9 -9 -9h-242q-9 0 -9 9v26q0 9 9 9z" />
    <glyph glyph-name="eacute" unicode="&#xb0;" horiz-adv-x="353" 
d="M176 746q123 0 123 -118t-123 -118q-122 0 -122 118t122 118zM176 705q-78 0 -78 -77q0 -78 78 -78q79 0 79 78q0 77 -79 77z" />
    <glyph glyph-name="egrave" unicode="&#xb1;" horiz-adv-x="599" 
d="M284 623h32q10 0 10 -9v-159h190q9 0 9 -10v-32q0 -9 -9 -9h-190v-159q0 -9 -10 -9h-32q-9 0 -9 9v159h-192q-9 0 -9 9v32q0 10 9 10h192v159q0 9 9 9zM83 156h433q9 0 9 -9v-31q0 -9 -9 -9h-433q-9 0 -9 9v31q0 9 9 9z" />
    <glyph glyph-name="ecircumflex" unicode="&#xb2;" horiz-adv-x="332" 
d="M145 890q72 0 108 -20.5t36 -73.5v-35q0 -34 -10 -53.5t-41 -39.5l-110 -67q-41 -26 -41 -50v-20h203q4 0 4 -3v-36q0 -3 -3 -3h-245q-13 0 -13 15v42q0 28 12 45t45 38l120 75q31 19 31 63v20q0 34 -24 47.5t-76 13.5h-90q-4 0 -4 5v25q0 6 6 7q53 5 92 5z" />
    <glyph glyph-name="edieresis" unicode="&#xb3;" horiz-adv-x="335" 
d="M144 890q76 0 111.5 -20.5t35.5 -75.5v-23q0 -70 -64 -83q64 -12 64 -82v-23q0 -55 -35 -76t-112 -21q-50 0 -97 4q-8 2 -8 8v25q0 5 5 5h96q56 0 79.5 13t23.5 50v13q1 36 -21.5 50.5t-72.5 14.5h-83q-4 0 -4 5v28q0 5 4 5h83q50 0 72 14t22 51v13q0 37 -23.5 50
t-79.5 13h-96q-5 0 -5 4v27q0 5 8 7q31 4 97 4z" />
    <glyph glyph-name="iacute" unicode="&#xb4;" horiz-adv-x="376" 
d="M206 741h43q7 0 7 -8v-7q0 -4 -3 -9l-108 -118q-5 -5 -10 -1l-12 9q-5 5 -2 10l77 119q3 5 8 5z" />
    <glyph glyph-name="igrave" unicode="&#xb5;" horiz-adv-x="577" 
d="M455 535h35q9 0 9 -9v-511q0 -7 -11 -10q-67 -10 -202 -10q-114 0 -155 41v-153q0 -9 -9 -9h-35q-9 0 -9 9v643q0 9 10 9h34q9 0 9 -9v-312q0 -113 36 -144q20 -17 43.5 -22t68.5 -5h167v483q0 9 9 9z" />
    <glyph glyph-name="icircumflex" unicode="&#xb6;" horiz-adv-x="672" 
d="M294 746q92 0 146.5 -18t86.5 -63q34 -47 44 -114q12 -68 12 -181v-370h-52v370q0 168 -35 240q-35 71 -133 84v-381h-69q-128 -1 -189 39t-63 156v43q1 115 62 155t190 40z" />
    <glyph glyph-name="idieresis" unicode="&#xb7;" horiz-adv-x="220" 
d="M110 304q36 0 36 -37t-36 -37q-37 0 -37 37t37 37z" />
    <glyph glyph-name="ntilde" unicode="&#xb8;" horiz-adv-x="383" 
d="M218 13h20q7 0 10 -7q15 -52 15 -89q0 -42 -19.5 -58.5t-65.5 -16.5q-13 0 -50 5q-8 3 -8 12v19q0 9 9 9h41q31 0 41.5 8t10.5 34q0 22 -13 74q-1 10 9 10z" />
    <glyph glyph-name="oacute" unicode="&#xb9;" horiz-adv-x="244" 
d="M154 830v-299h64q6 0 6 -6v-31q0 -5 -6 -5h-176q-5 0 -5 5v31q0 6 5 6h66v289q0 18 -9.5 24t-30.5 6h-33q-5 0 -5 5v25q0 4 5 6q17 4 43 4q33 1 53 -11t23 -49z" />
    <glyph glyph-name="ograve" unicode="&#xba;" horiz-adv-x="411" 
d="M97 712q27 34 108 34t108 -34q27 -33 27 -132q0 -98 -27 -133q-27 -33 -108 -33t-108 33q-26 35 -26 133t26 132zM277 680q-18 26 -72 26t-72 -26q-17 -26 -17 -100q0 -75 17 -101q18 -25 72 -25t72 25t18 101q0 74 -18 100zM102 348h206q10 0 10 -10v-20q0 -9 -10 -9
h-206q-9 0 -9 9v20q0 10 9 10z" />
    <glyph glyph-name="ocircumflex" unicode="&#xbb;" horiz-adv-x="448" 
d="M73 456h33q6 0 11 -6l117 -151q4 -7 4 -15v-23q0 -7 -4 -14l-117 -151q-5 -6 -11 -6h-33q-9 0 -9 9v6q0 6 4 11l122 157l-122 156q-4 7 -4 11v6q0 10 9 10zM238 456h33q7 0 11 -6l117 -151q4 -7 4 -15v-23q0 -7 -4 -14l-117 -151q-4 -6 -11 -6h-33q-9 0 -9 9v6q0 6 4 11
l122 157l-122 156q-4 7 -4 11v6q0 10 9 10z" />
    <glyph glyph-name="odieresis" unicode="&#xbc;" horiz-adv-x="798" 
d="M533 770h23q8 0 5 -11l-339 -776q-4 -10 -13 -10h-25q-10 0 -4 10l339 776q5 11 14 11zM237 379v-31q0 -5 -6 -5h-176q-5 0 -5 5v31q0 6 5 6h66v289q0 30 -39 30h-34q-5 0 -5 5v25q0 4 5 6q27 4 43 4q33 1 53 -11t23 -49v-299h64q6 0 6 -6zM699 267v-117h66q6 0 6 -5v-32
q0 -5 -6 -5h-66v-103q0 -5 -5 -5h-38q-5 0 -5 5v103h-179q-5 0 -5 5v23q0 7 4 16l73 243q2 3 6 3h38q6 0 3 -5l-73 -243h133v102q0 5 4 6l38 13q6 1 6 -4z" />
    <glyph glyph-name="otilde" unicode="&#xbd;" horiz-adv-x="777" 
d="M528 770h23q8 0 5 -11l-339 -776q-4 -10 -13 -10h-25q-10 0 -4 10l339 776q6 11 14 11zM234 379v-31q0 -5 -5 -5h-176q-5 0 -5 5v31q0 6 5 6h66v289q0 18 -9.5 24t-30.5 6h-33q-5 0 -5 5v25q0 5 4 6q27 4 44 4q33 1 53 -11t23 -49v-299h64q5 0 5 -6zM528 63v-21h203
q3 0 3 -3v-36q0 -3 -3 -3h-244q-13 0 -13 15v42q0 27 12 45t45 38l120 75q30 19 30 64v19q0 35 -23.5 48t-76.5 13h-89q-4 0 -4 5v25q0 5 6 8q35 4 92 4q72 0 107.5 -20.5t35.5 -73.5v-35q0 -32 -10 -52.5t-40 -39.5l-110 -68q-41 -24 -41 -49z" />
    <glyph glyph-name="uacute" unicode="&#xbe;" horiz-adv-x="847" 
d="M589 770h24q9 0 4 -11l-338 -776q-4 -10 -14 -10h-25q-10 0 -4 10l339 776q5 11 14 11zM157 744q76 0 111.5 -21t35.5 -76v-22q0 -70 -64 -83q64 -12 64 -83v-22q0 -55 -35 -76t-112 -21q-50 0 -97 4q-8 2 -8 8v25q0 5 5 5h96q56 0 79.5 13t23.5 50v13q1 36 -21.5 50.5
t-72.5 14.5h-83q-4 0 -4 5v28q0 5 4 5h83q50 0 72 14t22 51v13q0 37 -23.5 50t-79.5 13h-96q-5 0 -5 4v27q0 6 8 6q37 5 97 5zM599 398h38q6 0 4 -5l-74 -243h133v102q0 5 4 6l39 13q5 2 5 -4v-117h67q5 0 5 -5v-32q0 -5 -5 -5h-67v-103q0 -5 -5 -5h-38q-5 0 -5 5v103h-179
q-5 0 -5 5v23q0 7 4 16l73 243q1 3 6 3z" />
    <glyph glyph-name="ugrave" unicode="&#xbf;" horiz-adv-x="471" 
d="M329 542q36 0 36 -38q0 -36 -36 -36q-37 0 -37 36q0 38 37 38zM311 378h35q6 0 6 -6l2 -72q2 -29 -8.5 -43t-49.5 -35l-122 -59q-42 -19 -59 -48q-16 -26 -16 -87v-49q0 -66 41 -95q20 -15 47 -22q44 -12 123 -12h124q9 0 9 -9v-26q0 -9 -9 -10q-60 -4 -124 -4
q-97 0 -156 18q-111 31 -111 160v49q0 76 23 113q22 37 85 66l110 53q27 13 34 23q6 8 8 34l2 54q0 7 6 7z" />
    <glyph glyph-name="ucircumflex" unicode="&#xc0;" horiz-adv-x="643" 
d="M222 941h42q6 0 9 -5l76 -119q5 -5 -1 -10l-13 -9q-5 -4 -10 1l-107 118q-3 5 -3 9v7q0 8 7 8zM321 746q57 0 75 -19q18 -20 39 -95l173 -622q1 -10 -7 -10h-41q-5 0 -8 9l-68 241h-325l-68 -241q-3 -9 -9 -9h-41q-9 0 -8 10l177 622q21 74 39 94q20 20 72 20zM321 697
q-25 0 -34 -13q-9 -14 -24 -65l-90 -319h297l-88 319q-15 54 -25 65q-9 13 -36 13z" />
    <glyph glyph-name="udieresis" unicode="&#xc1;" horiz-adv-x="643" 
d="M390 941h42q7 0 7 -8v-7q0 -4 -3 -9l-107 -118q-5 -5 -10 -1l-12 9q-7 5 -2 10l76 119q3 5 9 5zM321 746q57 0 75 -19q18 -20 39 -95l173 -622q1 -10 -7 -10h-41q-5 0 -8 9l-68 241h-325l-68 -241q-3 -9 -9 -9h-41q-9 0 -8 10l177 622q21 74 39 94q20 20 72 20zM321 697
q-25 0 -34 -13q-9 -14 -24 -65l-90 -319h297l-88 319q-15 54 -25 65q-9 13 -36 13z" />
    <glyph glyph-name="dagger" unicode="&#xc2;" horiz-adv-x="643" 
d="M309 941h24q7 0 10 -5l94 -119q3 -5 -2 -10l-12 -9q-5 -4 -10 1l-92 91l-91 -91q-5 -5 -10 -1l-12 9q-7 5 -2 10l93 119q3 5 10 5zM321 746q57 0 75 -19q18 -20 39 -95l173 -622q1 -10 -7 -10h-41q-5 0 -8 9l-68 241h-325l-68 -241q-3 -9 -9 -9h-41q-9 0 -8 10l177 622
q21 74 39 94q20 20 72 20zM321 697q-25 0 -34 -13q-9 -14 -24 -65l-90 -319h297l-88 319q-15 54 -25 65q-9 13 -36 13z" />
    <glyph glyph-name="degree" unicode="&#xc3;" horiz-adv-x="643" 
d="M257 917q21 0 66 -27q47 -26 62 -26q20 0 29.5 9t19.5 37q4 9 12 7l16 -3q10 -3 7 -13q-13 -51 -29.5 -68t-53.5 -17q-21 0 -67 26q-45 27 -61 27q-19 0 -29 -9.5t-21 -38.5q-4 -8 -11 -7l-17 3q-7 4 -6 13q13 52 30 69.5t53 17.5zM321 746q57 0 75 -19q18 -20 39 -95
l173 -622q1 -10 -7 -10h-41q-5 0 -8 9l-68 241h-325l-68 -241q-3 -9 -9 -9h-41q-9 0 -8 10l177 622q21 74 39 94q20 20 72 20zM321 697q-25 0 -34 -13q-9 -14 -24 -65l-90 -319h297l-88 319q-15 54 -25 65q-9 13 -36 13z" />
    <glyph glyph-name="cent" unicode="&#xc4;" horiz-adv-x="643" 
d="M280 864q0 -40 -39 -40t-39 40q0 38 39 38t39 -38zM402 902q39 0 39 -38q0 -40 -39 -40q-40 0 -40 40q0 38 40 38zM321 746q57 0 75 -19q18 -20 39 -95l173 -622q1 -10 -7 -10h-41q-5 0 -8 9l-68 241h-325l-68 -241q-3 -9 -9 -9h-41q-9 0 -8 10l177 622q21 74 39 94
q20 20 72 20zM321 697q-25 0 -34 -13q-9 -14 -24 -65l-90 -319h297l-88 319q-15 54 -25 65q-9 13 -36 13z" />
    <glyph glyph-name="sterling" unicode="&#xc5;" horiz-adv-x="643" 
d="M321 983q96 0 96 -93q0 -92 -96 -92q-95 0 -95 92q0 93 95 93zM383 890q0 62 -62 62t-62 -62t62 -62t62 62zM321 746q57 0 75 -19q18 -20 39 -95l173 -622q1 -10 -7 -10h-41q-5 0 -8 9l-68 241h-325l-68 -241q-3 -9 -9 -9h-41q-9 0 -8 10l177 622q21 74 39 94
q20 20 72 20zM321 697q-25 0 -34 -13q-9 -14 -24 -65l-90 -319h297l-88 319q-15 54 -25 65q-9 13 -36 13z" />
    <glyph glyph-name="section" unicode="&#xc6;" horiz-adv-x="970" 
d="M321 745l230 -4h358q9 0 9 -9v-31q0 -9 -9 -9h-372v-312h335q9 0 9 -10v-31q0 -9 -9 -9h-335v-281h372q9 0 9 -9v-31q0 -9 -9 -9h-412q-15 0 -15 14v236h-323l-69 -241q-3 -9 -9 -9h-40q-9 0 -8 10l177 622q21 74 39 94q19 19 72 19zM482 300v395h-161q-26 0 -35 -12
q-9 -14 -23 -64l-90 -319h309z" />
    <glyph glyph-name="bullet.001" unicode="&#xc7;" horiz-adv-x="575" 
d="M528 697h-173q-76 0 -120 -15.5t-70 -54.5q-25 -38 -34.5 -96t-9.5 -161t9.5 -160.5t34.5 -95.5q26 -39 70 -54.5t120 -15.5h173q9 0 9 -9v-26q0 -9 -9 -9q-70 -5 -173 -5h-3q11 -53 11 -78q0 -42 -19 -58.5t-65 -16.5q-14 0 -51 5q-8 3 -8 12v19q0 9 10 9h40
q31 0 41.5 8t10.5 34t-10 67q-146 8 -196 88t-50 286q0 172 33 256q30 66 88 92t168 28q103 0 173 -5q9 0 9 -9v-26q0 -9 -9 -9z" />
    <glyph glyph-name="paragraph" unicode="&#xc8;" 
d="M216 941h42q6 0 9 -5l76 -119q3 -5 -2 -10l-12 -9q-5 -4 -10 1l-107 118q-3 3 -3 9v7q0 8 7 8zM106 741h438q9 0 9 -9v-31q0 -9 -9 -9h-397v-312h360q9 0 9 -10v-31q0 -9 -9 -9h-360v-281h397q9 0 9 -9v-31q0 -9 -9 -9h-438q-15 0 -15 14v712q0 15 15 15z" />
    <glyph glyph-name="germandbls" unicode="&#xc9;" 
d="M369 941h42q7 0 7 -8v-7q0 -6 -3 -9l-107 -118q-5 -5 -10 -1l-12 9q-5 5 -2 10l76 119q3 5 9 5zM106 741h438q9 0 9 -9v-31q0 -9 -9 -9h-397v-312h360q9 0 9 -10v-31q0 -9 -9 -9h-360v-281h397q9 0 9 -9v-31q0 -9 -9 -9h-438q-15 0 -15 14v712q0 15 15 15z" />
    <glyph glyph-name="registered" unicode="&#xca;" 
d="M297 941h24q7 0 10 -5l94 -119q3 -5 -2 -10l-12 -9q-5 -4 -10 1l-92 91l-91 -91q-6 -5 -10 -1l-12 9q-7 5 -2 10l93 119q3 5 10 5zM106 741h438q9 0 9 -9v-31q0 -9 -9 -9h-397v-312h360q9 0 9 -10v-31q0 -9 -9 -9h-360v-281h397q9 0 9 -9v-31q0 -9 -9 -9h-438
q-15 0 -15 14v712q0 15 15 15z" />
    <glyph glyph-name="copyright" unicode="&#xcb;" 
d="M268 864q0 -40 -39 -40t-39 40q0 38 39 38t39 -38zM389 902q40 0 40 -38q0 -40 -40 -40q-39 0 -39 40q0 38 39 38zM106 741h438q9 0 9 -9v-31q0 -9 -9 -9h-397v-312h360q9 0 9 -10v-31q0 -9 -9 -9h-360v-281h397q9 0 9 -9v-31q0 -9 -9 -9h-438q-15 0 -15 14v712
q0 15 15 15z" />
    <glyph glyph-name="trademark" unicode="&#xcc;" horiz-adv-x="237" 
d="M13 941h43q5 0 8 -5l77 -119q3 -5 -2 -10l-12 -9q-5 -4 -10 1l-108 118q-3 5 -3 9v7q0 8 7 8zM100 741h36q10 0 10 -9v-723q0 -9 -10 -9h-36q-9 0 -9 9v723q0 9 9 9z" />
    <glyph glyph-name="acute" unicode="&#xcd;" horiz-adv-x="237" 
d="M183 941h43q7 0 7 -8v-7q0 -5 -4 -9l-107 -118q-5 -5 -10 -1l-12 9q-5 5 -2 10l77 119q3 5 8 5zM100 741h37q9 0 9 -9v-723q0 -9 -9 -9h-37q-9 0 -9 9v723q0 9 9 9z" />
    <glyph glyph-name="dieresis" unicode="&#xce;" horiz-adv-x="238" 
d="M106 941h24q7 0 10 -5l93 -119q5 -5 -2 -10l-12 -9q-5 -4 -10 1l-91 91l-92 -91q-5 -5 -10 -1l-12 9q-5 5 -2 10l94 119q3 5 10 5zM101 741h36q10 0 10 -9v-723q0 -9 -10 -9h-36q-10 0 -10 9v723q0 9 10 9z" />
    <glyph glyph-name="notequal" unicode="&#xcf;" horiz-adv-x="238" 
d="M77 864q0 -40 -39 -40t-39 40q0 38 39 38t39 -38zM199 902q39 0 39 -38q0 -40 -39 -40q-40 0 -40 40q0 38 40 38zM101 741h36q10 0 10 -9v-723q0 -9 -10 -9h-36q-10 0 -10 9v723q0 9 10 9z" />
    <glyph glyph-name="AE" unicode="&#xd0;" horiz-adv-x="731" 
d="M375 746q168 0 230 -83t62 -292q0 -211 -62 -294q-61 -82 -230 -82q-202 0 -270 4q-10 0 -10 9v333h-70q-9 0 -9 8v26q0 9 9 9h70v349q0 9 10 9q68 4 270 4zM151 341v-297h224q137 0 187 71t50 256q0 184 -52 254q-51 72 -192 72h-217v-313h176q10 0 10 -9v-26
q0 -9 -10 -9z" />
    <glyph glyph-name="Oslash" unicode="&#xd1;" horiz-adv-x="755" 
d="M314 917q21 0 67 -26t61 -26q21 0 31 9.5t19 36.5q5 8 11 7l16 -3q10 -3 7 -14q-13 -50 -29.5 -67t-53.5 -17q-20 0 -67 26t-61 26q-20 0 -30 -9.5t-20 -38.5q-5 -8 -11 -7l-17 3q-9 3 -6 14q13 51 30 68.5t53 17.5zM618 741h37q9 0 9 -9v-723q0 -9 -9 -9h-39
q-14 0 -23 12l-446 659v-662q0 -9 -10 -9h-36q-10 0 -10 9v723q0 9 10 9h42q21 0 33 -17l433 -639v647q0 9 9 9z" />
    <glyph glyph-name="infinity" unicode="&#xd2;" horiz-adv-x="709" 
d="M243 941h42q6 0 9 -5l76 -119q5 -5 -2 -10l-12 -9q-5 -4 -10 1l-107 118q-3 5 -3 9v7q0 8 7 8zM354 746q136 0 203 -49q34 -25 52 -71q34 -82 34 -257q0 -171 -34 -257q-26 -64 -86.5 -90.5t-168.5 -26.5q-92 0 -146 17.5t-86 61.5t-44 110.5t-12 184.5t12 185t44 111
q32 45 86 63t146 18zM121 369q0 -105 9 -162t34 -95q26 -38 69.5 -53t120.5 -15t120 15t69 53t35 95t9 162q0 155 -26 224q-22 58 -68.5 80t-138.5 24q-112 0 -166 -42q-27 -21 -42 -62q-25 -70 -25 -224z" />
    <glyph glyph-name="plusminus" unicode="&#xd3;" horiz-adv-x="709" 
d="M400 941h42q7 0 7 -8v-7q0 -4 -3 -9l-107 -118q-5 -5 -10 -1l-12 9q-7 5 -2 10l76 119q3 5 9 5zM354 746q136 0 203 -49q34 -25 52 -71q34 -82 34 -257q0 -171 -34 -257q-26 -64 -86.5 -90.5t-168.5 -26.5q-92 0 -146 17.5t-86 61.5t-44 110.5t-12 184.5t12 185t44 111
q32 45 86 63t146 18zM121 369q0 -105 9 -162t34 -95q26 -38 69.5 -53t120.5 -15t120 15t69 53t35 95t9 162q0 155 -26 224q-22 58 -68.5 80t-138.5 24q-112 0 -166 -42q-27 -21 -42 -62q-25 -70 -25 -224z" />
    <glyph glyph-name="lessequal.001" unicode="&#xd4;" horiz-adv-x="709" 
d="M342 941h24q7 0 10 -5l93 -119q5 -5 -1 -10l-13 -9q-5 -4 -10 1l-91 91l-91 -91q-5 -5 -10 -1l-13 9q-6 5 -1 10l93 119q3 5 10 5zM354 746q136 0 203 -49q34 -25 52 -71q34 -82 34 -257q0 -171 -34 -257q-26 -64 -86.5 -90.5t-168.5 -26.5q-92 0 -146 17.5t-86 61.5
t-44 110.5t-12 184.5t12 185t44 111q32 45 86 63t146 18zM121 369q0 -105 9 -162t34 -95q26 -38 69.5 -53t120.5 -15t120 15t69 53t35 95t9 162q0 155 -26 224q-22 58 -68.5 80t-138.5 24q-112 0 -166 -42q-27 -21 -42 -62q-25 -70 -25 -224z" />
    <glyph glyph-name="greaterequal.001" unicode="&#xd5;" horiz-adv-x="709" 
d="M290 917q22 0 67 -27q46 -26 60 -26q20 0 30 9t20 37q4 8 11 7l17 -3q10 -3 7 -13q-13 -51 -30 -68t-54 -17q-21 0 -67 26q-45 27 -60 27q-20 0 -30 -10t-20 -38q-4 -8 -11 -7l-17 3q-7 4 -6 13q13 52 30 69.5t53 17.5zM354 746q136 0 203 -49q34 -25 52 -71
q34 -82 34 -257q0 -171 -34 -257q-26 -64 -86.5 -90.5t-168.5 -26.5q-92 0 -146 17.5t-86 61.5t-44 110.5t-12 184.5t12 185t44 111q32 45 86 63t146 18zM121 369q0 -105 9 -162t34 -95q26 -38 69.5 -53t120.5 -15t120 15t69 53t35 95t9 162q0 155 -26 224q-22 58 -68.5 80
t-138.5 24q-112 0 -166 -42q-27 -21 -42 -62q-25 -70 -25 -224z" />
    <glyph glyph-name="yen" unicode="&#xd6;" horiz-adv-x="709" 
d="M274 902q39 0 39 -38q0 -40 -39 -40q-40 0 -40 40q0 38 40 38zM434 902q40 0 40 -38q0 -40 -40 -40q-39 0 -39 40q0 38 39 38zM354 746q136 0 203 -49q34 -25 52 -71q34 -82 34 -257q0 -171 -34 -257q-26 -64 -86.5 -90.5t-168.5 -26.5q-92 0 -146 17.5t-86 61.5
t-44 110.5t-12 184.5t12 185t44 111q32 45 86 63t146 18zM121 369q0 -105 9 -162t34 -95q26 -38 69.5 -53t120.5 -15t120 15t69 53t35 95t9 162q0 155 -26 224q-22 58 -68.5 80t-138.5 24q-112 0 -166 -42q-27 -21 -42 -62q-25 -70 -25 -224z" />
    <glyph glyph-name="mu" unicode="&#xd7;" horiz-adv-x="497" 
d="M404 488l23 -22q7 -6 0 -13l-143 -143l143 -142q6 -6 0 -14l-23 -22q-7 -6 -13 0l-143 142l-142 -142q-6 -6 -14 0l-22 22q-6 8 0 14l143 142l-143 142q-6 8 0 14l23 22q7 6 13 0l142 -142l142 142q7 6 14 0z" />
    <glyph glyph-name="partialdiff.001" unicode="&#xd8;" horiz-adv-x="709" 
d="M354 746q145 0 206 -53l29 40q7 8 14 1l23 -16q7 -4 1 -12l-34 -49q50 -79 50 -288q0 -171 -34 -257q-26 -64 -86.5 -90.5t-168.5 -26.5q-139 0 -201 47l-35 -48q-6 -9 -13 -2l-23 15q-6 6 -2 14l39 55q-53 77 -53 293q0 118 12 185t44 111q32 45 86 63t146 18zM354 697
q-112 0 -166 -42q-27 -21 -42 -62q-25 -70 -25 -224q0 -175 35 -242l371 519q-48 51 -173 51zM555 605l-369 -517q50 -44 168 -44q77 0 120 15t69 53t35 95t9 162q0 170 -32 236z" />
    <glyph glyph-name="summation" unicode="&#xd9;" horiz-adv-x="731" 
d="M262 941h42q6 0 9 -5l76 -119q5 -5 -1 -10l-13 -9q-5 -4 -10 1l-107 118q-3 5 -3 9v7q0 8 7 8zM601 741h37q9 0 9 -9v-362q0 -176 -34 -261q-29 -65 -84 -88.5t-163 -25.5q-134 0 -197 45q-48 39 -66 113.5t-19 216.5v362q0 9 9 9h37q9 0 9 -9v-362q0 -105 9.5 -164
t35.5 -96t68 -51.5t114 -14.5q136 0 181 65q45 66 45 261v362q0 9 9 9z" />
    <glyph glyph-name="product" unicode="&#xda;" horiz-adv-x="731" 
d="M413 941h42q7 0 7 -8v-7q0 -6 -3 -9l-107 -118q-5 -5 -10 -1l-12 9q-5 5 -2 10l76 119q3 5 9 5zM601 741h37q9 0 9 -9v-362q0 -176 -34 -261q-29 -65 -84 -88.5t-163 -25.5q-134 0 -197 45q-48 39 -66 113.5t-19 216.5v362q0 9 9 9h37q9 0 9 -9v-362q0 -105 9.5 -164
t35.5 -96t68 -51.5t114 -14.5q136 0 181 65q45 66 45 261v362q0 9 9 9z" />
    <glyph glyph-name="pi.001" unicode="&#xdb;" horiz-adv-x="731" 
d="M354 941h23q6 0 11 -5l93 -119q3 -5 -2 -10l-12 -9q-5 -4 -10 1l-91 91l-92 -91q-5 -5 -10 -1l-12 9q-5 5 -2 10l93 119q5 5 11 5zM601 741h37q9 0 9 -9v-362q0 -176 -34 -261q-29 -65 -84 -88.5t-163 -25.5q-134 0 -197 45q-48 39 -66 113.5t-19 216.5v362q0 9 9 9h37
q9 0 9 -9v-362q0 -105 9.5 -164t35.5 -96t68 -51.5t114 -14.5q136 0 181 65q45 66 45 261v362q0 9 9 9z" />
    <glyph glyph-name="integral" unicode="&#xdc;" horiz-adv-x="731" 
d="M286 902q38 0 38 -38q0 -40 -38 -40q-40 0 -40 40q0 38 40 38zM485 864q0 -40 -39 -40t-39 40q0 38 39 38t39 -38zM601 741h37q9 0 9 -9v-362q0 -176 -34 -261q-29 -65 -84 -88.5t-163 -25.5q-134 0 -197 45q-48 39 -66 113.5t-19 216.5v362q0 9 9 9h37q9 0 9 -9v-362
q0 -105 9.5 -164t35.5 -96t68 -51.5t114 -14.5q136 0 181 65q45 66 45 261v362q0 9 9 9z" />
    <glyph glyph-name="ordfeminine" unicode="&#xdd;" horiz-adv-x="619" 
d="M358 941h43q7 0 7 -8v-7q0 -5 -4 -9l-107 -118q-5 -5 -10 -1l-12 9q-5 5 -2 10l77 119q3 5 8 5zM560 741h41q14 0 7 -13l-271 -513v-206q0 -9 -9 -9h-37q-9 0 -9 9v206l-271 513q-7 13 7 13h41q11 0 15 -9l235 -452l236 452q5 9 15 9z" />
    <glyph glyph-name="ordmasculine" unicode="&#xde;" horiz-adv-x="618" 
d="M100 743h37q9 0 9 -10v-130q60 2 122 2q81 0 121 -4q49 -5 84 -17q56 -20 75.5 -65.5t23.5 -146.5q0 -117 -40 -173q-20 -26 -59 -39q-35 -12 -84 -17q-40 -4 -121 -4q-62 0 -122 2v-130q0 -9 -9 -9h-37q-9 0 -9 9v722q0 10 9 10zM265 556h-119v-367h119q117 0 172 15
q45 16 61 51.5t19 116.5q0 94 -32 137q-15 20 -48 31q-54 16 -172 16z" />
    <glyph glyph-name="Omega.001" unicode="&#xdf;" horiz-adv-x="577" 
d="M501 542q0 -144 -85 -165v-2q105 -19 105 -178q0 -116 -59 -160q-58 -42 -181 -42q-29 0 -96 3q-12 0 -9 10l8 29q3 7 11 7h88q99 0 142 33t43 120q0 86 -37.5 120t-123.5 34h-87q-9 0 -9 9v29q0 10 10 10h86q73 0 107 28t34 112q0 93 -38 125q-38 33 -131 33
q-89 0 -119 -36q-29 -35 -29 -124v-528q0 -9 -9 -9h-34q-10 0 -10 9v523q0 120 40 166q40 48 161 48q119 0 171 -44q51 -44 51 -160z" />
    <glyph glyph-name="ae" unicode="&#xe0;" horiz-adv-x="514" 
d="M159 741h43q5 0 8 -5l77 -119q3 -5 -2 -10l-12 -9q-5 -4 -10 1l-107 118q-4 4 -4 9v7q0 8 7 8zM225 542q106 0 160.5 -36.5t54.5 -120.5v-351q0 -18 -18 -23q-51 -16 -201 -16q-101 0 -141 34q-39 35 -39 122q0 75 38 108.5t123 33.5h185v86q0 62 -40.5 88.5t-121.5 26.5
h-124q-9 0 -9 9v22q0 8 8 10q55 7 125 7zM387 54v192h-185q-58 0 -82.5 -22t-24.5 -73q0 -61 29 -85t106 -24q104 0 157 12z" />
    <glyph glyph-name="oslash" unicode="&#xe1;" horiz-adv-x="514" 
d="M288 741h43q7 0 7 -8v-7q0 -5 -4 -9l-107 -118q-5 -5 -10 -1l-12 9q-5 5 -2 10l77 119q3 5 8 5zM225 542q106 0 160.5 -36.5t54.5 -120.5v-351q0 -18 -18 -23q-51 -16 -201 -16q-101 0 -141 34q-39 35 -39 122q0 75 38 108.5t123 33.5h185v86q0 62 -40.5 88.5
t-121.5 26.5h-124q-9 0 -9 9v22q0 8 8 10q55 7 125 7zM387 54v192h-185q-58 0 -82.5 -22t-24.5 -73q0 -61 29 -85t106 -24q104 0 157 12z" />
    <glyph glyph-name="questiondown" unicode="&#xe2;" horiz-adv-x="514" 
d="M241 741h24q7 0 10 -5l93 -119q4 -5 -1 -10l-13 -9q-4 -4 -10 1l-91 91l-91 -91q-6 -5 -10 -1l-13 9q-5 5 -2 10l94 119q3 5 10 5zM225 542q106 0 160.5 -36.5t54.5 -120.5v-351q0 -18 -18 -23q-51 -16 -201 -16q-101 0 -141 34q-39 35 -39 122q0 75 38 108.5t123 33.5
h185v86q0 62 -40.5 88.5t-121.5 26.5h-124q-9 0 -9 9v22q0 8 8 10q55 7 125 7zM387 54v192h-185q-58 0 -82.5 -22t-24.5 -73q0 -61 29 -85t106 -24q104 0 157 12z" />
    <glyph glyph-name="exclamdown" unicode="&#xe3;" horiz-adv-x="514" 
d="M189 717q21 0 66 -27q46 -26 61 -26q21 0 31.5 9.5t18.5 36.5q3 9 11 7l17 -3q10 -1 7 -13q-13 -51 -30 -68t-54 -17q-20 0 -66 26q-45 27 -61 27q-20 0 -30 -10t-20 -38q-4 -8 -11 -7l-17 3q-9 2 -7 13q14 52 31 69.5t53 17.5zM225 542q106 0 160.5 -36.5t54.5 -120.5
v-351q0 -18 -18 -23q-51 -16 -201 -16q-101 0 -141 34q-39 35 -39 122q0 75 38 108.5t123 33.5h185v86q0 62 -40.5 88.5t-121.5 26.5h-124q-9 0 -9 9v22q0 8 8 10q55 7 125 7zM387 54v192h-185q-58 0 -82.5 -22t-24.5 -73q0 -61 29 -85t106 -24q104 0 157 12z" />
    <glyph glyph-name="logicalnot" unicode="&#xe4;" horiz-adv-x="514" 
d="M173 702q39 0 39 -38q0 -40 -39 -40q-40 0 -40 40q0 38 40 38zM372 664q0 -40 -39 -40t-39 40q0 38 39 38t39 -38zM225 542q106 0 160.5 -36.5t54.5 -120.5v-351q0 -18 -18 -23q-51 -16 -201 -16q-101 0 -141 34q-39 35 -39 122q0 75 38 108.5t123 33.5h185v86
q0 62 -40.5 88.5t-121.5 26.5h-124q-9 0 -9 9v22q0 8 8 10q55 7 125 7zM387 54v192h-185q-58 0 -82.5 -22t-24.5 -73q0 -61 29 -85t106 -24q104 0 157 12z" />
    <glyph glyph-name="radical.001" unicode="&#xe5;" horiz-adv-x="514" 
d="M253 783q95 0 95 -93q0 -92 -95 -92q-96 0 -96 92q0 93 96 93zM315 690q0 62 -62 62t-62 -62t62 -62t62 62zM225 542q106 0 160.5 -36.5t54.5 -120.5v-351q0 -18 -18 -23q-51 -16 -201 -16q-101 0 -141 34q-39 35 -39 122q0 75 38 108.5t123 33.5h185v86q0 62 -40.5 88.5
t-121.5 26.5h-124q-9 0 -9 9v22q0 8 8 10q55 7 125 7zM387 54v192h-185q-58 0 -82.5 -22t-24.5 -73q0 -61 29 -85t106 -24q104 0 157 12z" />
    <glyph glyph-name="florin.001" unicode="&#xe6;" horiz-adv-x="849" 
d="M596 542q122 0 162 -51q42 -51 43 -201v-29q0 -11 -4.5 -15t-18.5 -4h-338q1 -119 32 -160q30 -39 124 -39h150q9 0 9 -10v-23q0 -7 -8 -9q-49 -6 -151 -6q-129 0 -169 54q-72 -54 -207 -54q-102 0 -140 34q-39 35 -39 122q0 76 37.5 109t122.5 33h185v86
q0 62 -40.5 88.5t-121.5 26.5h-124q-9 0 -9 9v22q0 7 8 10q55 7 125 7q151 0 193 -74q20 41 61 57.5t118 16.5zM596 494q-96 0 -126 -40q-29 -39 -30 -163h308q-2 126 -31 164q-29 39 -121 39zM386 246h-185q-58 0 -82.5 -22t-24.5 -73q0 -61 29 -85t106 -24q116 0 178 46
q-21 49 -21 158z" />
    <glyph glyph-name="approxequal" unicode="&#xe7;" horiz-adv-x="466" 
d="M420 494h-144q-100 0 -131 -45q-30 -43 -30 -180t30 -182q32 -44 131 -44h144q10 0 10 -10v-23q0 -8 -9 -9q-27 -3 -124 -6q12 -48 12 -78q0 -42 -19.5 -58.5t-65.5 -16.5q-13 0 -50 5q-8 3 -8 12v19q0 9 9 9h41q31 0 41 8t10 34t-10 66q-118 3 -157 59q-39 55 -39 215
q0 164 42 218q43 55 173 55q96 0 145 -6q9 -2 9 -9v-24q0 -9 -10 -9z" />
    <glyph glyph-name="increment" unicode="&#xe8;" horiz-adv-x="525" 
d="M168 741h42q6 0 9 -5l76 -119q5 -5 -2 -10l-12 -9q-5 -4 -10 1l-107 118q-3 5 -3 9v7q0 8 7 8zM272 542q121 0 162 -50q40 -49 42 -202v-29q0 -12 -4 -15.5t-18 -3.5h-339q1 -119 32 -160q30 -39 125 -39h149q10 0 10 -10v-23q0 -8 -9 -9q-50 -6 -150 -6q-130 0 -170 54
q-40 53 -40 220q0 90 8 138t31 80t61.5 43.5t109.5 11.5zM272 494q-96 0 -126 -40q-29 -38 -31 -163h308q-2 125 -30 164q-29 39 -121 39z" />
    <glyph glyph-name="guillemotleft" unicode="&#xe9;" horiz-adv-x="525" 
d="M311 741h43q7 0 7 -8v-7q0 -4 -3 -9l-108 -118q-5 -5 -10 -1l-12 9q-5 5 -2 10l77 119q3 5 8 5zM272 542q121 0 162 -50q40 -49 42 -202v-29q0 -12 -4 -15.5t-18 -3.5h-339q1 -119 32 -160q30 -39 125 -39h149q10 0 10 -10v-23q0 -8 -9 -9q-50 -6 -150 -6q-130 0 -170 54
q-40 53 -40 220q0 90 8 138t31 80t61.5 43.5t109.5 11.5zM272 494q-96 0 -126 -40q-29 -38 -31 -163h308q-2 125 -30 164q-29 39 -121 39z" />
    <glyph glyph-name="guillemotright" unicode="&#xea;" horiz-adv-x="525" 
d="M257 741h24q7 0 10 -5l94 -119q3 -5 -2 -10l-12 -9q-5 -4 -10 1l-92 91l-91 -91q-6 -5 -10 -1l-12 9q-7 5 -2 10l93 119q3 5 10 5zM272 542q121 0 162 -50q40 -49 42 -202v-29q0 -12 -4 -15.5t-18 -3.5h-339q1 -119 32 -160q30 -39 125 -39h149q10 0 10 -10v-23
q0 -8 -9 -9q-50 -6 -150 -6q-130 0 -170 54q-40 53 -40 220q0 90 8 138t31 80t61.5 43.5t109.5 11.5zM272 494q-96 0 -126 -40q-29 -38 -31 -163h308q-2 125 -30 164q-29 39 -121 39z" />
    <glyph glyph-name="ellipsis" unicode="&#xeb;" horiz-adv-x="525" 
d="M228 664q0 -40 -39 -40t-39 40q0 38 39 38t39 -38zM349 702q40 0 40 -38q0 -40 -40 -40q-39 0 -39 40q0 38 39 38zM272 542q121 0 162 -50q40 -49 42 -202v-29q0 -12 -4 -15.5t-18 -3.5h-339q1 -119 32 -160q30 -39 125 -39h149q10 0 10 -10v-23q0 -8 -9 -9
q-50 -6 -150 -6q-130 0 -170 54q-40 53 -40 220q0 90 8 138t31 80t61.5 43.5t109.5 11.5zM272 494q-96 0 -126 -40q-29 -38 -31 -163h308q-2 125 -30 164q-29 39 -121 39z" />
    <glyph glyph-name="nbspace" unicode="&#xec;" horiz-adv-x="209" 
d="M-4 741h43q5 0 8 -5l77 -119q3 -5 -2 -10l-12 -9q-6 -4 -11 1l-107 118q-3 5 -3 9v7q0 8 7 8zM87 535h35q9 0 9 -9v-517q0 -9 -9 -9h-35q-9 0 -9 9v517q0 9 9 9z" />
    <glyph glyph-name="Agrave" unicode="&#xed;" horiz-adv-x="209" 
d="M171 741h42q7 0 7 -8v-7q0 -4 -3 -9l-107 -118q-6 -5 -10 -1l-12 9q-7 5 -2 10l76 119q3 5 9 5zM87 535h35q9 0 9 -9v-517q0 -9 -9 -9h-35q-9 0 -9 9v517q0 9 9 9z" />
    <glyph glyph-name="Atilde" unicode="&#xee;" horiz-adv-x="209" 
d="M92 741h24q5 0 10 -5l93 -119q5 -5 -2 -10l-12 -9q-5 -4 -10 1l-91 91l-92 -91q-5 -5 -10 -1l-12 9q-5 5 -2 10l93 119q5 5 11 5zM121 0h-34q-9 0 -9 9v517q0 9 9 9h34q10 0 10 -9v-517q0 -9 -10 -9z" />
    <glyph glyph-name="Otilde" unicode="&#xef;" horiz-adv-x="209" 
d="M63 664q0 -40 -39 -40t-39 40q0 38 39 38t39 -38zM185 702q39 0 39 -38q0 -40 -39 -40q-40 0 -40 40q0 38 40 38zM87 535h35q9 0 9 -9v-517q0 -9 -9 -9h-35q-9 0 -9 9v517q0 9 9 9z" />
    <glyph glyph-name="OE" unicode="&#xf0;" horiz-adv-x="549" 
d="M227 741h37q8 0 12 -6l34 -58l100 36q8 5 11 -5l9 -19q4 -9 -6 -12l-94 -34l133 -225q28 -47 28 -175q-2 -150 -44 -198q-42 -50 -171 -50t-173 50q-42 49 -42 198t42 198q44 50 173 50q59 0 93 -10l-87 145l-88 -31q-9 -3 -12 6l-7 18q-3 11 6 12l81 30l-41 68
q-7 12 6 12zM438 243q-2 122 -32 160q-31 40 -130 40q-100 0 -131 -40q-31 -38 -31 -160q0 -121 31 -161t131 -40q99 0 130 40q30 39 32 161z" />
    <glyph glyph-name="oe.001" unicode="&#xf1;" horiz-adv-x="574" 
d="M225 717q21 0 66 -27q46 -26 61 -26q20 0 30 9t20 37q4 9 11 7l17 -3q10 -3 7 -13q-14 -52 -30 -68q-17 -17 -53 -17q-21 0 -68 26q-45 27 -60 27q-19 0 -29 -9.5t-21 -38.5q-4 -8 -11 -7l-17 3q-7 4 -6 13q13 52 30 69.5t53 17.5zM291 542q64 0 98 -7.5t60 -29.5
q50 -42 50 -183v-313q0 -9 -10 -9h-34q-9 0 -9 9v313q0 115 -37 145q-19 17 -42.5 22t-68.5 5h-167v-485q0 -9 -9 -9h-35q-9 0 -9 9v512q0 8 11 10q75 11 202 11z" />
    <glyph glyph-name="endash.001" unicode="&#xf2;" horiz-adv-x="552" 
d="M169 741h42q6 0 9 -5l76 -119q3 -5 -2 -10l-12 -9q-5 -4 -10 1l-107 118q-3 3 -3 9v7q0 8 7 8zM276 542q131 0 173 -55q42 -54 42 -218q0 -165 -42 -220q-42 -54 -173 -54q-130 0 -173 54q-42 56 -42 220t42 218q43 55 173 55zM276 494q-100 0 -131 -45q-30 -43 -30 -180
t30 -182q32 -44 131 -44q101 0 131 44q31 44 31 182q0 137 -31 180q-30 45 -131 45z" />
    <glyph glyph-name="emdash.001" unicode="&#xf3;" horiz-adv-x="552" 
d="M326 741h42q7 0 7 -8v-7q0 -6 -3 -9l-107 -118q-5 -5 -10 -1l-12 9q-5 5 -2 10l76 119q3 5 9 5zM276 542q131 0 173 -55q42 -54 42 -218q0 -165 -42 -220q-42 -54 -173 -54q-130 0 -173 54q-42 56 -42 220t42 218q43 55 173 55zM276 494q-100 0 -131 -45
q-30 -43 -30 -180t30 -182q32 -44 131 -44q101 0 131 44q31 44 31 182q0 137 -31 180q-30 45 -131 45z" />
    <glyph glyph-name="quotedblleft" unicode="&#xf4;" horiz-adv-x="552" 
d="M265 741h23q6 0 11 -5l93 -119q3 -5 -2 -10l-12 -9q-5 -4 -10 1l-92 91l-91 -91q-5 -5 -10 -1l-12 9q-5 5 -2 10l93 119q5 5 11 5zM276 542q131 0 173 -55q42 -54 42 -218q0 -165 -42 -220q-42 -54 -173 -54q-130 0 -173 54q-42 56 -42 220t42 218q43 55 173 55zM276 494
q-100 0 -131 -45q-30 -43 -30 -180t30 -182q32 -44 131 -44q101 0 131 44q31 44 31 182q0 137 -31 180q-30 45 -131 45z" />
    <glyph glyph-name="quotedblright.001" unicode="&#xf5;" horiz-adv-x="552" 
d="M213 717q21 0 66 -27q46 -26 61 -26q20 0 30 9.5t20 36.5q4 8 11 7l16 -3q10 -3 7 -13q-13 -51 -29.5 -68t-53.5 -17q-20 0 -67 26q-45 27 -61 27q-19 0 -29 -9.5t-21 -38.5q-4 -8 -11 -7l-17 3q-7 4 -6 13q13 52 30 69.5t54 17.5zM276 542q131 0 173 -55q42 -54 42 -218
q0 -165 -42 -220q-42 -54 -173 -54q-130 0 -173 54q-42 56 -42 220t42 218q43 55 173 55zM276 494q-100 0 -131 -45q-30 -43 -30 -180t30 -182q32 -44 131 -44q101 0 131 44q31 44 31 182q0 137 -31 180q-30 45 -131 45z" />
    <glyph glyph-name="quoteleft" unicode="&#xf6;" horiz-adv-x="552" 
d="M235 664q0 -40 -39 -40t-39 40q0 38 39 38t39 -38zM357 702q39 0 39 -38q0 -40 -39 -40q-40 0 -40 40q0 38 40 38zM276 542q131 0 173 -55q42 -54 42 -218q0 -165 -42 -220q-42 -54 -173 -54q-130 0 -173 54q-42 56 -42 220t42 218q43 55 173 55zM276 494
q-100 0 -131 -45q-30 -43 -30 -180t30 -182q32 -44 131 -44q101 0 131 44q31 44 31 182q0 137 -31 180q-30 45 -131 45z" />
    <glyph glyph-name="quoteright.001" unicode="&#xf7;" horiz-adv-x="589" 
d="M332 462q0 -38 -37 -38t-37 38q0 36 37 36t37 -36zM81 340h426q10 0 10 -9v-33q0 -9 -10 -9h-426q-9 0 -9 9v33q0 9 9 9zM258 168q0 37 37 37t37 -37t-37 -37t-37 37z" />
    <glyph glyph-name="divide" unicode="&#xf8;" horiz-adv-x="552" 
d="M276 542q99 0 143 -31l19 26q7 7 13 3l23 -16q8 -5 2 -13l-22 -31q37 -53 37 -211q0 -165 -42 -220q-42 -54 -173 -54q-102 0 -146 32l-21 -30q-6 -9 -13 -3l-23 16q-7 6 -3 13l27 37q-36 55 -36 209q0 164 42 218q43 55 173 55zM276 494q-100 0 -131 -45
q-30 -43 -30 -180q0 -115 19 -157l254 355q-32 27 -112 27zM418 430l-256 -359q31 -28 114 -28q101 0 131 44q31 44 31 182q0 113 -20 161z" />
    <glyph glyph-name="lozenge" unicode="&#xf9;" horiz-adv-x="573" 
d="M182 741h42q6 0 9 -5l76 -119q3 -5 -2 -10l-12 -9q-5 -4 -10 1l-107 118q-4 4 -4 9v7q0 8 8 8zM451 535h35q9 0 9 -9v-511q0 -7 -11 -10q-67 -10 -202 -10q-63 0 -97.5 7.5t-61.5 28.5q-49 42 -49 183v312q0 9 10 9h34q9 0 9 -9v-312q0 -113 36 -144q20 -17 43.5 -22
t68.5 -5h167v483q0 9 9 9z" />
    <glyph glyph-name="ydieresis" unicode="&#xfa;" horiz-adv-x="573" 
d="M331 741h42q8 0 8 -8v-7q0 -5 -4 -9l-107 -118q-5 -5 -10 -1l-12 9q-5 5 -2 10l77 119q3 5 8 5zM451 535h35q9 0 9 -9v-511q0 -7 -11 -10q-67 -10 -202 -10q-63 0 -97.5 7.5t-61.5 28.5q-49 42 -49 183v312q0 9 10 9h34q9 0 9 -9v-312q0 -113 36 -144q20 -17 43.5 -22
t68.5 -5h167v483q0 9 9 9z" />
    <glyph glyph-name="Ydieresis.001" unicode="&#xfb;" horiz-adv-x="573" 
d="M273 741h24q7 0 10 -5l93 -119q4 -5 -1 -10l-13 -9q-4 -4 -10 1l-91 91l-91 -91q-6 -5 -10 -1l-13 9q-5 5 -1 10l93 119q3 5 10 5zM451 535h35q9 0 9 -9v-511q0 -7 -11 -10q-67 -10 -202 -10q-63 0 -97.5 7.5t-61.5 28.5q-49 42 -49 183v312q0 9 10 9h34q9 0 9 -9v-312
q0 -113 36 -144q20 -17 43.5 -22t68.5 -5h167v483q0 9 9 9z" />
    <glyph glyph-name="fraction" unicode="&#xfc;" horiz-adv-x="573" 
d="M205 702q39 0 39 -38q0 -40 -39 -40q-40 0 -40 40q0 38 40 38zM365 702q40 0 40 -38q0 -40 -40 -40q-39 0 -39 40q0 38 39 38zM451 535h35q9 0 9 -9v-511q0 -7 -11 -10q-67 -10 -202 -10q-63 0 -97.5 7.5t-61.5 28.5q-49 42 -49 183v312q0 9 10 9h34q9 0 9 -9v-312
q0 -113 36 -144q20 -17 43.5 -22t68.5 -5h167v483q0 9 9 9z" />
    <glyph glyph-name="currency" unicode="&#xfd;" horiz-adv-x="571" 
d="M341 741h43q7 0 7 -8v-7q0 -4 -3 -9l-108 -118q-5 -5 -10 -1l-12 9q-5 5 -2 10l77 119q3 5 8 5zM449 535h34q10 0 10 -9v-507q-2 -131 -43 -174q-41 -44 -172 -44q-71 0 -136 5q-9 0 -9 10v23q0 10 9 10h136q98 0 129 30q32 29 32 114v12q-81 -10 -158 -10
q-72 0 -110.5 11.5t-60.5 43.5q-23 35 -30 83q-7 46 -7 139v254q0 9 10 9h34q10 0 10 -9v-253q0 -110 14 -160q12 -39 45 -54.5t95 -15.5q79 0 158 11v472q0 9 10 9z" />
    <glyph glyph-name="guilsinglleft.001" unicode="&#xfe;" horiz-adv-x="559" 
d="M87 741h35q9 0 9 -10v-194q85 5 143 5q109 0 162 -32q27 -17 39 -50q23 -60 23 -188q0 -93 -7 -139q-7 -48 -30 -83q-22 -32 -60.5 -43.5t-110.5 -11.5q-83 0 -159 10v-189q0 -10 -9 -10h-35q-9 0 -9 10v915q0 10 9 10zM274 494h-143v-440q88 -11 159 -11q100 0 127 43
q28 43 28 187q0 39 -2 79q-5 73 -26 99q-18 24 -51 33.5t-92 9.5z" />
    <glyph glyph-name="guilsinglright.001" unicode="&#xff;" horiz-adv-x="571" 
d="M255 664q0 -40 -39 -40t-39 40q0 38 39 38t39 -38zM376 702q40 0 40 -38q0 -40 -40 -40q-39 0 -39 40q0 38 39 38zM449 535h34q10 0 10 -9v-507q-2 -131 -43 -174q-41 -44 -172 -44q-71 0 -136 5q-9 0 -9 10v23q0 10 9 10h136q98 0 129 30q32 29 32 114v12
q-81 -10 -158 -10q-72 0 -110.5 11.5t-60.5 43.5q-23 35 -30 83q-7 46 -7 139v254q0 9 10 9h34q10 0 10 -9v-253q0 -110 14 -160q12 -39 45 -54.5t95 -15.5q79 0 158 11v472q0 9 10 9z" />
    <glyph glyph-name="fi" unicode="&#x100;" horiz-adv-x="643" 
d="M200 876h242q9 0 9 -9v-26q0 -9 -9 -9l-242 1q-9 0 -9 8v26q0 9 9 9zM321 746q57 0 75 -19q18 -20 39 -95l173 -622q1 -10 -7 -10h-41q-5 0 -8 9l-68 241h-325l-68 -241q-3 -9 -9 -9h-41q-9 0 -8 10l177 622q21 74 39 94q20 20 72 20zM321 697q-25 0 -34 -13
q-9 -14 -24 -65l-90 -319h297l-88 319q-15 54 -25 65q-9 13 -36 13z" />
    <glyph glyph-name="fl.001" unicode="&#x101;" horiz-adv-x="514" 
d="M132 676h241q10 0 10 -9v-26q0 -9 -10 -9h-241q-9 0 -9 9v26q0 9 9 9zM225 542q106 0 160.5 -36.5t54.5 -120.5v-351q0 -18 -18 -23q-51 -16 -201 -16q-101 0 -141 34q-39 35 -39 122q0 75 38 108.5t123 33.5h185v86q0 62 -40.5 88.5t-121.5 26.5h-124q-9 0 -9 9v22
q0 8 8 10q55 7 125 7zM387 54v192h-185q-58 0 -82.5 -22t-24.5 -73q0 -61 29 -85t106 -24q104 0 157 12z" />
    <glyph glyph-name="daggerdbl.001" unicode="&#x102;" horiz-adv-x="643" 
d="M425 928h21q10 0 9 -10q-5 -65 -33 -89q-29 -23 -101 -23t-101 23q-27 24 -32 89q-1 10 8 10h21q8 0 10 -8q6 -41 25.5 -56.5t68.5 -15.5t68.5 15t25.5 57q3 8 10 8zM321 746q57 0 75 -19q18 -20 39 -95l173 -622q1 -10 -7 -10h-41q-5 0 -8 9l-68 241h-325l-68 -241
q-3 -9 -9 -9h-41q-9 0 -8 10l177 622q21 74 39 94q20 20 72 20zM321 697q-25 0 -34 -13q-9 -14 -24 -65l-90 -319h297l-88 319q-15 54 -25 65q-9 13 -36 13z" />
    <glyph glyph-name="middot" unicode="&#x103;" horiz-adv-x="514" 
d="M357 728h21q9 0 8 -10q-5 -65 -33 -89q-28 -23 -100 -23t-101 23q-28 24 -33 89q0 10 9 10h21q7 0 10 -8q6 -41 25.5 -56.5t68.5 -15.5t68.5 15.5t25.5 56.5q2 8 10 8zM225 542q106 0 160.5 -36.5t54.5 -120.5v-351q0 -18 -18 -23q-51 -16 -201 -16q-101 0 -141 34
q-39 35 -39 122q0 75 38 108.5t123 33.5h185v86q0 62 -40.5 88.5t-121.5 26.5h-124q-9 0 -9 9v22q0 8 8 10q55 7 125 7zM387 54v192h-185q-58 0 -82.5 -22t-24.5 -73q0 -61 29 -85t106 -24q104 0 157 12z" />
    <glyph glyph-name="quotesinglbase.001" unicode="&#x104;" horiz-adv-x="643" 
d="M321 746q57 0 75 -19q18 -20 39 -95l173 -622q1 -10 -7 -10h-13q-12 -50 -12 -71q0 -26 10.5 -34t41.5 -8h40q10 0 10 -9v-19q0 -9 -8 -12q-37 -5 -51 -5q-46 0 -65 16.5t-19 58.5q0 39 17 92l-68 241h-325l-68 -241q-3 -9 -9 -9h-41q-9 0 -8 10l177 622q21 74 39 94
q20 20 72 20zM321 697q-25 0 -34 -13q-9 -14 -24 -65l-90 -319h297l-88 319q-15 54 -25 65q-9 13 -36 13z" />
    <glyph glyph-name="quotedblbase.001" unicode="&#x105;" horiz-adv-x="514" 
d="M409 -113h41q9 0 9 -9v-19q0 -9 -8 -12q-37 -5 -50 -5q-46 0 -65.5 16.5t-19.5 58.5q0 23 12 82q-44 -4 -107 -4q-101 0 -141 34q-39 35 -39 122q0 75 38 108.5t123 33.5h185v86q0 62 -40.5 88.5t-121.5 26.5h-124q-9 0 -9 9v22q0 8 8 10q55 7 125 7q106 0 160.5 -36.5
t54.5 -120.5v-351q0 -18 -18 -23q-16 -6 -53 -9q-12 -55 -12 -73q0 -26 10.5 -34t41.5 -8zM95 151q0 -61 29 -85t106 -24q104 0 157 12v192h-185q-58 0 -82.5 -22t-24.5 -73z" />
    <glyph glyph-name="perthousand" unicode="&#x106;" horiz-adv-x="575" 
d="M391 941h42q7 0 7 -8v-7q0 -4 -3 -9l-107 -118q-6 -5 -10 -1l-13 9q-5 5 -1 10l76 119q3 5 9 5zM355 746q103 0 173 -5q9 0 9 -9v-26q0 -9 -9 -9h-173q-76 0 -120 -15.5t-70 -54.5q-25 -38 -34.5 -96t-9.5 -161t9.5 -160.5t34.5 -95.5q26 -39 70 -54.5t120 -15.5h173
q9 0 9 -9v-26q0 -9 -9 -9q-70 -5 -173 -5q-92 0 -146 18t-86 62q-32 45 -44.5 112.5t-12.5 182.5q0 172 33 256q30 66 88 92t168 28z" />
    <glyph glyph-name="Acircumflex" unicode="&#x107;" horiz-adv-x="466" 
d="M312 741h43q7 0 7 -8v-7q0 -4 -3 -9l-107 -118q-5 -5 -11 -1l-12 9q-5 5 -2 10l77 119q3 5 8 5zM276 542q96 0 145 -6q9 -2 9 -9v-24q0 -9 -10 -9h-144q-100 0 -131 -45q-30 -43 -30 -180t30 -182q32 -44 131 -44h144q10 0 10 -10v-23q0 -8 -9 -9q-49 -6 -145 -6
q-130 0 -173 54q-42 56 -42 220t42 218q43 55 173 55z" />
    <glyph glyph-name="Ecircumflex" unicode="&#x108;" horiz-adv-x="575" 
d="M325 941h24q7 0 10 -5l93 -119q5 -5 -2 -10l-12 -9q-4 -4 -10 1l-91 91l-92 -91q-5 -5 -10 -1l-12 9q-5 5 -2 10l94 119q3 5 10 5zM355 746q103 0 173 -5q9 0 9 -9v-26q0 -9 -9 -9h-173q-76 0 -120 -15.5t-70 -54.5q-25 -38 -34.5 -96t-9.5 -161t9.5 -160.5t34.5 -95.5
q26 -39 70 -54.5t120 -15.5h173q9 0 9 -9v-26q0 -9 -9 -9q-70 -5 -173 -5q-92 0 -146 18t-86 62q-32 45 -44.5 112.5t-12.5 182.5q0 172 33 256q30 66 88 92t168 28z" />
    <glyph glyph-name="Aacute" unicode="&#x109;" horiz-adv-x="466" 
d="M249 741h24q7 0 10 -5l94 -119q3 -5 -2 -10l-12 -9q-5 -4 -10 1l-92 91l-91 -91q-6 -5 -10 -1l-12 9q-7 5 -2 10l93 119q3 5 10 5zM276 542q96 0 145 -6q9 -2 9 -9v-24q0 -9 -10 -9h-144q-100 0 -131 -45q-30 -43 -30 -180t30 -182q32 -44 131 -44h144q10 0 10 -10v-23
q0 -8 -9 -9q-49 -6 -145 -6q-130 0 -173 54q-42 56 -42 220t42 218q43 55 173 55z" />
    <glyph glyph-name="Edieresis" unicode="&#x10a;" horiz-adv-x="575" 
d="M388 864q0 -40 -39 -40t-39 40q0 38 39 38t39 -38zM355 746q103 0 173 -5q9 0 9 -9v-26q0 -9 -9 -9h-173q-76 0 -120 -15.5t-70 -54.5q-25 -38 -34.5 -96t-9.5 -161t9.5 -160.5t34.5 -95.5q26 -39 70 -54.5t120 -15.5h173q9 0 9 -9v-26q0 -9 -9 -9q-70 -5 -173 -5
q-92 0 -146 18t-86 62q-32 45 -44.5 112.5t-12.5 182.5q0 172 33 256q30 66 88 92t168 28z" />
    <glyph glyph-name="Egrave" unicode="&#x10b;" horiz-adv-x="466" 
d="M284 664q0 -40 -39 -40t-39 40q0 38 39 38t39 -38zM276 542q96 0 145 -6q9 -2 9 -9v-24q0 -9 -10 -9h-144q-100 0 -131 -45q-30 -43 -30 -180t30 -182q32 -44 131 -44h144q10 0 10 -10v-23q0 -8 -9 -9q-49 -6 -145 -6q-130 0 -173 54q-42 56 -42 220t42 218q43 55 173 55
z" />
    <glyph glyph-name="Iacute" unicode="&#x10c;" horiz-adv-x="575" 
d="M444 939l12 -10q6 -3 2 -10l-93 -118q-3 -5 -10 -5h-24q-7 0 -10 5l-94 118q-3 7 2 10l12 10q5 4 10 -1l92 -91l91 91q6 6 10 1zM355 746q103 0 173 -5q9 0 9 -9v-26q0 -9 -9 -9h-173q-76 0 -120 -15.5t-70 -54.5q-25 -38 -34.5 -96t-9.5 -161t9.5 -160.5t34.5 -95.5
q26 -39 70 -54.5t120 -15.5h173q9 0 9 -9v-26q0 -9 -9 -9q-70 -5 -173 -5q-92 0 -146 18t-86 62q-32 45 -44.5 112.5t-12.5 182.5q0 172 33 256q30 66 88 92t168 28z" />
    <glyph glyph-name="Icircumflex" unicode="&#x10d;" horiz-adv-x="466" 
d="M372 739l12 -10q6 -5 2 -10l-93 -118q-5 -5 -11 -5h-23q-6 0 -11 5l-93 118q-4 5 2 10l12 10q5 4 10 -1l91 -91l92 91q5 5 10 1zM276 542q96 0 145 -6q9 -2 9 -9v-24q0 -9 -10 -9h-144q-100 0 -131 -45q-30 -43 -30 -180t30 -182q32 -44 131 -44h144q10 0 10 -10v-23
q0 -8 -9 -9q-49 -6 -145 -6q-130 0 -173 54q-42 56 -42 220t42 218q43 55 173 55z" />
    <glyph glyph-name="Idieresis" unicode="&#x10e;" horiz-adv-x="727" 
d="M442 939l13 -10q5 -4 1 -10l-93 -118q-3 -5 -10 -5h-24q-7 0 -10 5l-93 118q-4 6 1 10l13 10q4 5 10 -1l91 -91l91 91q6 6 10 1zM371 746q168 0 230 -83t62 -292q0 -211 -62 -294q-61 -82 -230 -82q-202 0 -270 4q-10 0 -10 9v725q0 9 10 9q68 4 270 4zM364 697h-217
v-653h224q137 0 187 71t50 256q0 184 -52 254q-51 72 -192 72z" />
    <glyph glyph-name="Igrave" unicode="&#x10f;" horiz-adv-x="588" 
d="M438 741h34q10 0 10 -10v-706q0 -12 -13 -15q-103 -15 -199 -15q-72 0 -110.5 11.5t-60.5 43.5q-23 35 -30 83q-7 46 -7 139q0 128 22 188q22 47 65 63.5t137 18.5q56 0 143 -5v194q0 10 9 10zM615 741h39q7 0 7 -8v-7q0 -4 -3 -9l-89 -118q-5 -5 -10 -1l-12 9
q-5 5 -2 10l61 119q3 5 9 5zM429 54v440h-143q-59 0 -92 -9.5t-51 -33.5q-11 -13 -18 -42q-10 -45 -10 -136q0 -80 5 -118t21 -66q17 -27 45.5 -36.5t83.5 -9.5q71 0 159 11z" />
    <glyph glyph-name="Oacute" unicode="&#x110;" horiz-adv-x="731" 
d="M375 746q168 0 230 -83t62 -292q0 -211 -62 -294q-61 -82 -230 -82q-202 0 -270 4q-10 0 -10 9v332h-70q-9 0 -9 8v27q0 9 9 9h70v349q0 9 10 9q68 4 270 4zM151 340v-296h224q137 0 187 71t50 256q0 184 -52 254q-51 72 -192 72h-217v-313h176q10 0 10 -9v-27
q0 -9 -10 -9z" />
    <glyph glyph-name="Ocircumflex" unicode="&#x111;" horiz-adv-x="560" 
d="M482 731v-78h62q9 0 9 -9v-21q0 -9 -9 -9h-62v-589q0 -12 -13 -15q-103 -15 -199 -15q-72 0 -110.5 11.5t-60.5 43.5q-23 35 -30 83q-7 46 -7 139q0 128 22 188q22 47 65 63.5t137 18.5q56 0 143 -5v77h-155q-9 0 -9 9v21q0 9 9 9h155v78q0 10 9 10h34q10 0 10 -10z
M429 54v440h-143q-59 0 -92 -9.5t-51 -33.5q-11 -13 -18 -42q-10 -45 -10 -136q0 -80 5 -118t21 -66q17 -27 45.5 -36.5t83.5 -9.5q71 0 159 11z" />
    <glyph glyph-name="apple" unicode="&#x112;" 
d="M188 876h242q9 0 9 -9v-26q0 -9 -9 -9l-242 1q-9 0 -9 8v26q0 9 9 9zM106 741h438q9 0 9 -9v-31q0 -9 -9 -9h-397v-312h360q9 0 9 -10v-31q0 -9 -9 -9h-360v-281h397q9 0 9 -9v-31q0 -9 -9 -9h-438q-15 0 -15 14v712q0 15 15 15z" />
    <glyph glyph-name="Ograve" unicode="&#x113;" horiz-adv-x="525" 
d="M148 676h242q9 0 9 -9v-26q0 -9 -9 -9h-242q-9 0 -9 9v26q0 9 9 9zM272 542q121 0 162 -50q40 -49 42 -202v-29q0 -12 -4 -15.5t-18 -3.5h-339q1 -119 32 -160q30 -39 125 -39h149q10 0 10 -10v-23q0 -8 -9 -9q-50 -6 -150 -6q-130 0 -170 54q-40 53 -40 220q0 90 8 138
t31 80t61.5 43.5t109.5 11.5zM272 494q-96 0 -126 -40q-29 -38 -31 -163h308q-2 125 -30 164q-29 39 -121 39z" />
    <glyph glyph-name="Uacute" unicode="&#x114;" 
d="M437 928h21q9 0 8 -10q-5 -65 -33 -89q-28 -23 -100 -23t-101 23q-28 24 -33 89q0 10 9 10h21q7 0 10 -8q6 -41 25.5 -56.5t68.5 -15.5t68.5 15.5t25.5 56.5q2 8 10 8zM106 741h438q9 0 9 -9v-31q0 -9 -9 -9h-397v-312h360q9 0 9 -10v-31q0 -9 -9 -9h-360v-281h397
q9 0 9 -9v-31q0 -9 -9 -9h-438q-15 0 -15 14v712q0 15 15 15z" />
    <glyph glyph-name="Ucircumflex" unicode="&#x115;" horiz-adv-x="525" 
d="M373 728h21q9 0 9 -10q-5 -65 -33 -89q-29 -23 -101 -23t-101 23q-27 24 -32 89q-1 10 8 10h21q8 0 10 -8q6 -41 25.5 -56.5t68.5 -15.5t68.5 15.5t25.5 56.5q3 8 10 8zM272 542q121 0 162 -50q40 -49 42 -202v-29q0 -12 -4 -15.5t-18 -3.5h-339q1 -119 32 -160
q30 -39 125 -39h149q10 0 10 -10v-23q0 -8 -9 -9q-50 -6 -150 -6q-130 0 -170 54q-40 53 -40 220q0 90 8 138t31 80t61.5 43.5t109.5 11.5zM272 494q-96 0 -126 -40q-29 -38 -31 -163h308q-2 125 -30 164q-29 39 -121 39z" />
    <glyph glyph-name="Ugrave" unicode="&#x116;" 
d="M330 902q38 0 38 -38q0 -40 -38 -40q-40 0 -40 40q0 38 40 38zM106 741h438q9 0 9 -9v-31q0 -9 -9 -9h-397v-312h360q9 0 9 -10v-31q0 -9 -9 -9h-360v-281h397q9 0 9 -9v-31q0 -9 -9 -9h-438q-15 0 -15 14v712q0 15 15 15z" />
    <glyph glyph-name="dotlessi" unicode="&#x117;" horiz-adv-x="525" 
d="M308 664q0 -40 -39 -40t-39 40q0 38 39 38t39 -38zM272 542q121 0 162 -50q40 -49 42 -202v-29q0 -12 -4 -15.5t-18 -3.5h-339q1 -119 32 -160q30 -39 125 -39h149q10 0 10 -10v-23q0 -8 -9 -9q-50 -6 -150 -6q-130 0 -170 54q-40 53 -40 220q0 90 8 138t31 80t61.5 43.5
t109.5 11.5zM272 494q-96 0 -126 -40q-29 -38 -31 -163h308q-2 125 -30 164q-29 39 -121 39z" />
    <glyph glyph-name="circumflex" unicode="&#x118;" 
d="M106 741h438q9 0 9 -9v-31q0 -9 -9 -9h-397v-312h360q9 0 9 -10v-31q0 -9 -9 -9h-360v-281h397q9 0 9 -9v-31q0 -9 -9 -9h-86q-11 -49 -11 -71q0 -26 10 -34t41 -8h41q9 0 9 -9v-19q0 -9 -8 -12q-37 -5 -50 -5q-46 0 -65.5 16.5t-19.5 58.5q0 30 14 83h-313q-15 0 -15 14
v712q0 15 15 15z" />
    <glyph glyph-name="tilde.001" unicode="&#x119;" horiz-adv-x="525" 
d="M272 542q121 0 162 -50q40 -49 42 -202v-29q0 -12 -4 -15.5t-18 -3.5h-339q1 -119 32 -160q30 -39 125 -39h149q10 0 10 -10v-23q0 -8 -9 -9q-38 -3 -50 -4q-11 -44 -11 -68q0 -26 10.5 -34t41.5 -8h41q9 0 9 -9v-19q0 -9 -8 -12q-37 -5 -50 -5q-46 0 -65.5 16.5
t-19.5 58.5q0 31 12 79l-60 -1q-130 0 -170 54q-40 53 -40 220q0 90 8 138t31 80t61.5 43.5t109.5 11.5zM272 494q-96 0 -126 -40q-29 -38 -31 -163h308q-2 125 -30 164q-29 39 -121 39z" />
    <glyph glyph-name="overscore" unicode="&#x11a;" 
d="M411 939l12 -10q5 -3 2 -10l-94 -118q-3 -5 -10 -5h-24q-7 0 -10 5l-93 118q-4 7 2 10l12 10q4 5 10 -1l91 -91l92 91q5 5 10 1zM106 741h438q9 0 9 -9v-31q0 -9 -9 -9h-397v-312h360q9 0 9 -10v-31q0 -9 -9 -9h-360v-281h397q9 0 9 -9v-31q0 -9 -9 -9h-438q-15 0 -15 14
v712q0 15 15 15z" />
    <glyph glyph-name="breve" unicode="&#x11b;" horiz-adv-x="525" 
d="M371 739l12 -10q5 -3 2 -10l-94 -118q-3 -5 -10 -5h-24q-7 0 -10 5l-93 118q-4 7 2 10l12 10q4 5 10 -1l91 -91l92 91q5 5 10 1zM272 542q121 0 162 -50q40 -49 42 -202v-29q0 -12 -4 -15.5t-18 -3.5h-339q1 -119 32 -160q30 -39 125 -39h149q10 0 10 -10v-23q0 -8 -9 -9
q-50 -6 -150 -6q-130 0 -170 54q-40 53 -40 220q0 90 8 138t31 80t61.5 43.5t109.5 11.5zM272 494q-96 0 -126 -40q-29 -38 -31 -163h308q-2 125 -30 164q-29 39 -121 39z" />
    <glyph glyph-name="dotaccent" unicode="&#x11c;" horiz-adv-x="642" 
d="M329 941h24q7 0 10 -5l94 -119q3 -5 -2 -10l-12 -9q-5 -4 -10 1l-92 91l-91 -91q-5 -5 -10 -1l-12 9q-7 5 -2 10l93 119q5 5 10 5zM355 746q105 0 175 -5q9 0 9 -9v-26q0 -9 -10 -9h-174q-76 0 -120 -15.5t-70 -54.5q-25 -38 -34.5 -96t-9.5 -161t9.5 -160.5t34.5 -95.5
q26 -39 70 -54.5t120 -15.5h174v307q0 9 9 9h35q9 0 9 -9v-326q0 -7 -4 -11q-32 -19 -223 -19q-135 0 -203 48q-34 25 -53 71q-33 84 -33 256t33 256q30 66 88 92t168 28z" />
    <glyph glyph-name="ring.001" unicode="&#x11d;" horiz-adv-x="559" 
d="M275 741h24q7 0 10 -5l94 -119q3 -5 -2 -10l-12 -9q-5 -4 -10 1l-92 91l-91 -91q-5 -5 -10 -1l-12 9q-7 5 -2 10l93 119q3 5 10 5zM269 542q70 0 200 -8q12 -2 12 -15v-504q0 -67 -9 -105t-33 -64q-23 -25 -63 -35t-109 -10q-71 0 -134 5q-9 0 -9 10v23q0 10 9 10h134
q97 0 129 30q32 29 32 114v8q-62 -6 -142 -6q-79 0 -120 11t-65 43q-24 31 -32 80q-7 45 -7 135q0 92 7 138q7 50 30 84q22 33 60 44.5t110 11.5zM428 48v446h-159q-100 0 -127 -43q-27 -44 -27 -187q0 -39 2 -79q5 -73 26 -99q18 -24 51 -33.5t92 -9.5q77 0 142 5z" />
    <glyph glyph-name="cedilla" unicode="&#x11e;" horiz-adv-x="642" 
d="M438 928h21q10 0 9 -10q-5 -65 -33 -89q-29 -23 -101 -23t-101 23q-27 24 -32 89q-1 10 8 10h21q8 0 10 -8q6 -41 25.5 -56.5t68.5 -15.5t68.5 15t25.5 57q3 8 10 8zM355 746q105 0 175 -5q9 0 9 -9v-26q0 -9 -10 -9h-174q-76 0 -120 -15.5t-70 -54.5q-25 -38 -34.5 -96
t-9.5 -161t9.5 -160.5t34.5 -95.5q26 -39 70 -54.5t120 -15.5h174v307q0 9 9 9h35q9 0 9 -9v-326q0 -7 -4 -11q-32 -19 -223 -19q-135 0 -203 48q-34 25 -53 71q-33 84 -33 256t33 256q30 66 88 92t168 28z" />
    <glyph glyph-name="hungarumlaut" unicode="&#x11f;" horiz-adv-x="559" 
d="M391 728h21q10 0 9 -10q-5 -65 -33 -89q-29 -23 -101 -23t-101 23q-27 24 -32 89q-1 10 8 10h21q8 0 10 -8q6 -41 25.5 -56.5t68.5 -15.5t68.5 15t26.5 57q2 8 9 8zM269 542q70 0 200 -8q12 -2 12 -15v-504q0 -67 -9 -105t-33 -64q-23 -25 -63 -35t-109 -10q-71 0 -134 5
q-9 0 -9 10v23q0 10 9 10h134q97 0 129 30q32 29 32 114v8q-62 -6 -142 -6q-79 0 -120 11t-65 43q-24 31 -32 80q-7 45 -7 135q0 92 7 138q7 50 30 84q22 33 60 44.5t110 11.5zM428 48v446h-159q-100 0 -127 -43q-27 -44 -27 -187q0 -39 2 -79q5 -73 26 -99q18 -24 51 -33.5
t92 -9.5q77 0 142 5z" />
    <glyph glyph-name="ogonek.001" unicode="&#x120;" horiz-adv-x="642" 
d="M335 902q38 0 38 -38q0 -40 -38 -40q-40 0 -40 40q0 38 40 38zM355 746q105 0 175 -5q9 0 9 -9v-26q0 -9 -10 -9h-174q-76 0 -120 -15.5t-70 -54.5q-25 -38 -34.5 -96t-9.5 -161t9.5 -160.5t34.5 -95.5q26 -39 70 -54.5t120 -15.5h174v307q0 9 9 9h35q9 0 9 -9v-326
q0 -7 -4 -11q-32 -19 -223 -19q-135 0 -203 48q-34 25 -53 71q-33 84 -33 256t33 256q30 66 88 92t168 28z" />
    <glyph glyph-name="caron" unicode="&#x121;" horiz-adv-x="559" 
d="M326 664q0 -40 -39 -40t-39 40q0 38 39 38t39 -38zM269 542q70 0 200 -8q12 -2 12 -15v-504q0 -67 -9 -105t-33 -64q-23 -25 -63 -35t-109 -10q-71 0 -134 5q-9 0 -9 10v23q0 10 9 10h134q97 0 129 30q32 29 32 114v8q-62 -6 -142 -6q-79 0 -120 11t-65 43q-24 31 -32 80
q-7 45 -7 135q0 92 7 138q7 50 30 84q22 33 60 44.5t110 11.5zM428 48v446h-159q-100 0 -127 -43q-27 -44 -27 -187q0 -39 2 -79q5 -73 26 -99q18 -24 51 -33.5t92 -9.5q77 0 142 5z" />
    <glyph glyph-name="Lslash" unicode="&#x122;" horiz-adv-x="642" 
d="M355 746q105 0 175 -5q9 0 9 -9v-26q0 -9 -10 -9h-174q-76 0 -120 -15.5t-70 -54.5q-25 -38 -34.5 -96t-9.5 -161t9.5 -160.5t34.5 -95.5q26 -39 70 -54.5t120 -15.5h174v307q0 9 9 9h35q9 0 9 -9v-326q0 -7 -4 -11q-32 -19 -223 -19q-135 0 -203 48q-34 25 -53 71
q-33 84 -33 256t33 256q30 66 88 92t168 28zM343 -37h38q7 0 7 -7v-7q0 -6 -3 -9l-103 -119q-4 -4 -10 0l-12 9q-7 5 -2 10l76 119q3 4 9 4z" />
    <glyph glyph-name="lslash" unicode="&#x123;" horiz-adv-x="559" 
d="M380 739l12 -9q5 -5 2 -10l-77 -119q-3 -4 -8 -4h-38q-8 0 -8 7v8q0 5 4 8l103 119q4 4 10 0zM269 542q70 0 200 -8q12 -2 12 -15v-504q0 -67 -9 -105t-33 -64q-23 -25 -63 -35t-109 -10q-71 0 -134 5q-9 0 -9 10v23q0 10 9 10h134q97 0 129 30q32 29 32 114v8
q-62 -6 -142 -6q-79 0 -120 11t-65 43q-24 31 -32 80q-7 45 -7 135q0 92 7 138q7 50 30 84q22 33 60 44.5t110 11.5zM428 48v446h-159q-100 0 -127 -43q-27 -44 -27 -187q0 -39 2 -79q5 -73 26 -99q18 -24 51 -33.5t92 -9.5q77 0 142 5z" />
    <glyph glyph-name="Scaron.001" unicode="&#x124;" horiz-adv-x="761" 
d="M374 941h23q6 0 11 -5l93 -119q3 -5 -2 -10l-12 -9q-5 -4 -10 1l-91 91l-92 -91q-5 -5 -10 -1l-12 9q-5 5 -2 10l93 119q5 5 11 5zM624 741h37q9 0 9 -9v-723q0 -9 -9 -9h-37q-9 0 -9 9v348h-469v-348q0 -9 -9 -9h-37q-9 0 -9 9v723q0 9 9 9h37q9 0 9 -9v-325h469v325
q0 9 9 9z" />
    <glyph glyph-name="scaron.001" unicode="&#x125;" horiz-adv-x="574" 
d="M91 909h24q7 0 10 -5l94 -118q3 -5 -2 -10l-12 -9q-5 -5 -11 0l-91 91l-91 -91q-5 -5 -10 0l-13 9q-5 6 -1 10l93 118q3 5 10 5zM87 741h35q9 0 9 -10v-194q68 5 160 5q64 0 98 -7.5t60 -29.5q50 -42 50 -183v-313q0 -9 -9 -9h-35q-9 0 -9 9v313q0 115 -37 145
q-19 17 -42.5 22t-68.5 5h-167v-485q0 -9 -9 -9h-35q-9 0 -9 9v722q0 10 9 10z" />
    <glyph glyph-name="Zcaron" unicode="&#x126;" horiz-adv-x="762" 
d="M671 732v-74h42q9 0 9 -10v-25q0 -10 -9 -10h-42v-604q0 -9 -10 -9h-36q-10 0 -10 9v348h-468v-348q0 -9 -10 -9h-36q-10 0 -10 9v604h-43q-9 0 -9 9v26q0 10 9 10h43v74q0 9 10 9h36q10 0 10 -9v-74h468v74q0 9 10 9h36q10 0 10 -9zM147 407h468v206h-468v-206z" />
    <glyph glyph-name="zcaron" unicode="&#x127;" horiz-adv-x="574" 
d="M291 542q64 0 98 -7.5t60 -29.5q50 -42 50 -183v-313q0 -9 -9 -9h-35q-9 0 -9 9v313q0 115 -37 145q-19 17 -42.5 22t-68.5 5h-167v-485q0 -9 -9 -9h-35q-9 0 -9 9v605h-62q-10 0 -10 9v21q0 9 10 9h62v78q0 10 9 10h35q9 0 9 -10v-78h155q9 0 9 -9v-20q0 -10 -9 -10
h-155v-77q68 5 160 5z" />
    <glyph glyph-name="brokenbar" unicode="&#x128;" horiz-adv-x="238" 
d="M54 917q22 0 67 -27q46 -26 61 -26q20 0 30.5 9.5t19.5 36.5q3 9 11 7l16 -3q10 -1 7 -13q-13 -51 -29.5 -68t-53.5 -17q-20 0 -67 26q-46 27 -61 27q-19 0 -29 -9.5t-21 -38.5q-4 -8 -11 -7l-17 3q-9 3 -6 13q13 52 30 69.5t53 17.5zM101 741h36q10 0 10 -9v-723
q0 -9 -10 -9h-36q-10 0 -10 9v723q0 9 10 9z" />
    <glyph glyph-name="Eth" unicode="&#x129;" horiz-adv-x="209" 
d="M40 717q22 0 67 -27q46 -26 60 -26q21 0 31.5 9.5t18.5 36.5q3 9 11 7l17 -3q10 -1 7 -13q-13 -51 -30 -68t-54 -17q-20 0 -67 26q-45 27 -61 27q-19 0 -29 -9.5t-21 -38.5q-4 -8 -11 -7l-16 3q-10 3 -7 13q14 52 31 70q17 17 53 17zM87 535h35q9 0 9 -9v-517q0 -9 -9 -9
h-35q-9 0 -9 9v517q0 9 9 9z" />
    <glyph glyph-name="eth" unicode="&#x12a;" horiz-adv-x="238" 
d="M-3 876h242q9 0 9 -9v-26q0 -9 -9 -9l-242 1q-9 0 -9 8v26q0 9 9 9zM101 741h36q10 0 10 -9v-723q0 -9 -10 -9h-36q-10 0 -10 9v723q0 9 10 9z" />
    <glyph glyph-name="Yacute" unicode="&#x12b;" horiz-adv-x="209" 
d="M-16 676h241q9 0 9 -9v-26q0 -9 -9 -9h-241q-10 0 -10 9v26q0 9 10 9zM87 535h35q9 0 9 -9v-517q0 -9 -9 -9h-35q-9 0 -9 9v517q0 9 9 9z" />
    <glyph glyph-name="yacute" unicode="&#x12e;" horiz-adv-x="238" 
d="M101 741h36q10 0 10 -9v-724q0 -8 -8 -8h-9q-12 -50 -12 -71q0 -26 10.5 -34t41.5 -8h40q10 0 10 -9v-19q0 -9 -8 -12q-37 -5 -51 -5q-46 0 -65 16.5t-19 58.5q0 32 14 86v729q0 9 10 9z" />
    <glyph glyph-name="Thorn" unicode="&#x12f;" horiz-adv-x="209" 
d="M144 664q0 -40 -39 -40t-39 40q0 38 39 38t39 -38zM87 535h35q9 0 9 -9v-518q0 -8 -7 -8h-7q-12 -50 -12 -71q0 -26 10.5 -34t41.5 -8h40q10 0 10 -9v-19q0 -9 -8 -12q-37 -5 -51 -5q-46 0 -65 16.5t-19 58.5q0 32 14 86v523q0 9 9 9z" />
    <glyph glyph-name="thorn" unicode="&#x130;" horiz-adv-x="238" 
d="M157 864q0 -40 -39 -40t-39 40q0 38 39 38t39 -38zM101 741h36q10 0 10 -9v-723q0 -9 -10 -9h-36q-10 0 -10 9v723q0 9 10 9z" />
    <glyph glyph-name="minus.001" unicode="&#x131;" horiz-adv-x="209" 
d="M87 535h35q9 0 9 -9v-517q0 -9 -9 -9h-35q-9 0 -9 9v517q0 9 9 9z" />
    <glyph glyph-name="multiply" unicode="&#x132;" horiz-adv-x="789" 
d="M101 741h36q10 0 10 -9v-723q0 -9 -10 -9h-36q-10 0 -10 9v723q0 9 10 9zM368 741h322q15 0 15 -15l2 -348q0 -117 -13 -185q-14 -71 -49 -117q-34 -45 -91 -63t-152 -18q-72 0 -139 5q-9 0 -9 9v26q0 9 10 9h138q152 0 201 69t48 265l-1 314h-282q-9 0 -9 9v31q0 9 9 9z
" />
    <glyph glyph-name="onesuperior" unicode="&#x133;" horiz-adv-x="419" 
d="M104 713q37 0 37 -36q0 -38 -37 -38q-36 0 -36 38q0 36 36 36zM87 535h35q9 0 9 -9v-517q0 -9 -9 -9h-35q-9 0 -9 9v517q0 9 9 9zM352 677q0 -38 -37 -38t-37 38q0 36 37 36t37 -36zM297 535h35q9 0 9 -9v-640q0 -57 -33 -71q-22 -10 -51 -10q-34 0 -49 3q-8 2 -8 9v26
q0 9 9 9h37q16 0 23.5 2.5t13 14t5.5 35.5v622q0 9 9 9z" />
    <glyph glyph-name="twosuperior" unicode="&#x134;" horiz-adv-x="546" 
d="M272 941h24q7 0 10 -5l93 -119q5 -5 -2 -10l-12 -9q-5 -4 -10 1l-91 91l-92 -91q-5 -5 -10 -1l-12 9q-5 5 -2 10l94 119q3 5 10 5zM125 741h322q15 0 15 -15l2 -348q0 -117 -13 -185q-14 -71 -49 -117q-34 -45 -91 -63t-152 -18q-72 0 -139 5q-9 0 -9 9v26q0 9 10 9h138
q151 0 201 69q49 69 48 265l-1 314h-282q-9 0 -9 9v31q0 9 9 9z" />
    <glyph glyph-name="threesuperior" unicode="&#x135;" horiz-adv-x="210" 
d="M92 741h24q7 0 10 -5l94 -119q3 -5 -2 -10l-12 -9q-5 -4 -10 1l-92 91l-91 -91q-5 -5 -10 -1l-12 9q-7 5 -2 10l93 119q3 5 10 5zM88 535h35q9 0 9 -9v-640q-1 -84 -84 -81q-34 0 -49 3q-8 2 -8 9v26q0 9 10 9h36q16 0 23.5 2.5t13 14t5.5 35.5v622q0 9 9 9z" />
    <glyph glyph-name="onehalf" unicode="&#x136;" horiz-adv-x="574" 
d="M494 741h43q7 0 8.5 -3.5t-3.5 -8.5l-339 -330l355 -384q6 -5 3.5 -10t-13.5 -5h-40q-10 0 -14 6l-347 378v-375q0 -9 -10 -9h-36q-10 0 -10 9v723q0 9 10 9h36q10 0 10 -9v-316l334 320q5 5 13 5zM300 -37h38q7 0 7 -7v-7q0 -6 -4 -9l-102 -119q-5 -5 -10 0l-13 9
q-6 6 -1 10l76 119q3 4 9 4z" />
    <glyph glyph-name="onequarter" unicode="&#x137;" horiz-adv-x="465" 
d="M88 741h34q9 0 9 -10v-391l198 189q5 6 18 6h46q7 0 8.5 -3.5t-3.5 -8.5l-208 -196l268 -313q9 -7 -1 -12l-9 -2h-37q-10 0 -18 8l-262 308v-306q0 -10 -9 -10h-34q-10 0 -10 10v721q0 10 10 10zM237 -37h38q8 0 8 -7v-7q0 -6 -4 -9l-103 -119q-4 -4 -10 0l-12 9
q-5 5 -2 10l77 119q3 4 8 4z" />
    <glyph glyph-name="threequarters" unicode="&#x138;" horiz-adv-x="472" 
d="M382 535h43q15 0 4 -12l-238 -236l262 -277q9 -11 -6 -11h-47q-8 0 -13 6l-253 264v-260q0 -9 -10 -9h-36q-10 0 -10 9v517q0 9 10 9h36q10 0 10 -9v-226l234 230q8 5 14 5z" />
    <glyph glyph-name="franc" unicode="&#x139;" horiz-adv-x="562" 
d="M185 941h42q7 0 7 -8v-7q0 -4 -3 -9l-107 -118q-6 -5 -10 -1l-12 9q-7 5 -2 10l76 119q3 5 9 5zM101 741h36q10 0 10 -9v-683h391q10 0 10 -9v-31q0 -9 -10 -9h-432q-15 0 -15 14v718q0 9 10 9z" />
    <glyph glyph-name="Gbreve" unicode="&#x13a;" horiz-adv-x="209" 
d="M164 922h43q7 0 7 -7v-8q0 -5 -4 -8l-107 -119q-4 -4 -10 -1l-12 10q-5 5 -2 10l77 119q3 4 8 4zM87 741h35q9 0 9 -9v-723q0 -9 -9 -9h-35q-9 0 -9 9v723q0 9 9 9z" />
    <glyph glyph-name="gbreve" unicode="&#x13b;" horiz-adv-x="562" 
d="M101 741h36q10 0 10 -9v-683h391q10 0 10 -9v-31q0 -9 -10 -9h-432q-15 0 -15 14v718q0 9 10 9zM309 -37h38q7 0 7 -7v-7q0 -6 -4 -9l-102 -119q-6 -4 -10 0l-13 9q-5 6 -1 10l76 119q3 4 9 4z" />
    <glyph glyph-name="Idot" unicode="&#x13c;" horiz-adv-x="209" 
d="M87 741h35q9 0 9 -9v-723q0 -9 -9 -9h-35q-9 0 -9 9v723q0 9 9 9zM86 -37h38q7 0 7 -7v-7q0 -6 -3 -9l-103 -119q-4 -4 -10 0l-12 9q-5 5 -2 10l76 119q3 4 9 4z" />
    <glyph glyph-name="Scedilla.001" unicode="&#x13d;" horiz-adv-x="562" 
d="M101 741h36q10 0 10 -9v-683h391q10 0 10 -9v-31q0 -9 -10 -9h-432q-15 0 -15 14v718q0 9 10 9zM328 741h40q7 0 7 -8v-7q0 -5 -4 -9l-88 -118q-5 -5 -10 -1l-12 9q-5 5 -2 10l61 119q2 5 8 5z" />
    <glyph glyph-name="scedilla.001" unicode="&#x13e;" horiz-adv-x="238" 
d="M87 741h35q9 0 9 -9v-723q0 -9 -9 -9h-35q-9 0 -9 9v723q0 9 9 9zM251 741h39q8 0 8 -8v-7q0 -5 -4 -9l-88 -118q-5 -5 -10 -1l-12 9q-5 5 -2 10l61 119q2 5 8 5z" />
    <glyph glyph-name="Cacute" unicode="&#x13f;" horiz-adv-x="562" 
d="M101 741h36q10 0 10 -9v-683h391q10 0 10 -9v-31q0 -9 -10 -9h-432q-15 0 -15 14v718q0 9 10 9zM307 306q0 39 39 39t39 -39t-39 -39t-39 39z" />
    <glyph glyph-name="cacute" unicode="&#x140;" horiz-adv-x="258" 
d="M87 741h35q9 0 9 -9v-723q0 -9 -9 -9h-35q-9 0 -9 9v723q0 9 9 9zM194 306q0 39 39 39t39 -39t-39 -39t-39 39z" />
    <glyph glyph-name="Ccaron" unicode="&#x141;" horiz-adv-x="568" 
d="M153 329v-280h391q10 0 10 -9v-31q0 -9 -10 -9h-432q-15 0 -15 14v283l-66 -38q-10 -5 -11 4l-12 20q-6 6 3 12l86 49v388q0 9 10 9h36q10 0 10 -9v-355l107 61q8 6 13 -2l12 -20q5 -8 -4 -13z" />
    <glyph glyph-name="ccaron" unicode="&#x142;" horiz-adv-x="252" 
d="M102 741h35q9 0 9 -9v-369l62 35q10 6 13 -2l12 -20q5 -8 -3 -13l-84 -48v-306q0 -9 -9 -9h-35q-9 0 -9 9v275l-53 -30q-8 -5 -12 4l-12 20q-5 8 4 12l73 42v400q0 9 9 9z" />
    <glyph glyph-name="dslash" unicode="&#x143;" horiz-adv-x="755" 
d="M413 941h42q8 0 8 -8v-7q0 -5 -4 -9l-107 -118q-5 -5 -10 -1l-12 9q-5 5 -2 10l77 119q3 5 8 5zM618 741h37q9 0 9 -9v-723q0 -9 -9 -9h-39q-14 0 -23 12l-446 659v-662q0 -9 -10 -9h-36q-10 0 -10 9v723q0 9 10 9h42q21 0 33 -17l433 -639v647q0 9 9 9z" />
    <glyph glyph-name="nacute" unicode="&#x144;" horiz-adv-x="574" 
d="M324 741h43q7 0 7 -8v-7q0 -4 -3 -9l-108 -118q-5 -5 -10 -1l-12 9q-5 5 -2 10l77 119q3 5 8 5zM291 542q64 0 98 -7.5t60 -29.5q50 -42 50 -183v-313q0 -9 -10 -9h-34q-9 0 -9 9v313q0 115 -37 145q-19 17 -42.5 22t-68.5 5h-167v-485q0 -9 -9 -9h-35q-9 0 -9 9v512
q0 8 11 10q75 11 202 11z" />
    <glyph glyph-name="uni0145" unicode="&#x145;" horiz-adv-x="755" 
d="M618 741h37q9 0 9 -9v-723q0 -9 -9 -9h-39q-14 0 -23 12l-446 659v-662q0 -9 -10 -9h-36q-10 0 -10 9v723q0 9 10 9h42q21 0 33 -17l433 -639v647q0 9 9 9zM359 -37h38q7 0 7 -7v-7q0 -6 -4 -9l-102 -119q-6 -4 -10 0l-13 9q-5 6 -1 10l76 119q3 4 9 4z" />
    <glyph glyph-name="uni0146" unicode="&#x146;" horiz-adv-x="574" 
d="M291 542q64 0 98 -7.5t60 -29.5q50 -42 50 -183v-313q0 -9 -10 -9h-34q-9 0 -9 9v313q0 115 -37 145q-19 17 -42.5 22t-68.5 5h-167v-485q0 -9 -9 -9h-35q-9 0 -9 9v512q0 8 11 10q75 11 202 11zM261 -37h38q7 0 7 -7v-7q0 -6 -4 -9l-102 -119q-6 -4 -10 0l-13 9
q-5 6 -1 10l76 119q3 4 9 4z" />
    <glyph glyph-name="Ncaron" unicode="&#x147;" horiz-adv-x="755" 
d="M479 939l12 -10q6 -3 2 -10l-93 -118q-3 -5 -10 -5h-24q-7 0 -10 5l-94 118q-4 5 2 10l12 10q5 4 10 -1l92 -91l91 91q5 6 10 1zM618 741h37q9 0 9 -9v-723q0 -9 -9 -9h-39q-14 0 -23 12l-446 659v-662q0 -9 -10 -9h-36q-10 0 -10 9v723q0 9 10 9h42q21 0 33 -17
l433 -639v647q0 9 9 9z" />
    <glyph glyph-name="ncaron" unicode="&#x148;" horiz-adv-x="574" 
d="M391 739l12 -10q5 -3 2 -10l-94 -118q-3 -5 -10 -5h-24q-7 0 -10 5l-93 118q-4 6 1 10l13 10q4 5 10 -1l91 -91l91 91q5 5 11 1zM291 542q64 0 98 -7.5t60 -29.5q50 -42 50 -183v-313q0 -9 -10 -9h-34q-9 0 -9 9v313q0 115 -37 145q-19 17 -42.5 22t-68.5 5h-167v-485
q0 -9 -9 -9h-35q-9 0 -9 9v512q0 8 11 10q75 11 202 11z" />
    <glyph glyph-name="napostrophe" unicode="&#x149;" horiz-adv-x="574" 
d="M85 741h40q7 0 7 -8v-7q0 -5 -4 -9l-88 -118q-5 -5 -10 -1l-12 9q-5 5 -2 10l61 119q2 5 8 5zM291 542q64 0 98 -7.5t60 -29.5q50 -42 50 -183v-313q0 -9 -10 -9h-34q-9 0 -9 9v313q0 115 -37 145q-19 17 -42.5 22t-68.5 5h-167v-485q0 -9 -9 -9h-35q-9 0 -9 9v512
q0 8 11 10q75 11 202 11z" />
    <glyph glyph-name="Eng" unicode="&#x14a;" horiz-adv-x="755" 
d="M618 741h37q9 0 9 -9v-548q0 -76 -1 -102q0 -43 -4 -82q-6 -68 -31 -117q-12 -24 -29 -37t-48 -26q-46 -19 -143 -19q-54 0 -90 4q-9 1 -9 10v26q0 9 10 9h89q111 0 152 34t46 123l-459 664v-662q0 -9 -10 -9h-36q-10 0 -10 9v723q0 9 10 9h42q21 0 33 -17l433 -634v642
q0 9 9 9z" />
    <glyph glyph-name="eng" unicode="&#x14b;" horiz-adv-x="574" 
d="M291 542q64 0 98 -7.5t60 -29.5q50 -42 50 -183v-436q0 -57 -33 -71q-22 -10 -51 -10q-34 0 -49 3q-9 2 -9 9v26q0 9 10 9h37q16 0 23.5 2.5t13 14t5.5 35.5v418q0 115 -37 145q-19 17 -42.5 22t-68.5 5h-167v-485q0 -9 -9 -9h-35q-9 0 -9 9v512q0 8 11 10q75 11 202 11z
" />
    <glyph glyph-name="Omacron" unicode="&#x14c;" horiz-adv-x="709" 
d="M233 876h241q10 0 10 -9v-26q0 -9 -10 -9l-241 1q-9 0 -9 8v26q0 9 9 9zM354 746q136 0 203 -49q34 -25 52 -71q34 -82 34 -257q0 -171 -34 -257q-26 -64 -86.5 -90.5t-168.5 -26.5q-92 0 -146 17.5t-86 61.5t-44 110.5t-12 184.5t12 185t44 111q32 45 86 63t146 18z
M121 369q0 -105 9 -162t34 -95q26 -38 69.5 -53t120.5 -15t120 15t69 53t35 95t9 162q0 155 -26 224q-22 58 -68.5 80t-138.5 24q-112 0 -166 -42q-27 -21 -42 -62q-25 -70 -25 -224z" />
    <glyph glyph-name="omacron" unicode="&#x14d;" horiz-adv-x="552" 
d="M156 676h241q9 0 9 -9v-26q0 -9 -9 -9h-241q-10 0 -10 9v26q0 9 10 9zM276 542q131 0 173 -55q42 -54 42 -218q0 -165 -42 -220q-42 -54 -173 -54q-130 0 -173 54q-42 56 -42 220t42 218q43 55 173 55zM276 494q-100 0 -131 -45q-30 -43 -30 -180t30 -182q32 -44 131 -44
q101 0 131 44q31 44 31 182q0 137 -31 180q-30 45 -131 45z" />
    <glyph glyph-name="Obreve" unicode="&#x14e;" horiz-adv-x="709" 
d="M458 928h21q9 0 9 -10q-5 -65 -33 -89q-29 -23 -101 -23t-101 23q-27 24 -32 89q-1 10 8 10h21q7 0 10 -8q6 -41 25.5 -56.5t68.5 -15.5t68.5 15.5t25.5 56.5q3 8 10 8zM354 746q136 0 203 -49q34 -25 52 -71q34 -82 34 -257q0 -171 -34 -257q-26 -64 -86.5 -90.5
t-168.5 -26.5q-92 0 -146 17.5t-86 61.5t-44 110.5t-12 184.5t12 185t44 111q32 45 86 63t146 18zM121 369q0 -105 9 -162t34 -95q26 -38 69.5 -53t120.5 -15t120 15t69 53t35 95t9 162q0 155 -26 224q-22 58 -68.5 80t-138.5 24q-112 0 -166 -42q-27 -21 -42 -62
q-25 -70 -25 -224z" />
    <glyph glyph-name="obreve" unicode="&#x14f;" horiz-adv-x="552" 
d="M380 728h22q9 0 8 -10q-5 -65 -33 -89q-29 -23 -101 -23t-101 24q-27 23 -32 88q-1 10 8 10h22q7 0 9 -8q6 -41 25.5 -56.5t68.5 -15.5t68.5 15t26.5 57q2 8 9 8zM276 542q131 0 173 -55q42 -54 42 -218q0 -165 -42 -220q-42 -54 -173 -54q-130 0 -173 54q-42 56 -42 220
t42 218q43 55 173 55zM276 494q-100 0 -131 -45q-30 -43 -30 -180t30 -182q32 -44 131 -44q101 0 131 44q31 44 31 182q0 137 -31 180q-30 45 -131 45z" />
    <glyph glyph-name="Ohungarumlaut" unicode="&#x150;" horiz-adv-x="709" 
d="M337 941h42q7 0 7 -8v-7q0 -6 -3 -9l-107 -118q-5 -5 -10 -1l-12 9q-5 5 -2 10l76 119q3 5 9 5zM494 941h42q7 0 7 -8v-7q0 -4 -3 -9l-107 -118q-5 -5 -10 -1l-12 9q-7 5 -2 10l76 119q3 5 9 5zM354 746q136 0 203 -49q34 -25 52 -71q34 -82 34 -257q0 -171 -34 -257
q-26 -64 -86.5 -90.5t-168.5 -26.5q-92 0 -146 17.5t-86 61.5t-44 110.5t-12 184.5t12 185t44 111q32 45 86 63t146 18zM121 369q0 -105 9 -162t34 -95q26 -38 69.5 -53t120.5 -15t120 15t69 53t35 95t9 162q0 155 -26 224q-22 58 -68.5 80t-138.5 24q-112 0 -166 -42
q-27 -21 -42 -62q-25 -70 -25 -224z" />
    <glyph glyph-name="ohungarumlaut" unicode="&#x151;" horiz-adv-x="552" 
d="M260 741h42q7 0 7 -8v-7q0 -4 -3 -9l-107 -118q-5 -5 -10 -1l-12 9q-7 5 -2 10l76 119q3 5 9 5zM417 741h42q7 0 7 -8v-7q0 -4 -3 -9l-107 -118q-6 -5 -10 -1l-12 9q-7 5 -2 10l76 119q3 5 9 5zM276 542q131 0 173 -55q42 -54 42 -218q0 -165 -42 -220q-42 -54 -173 -54
q-130 0 -173 54q-42 56 -42 220t42 218q43 55 173 55zM276 494q-100 0 -131 -45q-30 -43 -30 -180t30 -182q32 -44 131 -44q101 0 131 44q31 44 31 182q0 137 -31 180q-30 45 -131 45z" />
    <glyph glyph-name="OE.001" unicode="&#x152;" horiz-adv-x="1010" 
d="M355 746l327 -5h267q9 0 9 -9v-31q0 -9 -9 -9h-387v-312h350q9 0 9 -10v-31q0 -9 -9 -9h-350v-281h387q9 0 9 -9v-31q0 -9 -9 -9h-267l-327 -5q-93 -1 -146.5 16t-85.5 61q-32 45 -44.5 112.5t-12.5 184.5t12.5 185t43.5 113q33 45 87.5 63t145.5 16zM507 44v653h-152
q-112 0 -166 -42q-27 -21 -42 -62q-25 -70 -25 -224q0 -105 9 -162t34 -95q26 -38 69.5 -53t120.5 -15h152z" />
    <glyph glyph-name="oe" unicode="&#x153;" horiz-adv-x="900" 
d="M647 542q121 0 162 -51q42 -51 43 -201v-29q0 -11 -4.5 -15t-18.5 -4h-338q1 -119 32 -160q30 -39 124 -39h150q9 0 9 -10v-23q0 -7 -8 -9q-50 -6 -151 -6q-81 0 -123 19.5t-61 66.5q-21 -48 -63.5 -67t-123.5 -19q-131 0 -173 54q-42 56 -42 220t42 218q42 55 173 55
q80 0 123 -19t64 -66q19 47 60.5 66t123.5 19zM276 494q-100 0 -132 -45q-30 -43 -30 -180t30 -182q32 -44 132 -44t130 44q31 44 31 182q0 137 -31 180q-30 45 -130 45zM647 494q-96 0 -126 -40q-29 -39 -30 -163h308q-2 126 -31 164q-28 39 -121 39z" />
    <glyph glyph-name="Racute" unicode="&#x154;" horiz-adv-x="632" 
d="M348 941h43q7 0 7 -8v-7q0 -4 -3 -9l-107 -118q-5 -5 -11 -1l-12 9q-5 5 -2 10l77 119q3 5 8 5zM273 746q63 0 102 -3q96 -5 135 -34q35 -25 50.5 -70.5t15.5 -124.5q0 -123 -37 -169q-37 -45 -135 -56l175 -277q7 -12 -7 -12h-34q-14 0 -23 13l-172 271h-196v-275
q0 -9 -10 -9h-36q-10 0 -10 9v724q0 9 10 9q68 4 172 4zM270 697h-123v-363h123q57 0 75 1q76 2 106 15q38 16 53.5 53t16.5 110q0 117 -52 156q-17 12 -48 18q-54 10 -151 10z" />
    <glyph glyph-name="racute" unicode="&#x155;" horiz-adv-x="330" 
d="M224 741h42q7 0 7 -8v-7q0 -4 -3 -9l-107 -118q-5 -5 -10 -1l-12 9q-7 5 -2 10l76 119q3 5 9 5zM205 542q69 0 100 -7q8 -3 8 -10v-22q0 -10 -10 -9h-89q-85 0 -85 -58v-427q0 -9 -9 -9h-35q-9 0 -9 9v435q0 98 129 98z" />
    <glyph glyph-name="uni0156" unicode="&#x156;" horiz-adv-x="632" 
d="M273 746q63 0 102 -3q96 -5 135 -34q35 -25 50.5 -70.5t15.5 -124.5q0 -123 -37 -169q-37 -45 -135 -56l175 -277q7 -12 -7 -12h-34q-14 0 -23 13l-172 271h-196v-275q0 -9 -10 -9h-36q-10 0 -10 9v724q0 9 10 9q68 4 172 4zM270 697h-123v-363h123q57 0 75 1
q76 2 106 15q38 16 53.5 53t16.5 110q0 117 -52 156q-17 12 -48 18q-54 10 -151 10zM300 -37h38q7 0 7 -7v-7q0 -6 -3 -9l-103 -119q-4 -4 -10 0l-12 9q-5 5 -2 10l77 119q3 4 8 4z" />
    <glyph glyph-name="uni0157" unicode="&#x157;" horiz-adv-x="330" 
d="M205 542q69 0 100 -7q8 -3 8 -10v-22q0 -10 -10 -9h-89q-85 0 -85 -58v-427q0 -9 -9 -9h-35q-9 0 -9 9v435q0 98 129 98zM83 -37h38q7 0 7 -7v-7q0 -7 -3 -9l-103 -119q-4 -4 -10 0l-12 9q-5 5 -2 10l77 119q3 4 8 4z" />
    <glyph glyph-name="Rcaron" unicode="&#x158;" horiz-adv-x="632" 
d="M415 939l12 -10q5 -3 2 -10l-94 -118q-3 -5 -10 -5h-24q-7 0 -10 5l-93 118q-4 7 2 10l12 10q4 5 10 -1l91 -91l92 91q5 5 10 1zM273 746q63 0 102 -3q96 -5 135 -34q35 -25 50.5 -70.5t15.5 -124.5q0 -123 -37 -169q-37 -45 -135 -56l175 -277q7 -12 -7 -12h-34
q-14 0 -23 13l-172 271h-196v-275q0 -9 -10 -9h-36q-10 0 -10 9v724q0 9 10 9q68 4 172 4zM270 697h-123v-363h123q57 0 75 1q76 2 106 15q38 16 53.5 53t16.5 110q0 117 -52 156q-17 12 -48 18q-54 10 -151 10z" />
    <glyph glyph-name="rcaron" unicode="&#x159;" horiz-adv-x="330" 
d="M269 739l12 -10q5 -3 2 -10l-94 -118q-3 -5 -10 -5h-24q-7 0 -10 5l-93 118q-4 7 2 10l12 10q4 5 10 -1l91 -91l92 91q5 5 10 1zM204 542q69 0 100 -7q8 -3 8 -10v-22q0 -10 -10 -9h-89q-85 0 -85 -58v-427q0 -9 -9 -9h-35q-9 0 -9 9v435q0 98 129 98z" />
    <glyph glyph-name="Sacute" unicode="&#x15a;" horiz-adv-x="587" 
d="M346 941h42q7 0 7 -8v-7q0 -4 -3 -9l-107 -118q-5 -5 -10 -1l-13 9q-6 5 -1 10l76 119q3 5 9 5zM493 739q9 0 9 -8v-25q0 -9 -8 -9h-217q-84 0 -123 -26.5t-39 -84.5v-13q0 -49 18 -76t70 -48l234 -100q104 -47 104 -168v-27q0 -85 -52 -124q-19 -15 -57 -24
q-38 -8 -63 -9q-34 -2 -71 -2q-158 0 -242 7q-8 0 -8 9v25q0 8 9 8h254q63 0 100 9q75 21 75 102v22q0 93 -81 130l-242 101q-60 25 -82 61.5t-22 98.5v19q0 89 59 124t173 35q119 0 202 -7z" />
    <glyph glyph-name="sacute" unicode="&#x15b;" horiz-adv-x="464" 
d="M269 741h42q7 0 7 -8v-7q0 -4 -3 -9l-107 -118q-5 -5 -10 -1l-12 9q-7 5 -2 10l76 119q3 5 9 5zM225 542q109 0 162 -6q8 -2 8 -9v-24q0 -9 -9 -9h-177q-101 0 -101 -68v-19q0 -34 14 -53t54 -36l152 -63q51 -21 70 -50t19 -76v-14q0 -71 -42 -96q-42 -24 -149 -24
q-118 0 -168 6q-8 2 -8 9v23q0 10 9 10h168q79 0 108 15t29 57v15q0 30 -14 48.5t-47 33.5l-157 64q-51 21 -71 51.5t-20 80.5v22q0 74 60 95q44 17 110 17z" />
    <glyph glyph-name="Scircumflex" unicode="&#x15c;" horiz-adv-x="587" 
d="M283 941h24q7 0 10 -5l94 -119q3 -5 -2 -10l-12 -9q-5 -4 -10 1l-92 91l-91 -91q-6 -5 -10 -1l-12 9q-7 5 -2 10l93 119q3 5 10 5zM493 739q9 0 9 -8v-25q0 -9 -8 -9h-217q-84 0 -123 -26.5t-39 -84.5v-13q0 -49 18 -76t70 -48l234 -100q104 -47 104 -168v-27
q0 -85 -52 -124q-19 -15 -57 -24q-38 -8 -63 -9q-34 -2 -71 -2q-158 0 -242 7q-8 0 -8 9v25q0 8 9 8h254q63 0 100 9q75 21 75 102v22q0 93 -81 130l-242 101q-60 25 -82 61.5t-22 98.5v19q0 89 59 124t173 35q119 0 202 -7z" />
    <glyph glyph-name="scircumflex" unicode="&#x15d;" horiz-adv-x="464" 
d="M222 741h23q6 0 11 -5l93 -119q3 -5 -2 -10l-12 -9q-5 -4 -10 1l-91 91l-92 -91q-5 -5 -10 -1l-12 9q-5 5 -2 10l93 119q5 5 11 5zM225 542q109 0 162 -6q8 -2 8 -9v-24q0 -9 -9 -9h-177q-101 0 -101 -68v-19q0 -34 14 -53t54 -36l152 -63q51 -21 70 -50t19 -76v-14
q0 -71 -42 -96q-42 -24 -149 -24q-118 0 -168 6q-8 2 -8 9v23q0 10 9 10h168q79 0 108 15t29 57v15q0 30 -14 48.5t-47 33.5l-157 64q-51 21 -71 51.5t-20 80.5v22q0 74 60 95q44 17 110 17z" />
    <glyph glyph-name="Scedilla" unicode="&#x15e;" horiz-adv-x="587" 
d="M493 739q9 0 9 -8v-25q0 -9 -8 -9h-217q-84 0 -123 -26.5t-39 -84.5v-13q0 -49 18 -76t70 -48l234 -100q104 -47 104 -168v-27q0 -94 -58 -127q-47 -27 -129 -31q12 -48 12 -79q0 -42 -19 -58.5t-65 -16.5q-13 0 -50 5q-8 3 -8 12v19q0 9 9 9h40q31 0 41.5 8t10.5 34
q0 25 -10 66h-17q-158 0 -242 7q-8 0 -8 9v25q0 8 9 8h254q63 0 100 9q75 21 75 102v22q0 93 -81 130l-242 101q-60 25 -82 61.5t-22 98.5v19q0 89 59 124t173 35q119 0 202 -7z" />
    <glyph glyph-name="scedilla" unicode="&#x15f;" horiz-adv-x="464" 
d="M176 318l152 -63q51 -21 70 -50t19 -76v-14q0 -59 -28 -85t-97 -33q13 -45 13 -80q0 -42 -19.5 -58.5t-65.5 -16.5q-13 0 -50 5q-8 3 -8 12v19q0 9 9 9h41q31 0 41.5 8t10.5 34q0 17 -11 66h-27q-118 0 -168 6q-8 2 -8 9v23q0 10 9 10h168q79 0 108 15t29 57v15
q0 30 -14 48.5t-47 33.5l-157 64q-51 21 -71 51.5t-20 80.5v22q0 74 60 95q44 17 110 17q109 0 162 -6q8 -2 8 -9v-24q0 -9 -9 -9h-177q-101 0 -101 -68v-19q0 -34 14 -53t54 -36z" />
    <glyph glyph-name="Scaron" unicode="&#x160;" horiz-adv-x="587" 
d="M397 939l12 -10q5 -3 2 -10l-94 -118q-3 -5 -10 -5h-24q-7 0 -10 5l-93 118q-4 7 2 10l12 10q4 5 10 -1l91 -91l92 91q5 5 10 1zM493 739q9 0 9 -8v-25q0 -9 -8 -9h-217q-84 0 -123 -26.5t-39 -84.5v-13q0 -49 18 -76t70 -48l234 -100q104 -47 104 -168v-27
q0 -85 -52 -124q-19 -15 -57 -24q-38 -8 -63 -9q-34 -2 -71 -2q-158 0 -242 7q-8 0 -8 9v25q0 8 9 8h254q63 0 100 9q75 21 75 102v22q0 93 -81 130l-242 101q-60 25 -82 61.5t-22 98.5v19q0 89 59 124t173 35q119 0 202 -7z" />
    <glyph glyph-name="scaron" unicode="&#x161;" horiz-adv-x="464" 
d="M335 739l12 -10q6 -5 2 -10l-93 -118q-5 -5 -11 -5h-23q-6 0 -11 5l-93 118q-4 5 2 10l12 10q5 4 10 -1l92 -91l91 91q5 5 10 1zM225 542q109 0 162 -6q8 -2 8 -9v-24q0 -9 -9 -9h-177q-101 0 -101 -68v-19q0 -34 14 -53t54 -36l152 -63q51 -21 70 -50t19 -76v-14
q0 -71 -42 -96q-42 -24 -149 -24q-118 0 -168 6q-8 2 -8 9v23q0 10 9 10h168q79 0 108 15t29 57v15q0 30 -14 48.5t-47 33.5l-157 64q-51 21 -71 51.5t-20 80.5v22q0 74 60 95q44 17 110 17z" />
    <glyph glyph-name="uni0162" unicode="&#x162;" horiz-adv-x="584" 
d="M23 741h538q10 0 10 -9v-31q0 -9 -10 -9h-241v-680q14 -64 14 -95q0 -42 -19 -58.5t-65 -16.5q-14 0 -51 5q-8 3 -8 12v19q0 9 10 9h40q31 0 41.5 8t10.5 34q0 21 -12 71h-8q-8 0 -8 8v684h-242q-10 0 -10 9v31q0 9 10 9z" />
    <glyph glyph-name="uni0163" unicode="&#x163;" horiz-adv-x="307" 
d="M217 43h60q10 0 10 -9v-25q0 -7 -8 -10q-20 -4 -57 -4q11 -53 11 -78q0 -42 -19 -58.5t-65 -16.5q-14 0 -51 5q-8 3 -8 12v19q0 9 10 9h40q31 0 41.5 8t10.5 34q0 25 -10 68q-43 4 -63 26t-20 69v399h-57q-10 0 -10 9v26q0 9 10 9h57v135q0 7 9 10l34 8q10 3 10 -8v-145
h116q10 0 10 -9v-26q0 -9 -10 -9h-116v-391q0 -34 13 -45.5t52 -11.5z" />
    <glyph glyph-name="Tcaron" unicode="&#x164;" horiz-adv-x="584" 
d="M393 939l13 -10q5 -4 1 -10l-93 -118q-3 -5 -10 -5h-24q-7 0 -10 5l-93 118q-4 6 1 10l13 10q5 5 10 -1l91 -91l91 91q5 6 10 1zM23 741h538q10 0 10 -9v-31q0 -9 -10 -9h-241v-683q0 -9 -9 -9h-37q-9 0 -9 9v683h-242q-10 0 -10 9v31q0 9 10 9z" />
    <glyph glyph-name="tcaron" unicode="&#x165;" horiz-adv-x="324" 
d="M301 741h39q7 0 7 -8v-7q0 -6 -3 -9l-89 -118q-3 -5 -10 -1l-12 9q-5 5 -2 10l61 118q2 6 9 6zM108 680l34 8q10 3 10 -8v-145h116q10 0 10 -9v-26q0 -9 -10 -9h-116v-391q0 -34 13 -45.5t52 -11.5h60q10 0 10 -9v-25q0 -7 -8 -10q-23 -4 -60 -4q-64 0 -92 20t-28 77v399
h-57q-10 0 -10 9v26q0 9 10 9h57v135q0 7 9 10z" />
    <glyph glyph-name="Tbar" unicode="&#x166;" horiz-adv-x="594" 
d="M28 741h538q10 0 10 -9v-31q0 -9 -10 -9h-241v-290h129q9 0 9 -9v-25q0 -10 -9 -10h-129v-349q0 -9 -9 -9h-37q-9 0 -9 9v349h-130q-9 0 -9 9v26q0 9 9 9h130v290h-242q-10 0 -10 9v31q0 9 10 9z" />
    <glyph glyph-name="tbar" unicode="&#x167;" horiz-adv-x="308" 
d="M218 43h60q10 0 10 -9v-25q0 -7 -8 -10q-23 -4 -60 -4q-64 0 -92 20t-28 77v183h-42q-10 0 -10 9v25q0 10 10 10h42v172h-57q-10 0 -10 9v26q0 9 10 9h57v135q0 7 9 10l34 8q10 3 10 -8v-145h116q10 0 10 -9v-26q0 -9 -10 -9h-116v-172h93q9 0 9 -10v-25q0 -9 -9 -9h-93
v-175q0 -34 13 -45.5t52 -11.5z" />
    <glyph glyph-name="Utilde" unicode="&#x168;" horiz-adv-x="731" 
d="M302 917q22 0 67 -27q46 -26 60 -26q21 0 31 9.5t19 36.5q3 9 11 7l17 -3q8 -2 7 -13q-13 -51 -30 -68t-54 -17q-20 0 -67 26q-45 27 -61 27q-19 0 -29 -9.5t-21 -38.5q-4 -8 -11 -7l-16 3q-10 3 -7 13q13 52 30 69.5t54 17.5zM601 741h37q9 0 9 -9v-362q0 -176 -34 -261
q-29 -65 -84 -88.5t-163 -25.5q-134 0 -197 45q-48 39 -66 113.5t-19 216.5v362q0 9 9 9h37q9 0 9 -9v-362q0 -105 9.5 -164t35.5 -96t68 -51.5t114 -14.5q136 0 181 65q45 66 45 261v362q0 9 9 9z" />
    <glyph glyph-name="utilde" unicode="&#x169;" horiz-adv-x="573" 
d="M221 717q21 0 66 -27q46 -26 61 -26q21 0 31.5 9.5t18.5 36.5q3 9 11 7l17 -3q10 -1 7 -13q-13 -51 -30 -68t-54 -17q-20 0 -66 26q-45 27 -61 27q-20 0 -30 -10t-20 -38q-4 -8 -11 -7l-17 3q-9 3 -6 13q13 52 30 69.5t53 17.5zM451 535h35q9 0 9 -9v-511q0 -7 -11 -10
q-67 -10 -202 -10q-63 0 -97.5 7.5t-61.5 28.5q-49 42 -49 183v312q0 9 10 9h34q9 0 9 -9v-312q0 -113 36 -144q20 -17 43.5 -22t68.5 -5h167v483q0 9 9 9z" />
    <glyph glyph-name="Umacron" unicode="&#x16a;" horiz-adv-x="731" 
d="M245 876h241q9 0 9 -9v-26q0 -9 -9 -9h-241q-10 0 -10 9v26q0 9 10 9zM601 741h37q9 0 9 -9v-362q0 -176 -34 -261q-29 -65 -84 -88.5t-163 -25.5q-134 0 -197 45q-48 39 -66 113.5t-19 216.5v362q0 9 9 9h37q9 0 9 -9v-362q0 -105 9.5 -164t35.5 -96t68 -51.5t114 -14.5
q136 0 181 65q45 66 45 261v362q0 9 9 9z" />
    <glyph glyph-name="umacron" unicode="&#x16b;" horiz-adv-x="573" 
d="M164 676h241q10 0 10 -9v-26q0 -9 -10 -9h-241q-9 0 -9 9v26q0 9 9 9zM451 535h35q9 0 9 -9v-511q0 -7 -11 -10q-67 -10 -202 -10q-63 0 -97.5 7.5t-61.5 28.5q-49 42 -49 183v312q0 9 10 9h34q9 0 9 -9v-312q0 -113 36 -144q20 -17 43.5 -22t68.5 -5h167v483q0 9 9 9z
" />
    <glyph glyph-name="Ubreve" unicode="&#x16c;" horiz-adv-x="731" 
d="M469 928h22q9 0 8 -10q-4 -64 -33 -88t-100 -24q-72 0 -101 23q-28 24 -33 89q-1 10 8 10h22q7 0 9 -8q7 -42 26.5 -57t68.5 -15q48 0 67.5 15t26.5 57q2 8 9 8zM601 741h37q9 0 9 -9v-362q0 -176 -34 -261q-29 -65 -84 -88.5t-163 -25.5q-134 0 -197 45
q-48 39 -66 113.5t-19 216.5v362q0 9 9 9h37q9 0 9 -9v-362q0 -105 9.5 -164t35.5 -96t68 -51.5t114 -14.5q136 0 181 65q45 66 45 261v362q0 9 9 9z" />
    <glyph glyph-name="ubreve" unicode="&#x16d;" horiz-adv-x="573" 
d="M389 728h21q9 0 8 -10q-5 -65 -33 -89q-28 -23 -100 -23t-101 23q-27 24 -32 89q-1 10 8 10h21q7 0 10 -8q6 -41 25.5 -56.5t68.5 -15.5t68.5 15.5t25.5 56.5q3 8 10 8zM451 535h35q9 0 9 -9v-511q0 -7 -11 -10q-67 -10 -202 -10q-63 0 -97.5 7.5t-61.5 28.5
q-49 42 -49 183v312q0 9 10 9h34q9 0 9 -9v-312q0 -113 36 -144q20 -17 43.5 -22t68.5 -5h167v483q0 9 9 9z" />
    <glyph glyph-name="Uring" unicode="&#x16e;" horiz-adv-x="731" 
d="M366 983q95 0 95 -93q0 -92 -95 -92q-96 0 -96 92q0 93 96 93zM428 890q0 62 -62 62t-62 -62t62 -62t62 62zM601 741h37q9 0 9 -9v-362q0 -176 -34 -261q-29 -65 -84 -88.5t-163 -25.5q-134 0 -197 45q-48 39 -66 113.5t-19 216.5v362q0 9 9 9h37q9 0 9 -9v-362
q0 -105 9.5 -164t35.5 -96t68 -51.5t114 -14.5q136 0 181 65q45 66 45 261v362q0 9 9 9z" />
    <glyph glyph-name="uring" unicode="&#x16f;" horiz-adv-x="573" 
d="M380 690q0 -92 -95 -92t-95 92q0 93 95 93t95 -93zM347 690q0 62 -62 62t-62 -62t62 -62t62 62zM451 535h35q9 0 9 -9v-511q0 -7 -11 -10q-67 -10 -202 -10q-63 0 -97.5 7.5t-61.5 28.5q-49 42 -49 183v312q0 9 10 9h34q9 0 9 -9v-312q0 -113 36 -144q20 -17 43.5 -22
t68.5 -5h167v483q0 9 9 9z" />
    <glyph glyph-name="Uhungarumlaut" unicode="&#x170;" horiz-adv-x="731" 
d="M330 941h42q7 0 7 -8v-7q0 -4 -3 -9l-107 -118q-5 -5 -10 -1l-12 9q-7 5 -2 10l76 119q3 5 9 5zM487 941h42q7 0 7 -8v-7q0 -4 -3 -9l-107 -118q-6 -5 -10 -1l-13 9q-5 5 -1 10l76 119q3 5 9 5zM601 741h37q9 0 9 -9v-362q0 -176 -34 -261q-29 -65 -84 -88.5t-163 -25.5
q-134 0 -197 45q-48 39 -66 113.5t-19 216.5v362q0 9 9 9h37q9 0 9 -9v-362q0 -105 9.5 -164t35.5 -96t68 -51.5t114 -14.5q136 0 181 65q45 66 45 261v362q0 9 9 9z" />
    <glyph glyph-name="uhungarumlaut" unicode="&#x171;" horiz-adv-x="573" 
d="M257 741h42q7 0 7 -8v-7q0 -4 -3 -9l-107 -118q-6 -5 -10 -1l-13 9q-5 5 -1 10l76 119q3 5 9 5zM413 741h43q7 0 7 -8v-7q0 -4 -3 -9l-108 -118q-5 -5 -10 -1l-12 9q-5 5 -2 10l77 119q3 5 8 5zM451 535h35q9 0 9 -9v-511q0 -7 -11 -10q-67 -10 -202 -10q-63 0 -97.5 7.5
t-61.5 28.5q-49 42 -49 183v312q0 9 10 9h34q9 0 9 -9v-312q0 -113 36 -144q20 -17 43.5 -22t68.5 -5h167v483q0 9 9 9z" />
    <glyph glyph-name="Uogonek" unicode="&#x172;" horiz-adv-x="731" 
d="M601 741h37q9 0 9 -9v-362q0 -219 -52 -295q-52 -75 -205 -80q-11 -42 -11 -66q0 -26 10.5 -34t41.5 -8h40q10 0 10 -9v-19q0 -9 -8 -12q-37 -5 -51 -5q-46 0 -65 16.5t-19 58.5q0 32 11 78q-85 2 -133.5 19.5t-78.5 60.5q-30 44 -41.5 111t-11.5 184v362q0 9 9 9h37
q9 0 9 -9v-362q0 -105 9.5 -164t35.5 -96t68 -51.5t114 -14.5q136 0 181 65q45 66 45 261v362q0 9 9 9z" />
    <glyph glyph-name="uogonek" unicode="&#x173;" horiz-adv-x="573" 
d="M451 535h35q9 0 9 -9v-511q0 -7 -11 -10l-76 -7q-11 -46 -11 -69q0 -26 10.5 -34t41.5 -8h40q10 0 10 -9v-19q0 -9 -8 -12q-37 -5 -51 -5q-46 0 -65 16.5t-19 58.5q0 31 12 79q-21 -1 -86 -1q-63 0 -97.5 7.5t-61.5 28.5q-49 42 -49 183v312q0 9 10 9h34q9 0 9 -9v-312
q0 -113 36 -144q20 -17 43.5 -22t68.5 -5h167v483q0 9 9 9z" />
    <glyph glyph-name="Wcircumflex" unicode="&#x174;" horiz-adv-x="1053" 
d="M515 941h24q7 0 10 -5l93 -119q5 -5 -2 -10l-12 -9q-4 -4 -10 1l-91 91l-92 -91q-5 -5 -10 -1l-12 9q-5 5 -2 10l94 119q3 5 10 5zM966 741h41q6 0 7.5 -2t0.5 -8l-158 -622q-20 -76 -36 -95t-66 -19q-54 0 -70 19q-18 21 -35 95l-123 503l-123 -503q-19 -75 -36 -95
q-16 -19 -70 -19q-50 0 -66 19t-36 95l-158 622q-1 6 0.5 8t7.5 2h41q6 0 9 -9l153 -610q13 -52 21 -66q8 -12 28 -12q22 0 30 12q8 13 23 66l144 578q1 9 11 9h42q8 0 10 -9l145 -578q13 -49 22 -66q7 -12 30 -12q21 0 28 12q7 14 21 66l153 610q3 9 9 9z" />
    <glyph glyph-name="wcircumflex" unicode="&#x175;" horiz-adv-x="796" 
d="M386 741h24q5 0 10 -5l93 -119q5 -5 -2 -10l-12 -9q-5 -4 -10 1l-91 91l-92 -91q-5 -5 -10 -1l-12 9q-5 5 -2 10l93 119q5 5 11 5zM712 535h36q9 0 8 -10l-91 -404q-20 -88 -35 -106q-15 -20 -59 -20q-46 0 -61 19q-14 20 -35 107l-77 318l-77 -318q-21 -88 -36 -107
q-13 -19 -60 -19q-43 0 -60 20q-14 18 -34 106l-91 404q-1 10 8 10h37q7 0 8 -9l89 -399q11 -50 20 -67q8 -14 22 -14q18 0 25 12q6 10 20 69l92 369q4 16 13 16h48q9 0 13 -16l92 -369q14 -59 20 -69q7 -12 25 -12q14 0 22 14q9 17 20 67l89 399q1 9 9 9z" />
    <glyph glyph-name="Ycircumflex" unicode="&#x176;" horiz-adv-x="619" 
d="M298 941h24q7 0 10 -5l93 -119q5 -5 -1 -10l-13 -9q-5 -4 -10 1l-91 91l-91 -91q-5 -5 -10 -1l-13 9q-5 5 -2 10l94 119q3 5 10 5zM560 741h41q14 0 7 -13l-271 -513v-206q0 -9 -9 -9h-37q-9 0 -9 9v206l-271 513q-7 13 7 13h41q11 0 15 -9l235 -452l236 452q5 9 15 9z
" />
    <glyph glyph-name="ycircumflex" unicode="&#x177;" horiz-adv-x="571" 
d="M284 741h24q7 0 10 -5l94 -119q3 -5 -2 -10l-12 -9q-5 -4 -10 1l-92 91l-91 -91q-5 -5 -10 -1l-12 9q-7 5 -2 10l93 119q3 5 10 5zM449 535h34q10 0 10 -9v-507q-2 -131 -43 -174q-41 -44 -172 -44q-71 0 -136 5q-9 0 -9 10v23q0 10 9 10h136q98 0 129 30q32 29 32 114
v12q-81 -10 -158 -10q-72 0 -110.5 11.5t-60.5 43.5q-23 35 -30 83q-7 46 -7 139v254q0 9 10 9h34q10 0 10 -9v-253q0 -110 14 -160q12 -39 45 -54.5t95 -15.5q79 0 158 11v472q0 9 10 9z" />
    <glyph glyph-name="Ydieresis" unicode="&#x178;" horiz-adv-x="619" 
d="M230 902q39 0 39 -38q0 -40 -39 -40q-40 0 -40 40q0 38 40 38zM429 864q0 -40 -39 -40t-39 40q0 38 39 38t39 -38zM560 741h41q14 0 7 -13l-271 -513v-206q0 -9 -9 -9h-37q-9 0 -9 9v206l-271 513q-7 13 7 13h41q11 0 15 -9l235 -452l236 452q5 9 15 9z" />
    <glyph glyph-name="Zacute" unicode="&#x179;" horiz-adv-x="624" 
d="M346 941h43q7 0 7 -8v-7q0 -4 -3 -9l-108 -118q-5 -5 -10 -1l-12 9q-5 5 -2 10l77 119q3 5 8 5zM52 741h518q12 0 12 -12v-22q0 -9 -6 -16l-472 -642h477q10 0 10 -9v-31q0 -9 -10 -9h-538q-12 0 -12 12v20q0 9 6 16l474 644h-458q-10 0 -10 9v31q0 9 9 9z" />
    <glyph glyph-name="zacute" unicode="&#x17a;" horiz-adv-x="493" 
d="M280 741h42q7 0 7 -8v-7q0 -4 -3 -9l-107 -118q-5 -5 -10 -1l-12 9q-7 5 -2 10l76 119q3 5 9 5zM57 535h383q10 0 10 -9v-14q0 -6 -6 -14l-336 -450h339q10 0 10 -10v-28q0 -10 -10 -10h-403q-11 0 -11 9v17q0 7 7 14l334 448h-317q-10 0 -10 9v29q0 9 10 9z" />
    <glyph glyph-name="Zdotaccent" unicode="&#x17b;" horiz-adv-x="624" 
d="M350 864q0 -40 -39 -40t-39 40q0 38 39 38t39 -38zM52 741h518q12 0 12 -12v-22q0 -9 -6 -16l-472 -642h477q10 0 10 -9v-31q0 -9 -10 -9h-538q-12 0 -12 12v20q0 9 6 16l474 644h-458q-10 0 -10 9v31q0 9 9 9z" />
    <glyph glyph-name="zdotaccent" unicode="&#x17c;" horiz-adv-x="493" 
d="M245 702q38 0 38 -38q0 -40 -38 -40q-40 0 -40 40q0 38 40 38zM57 535h383q10 0 10 -9v-14q0 -6 -6 -14l-336 -450h339q10 0 10 -10v-28q0 -10 -10 -10h-403q-11 0 -11 9v17q0 7 7 14l334 448h-317q-10 0 -10 9v29q0 9 10 9z" />
    <glyph glyph-name="Zcaron.001" unicode="&#x17d;" horiz-adv-x="624" 
d="M412 939l13 -10q5 -3 2 -10l-94 -118q-3 -5 -10 -5h-24q-7 0 -10 5l-93 118q-4 6 1 10l13 10q4 5 10 -1l91 -91l91 91q6 6 10 1zM52 741h518q12 0 12 -12v-22q0 -9 -6 -16l-472 -642h477q10 0 10 -9v-31q0 -9 -10 -9h-538q-12 0 -12 12v20q0 9 6 16l474 644h-458
q-10 0 -10 9v31q0 9 9 9z" />
    <glyph glyph-name="zcaron.001" unicode="&#x17e;" horiz-adv-x="493" 
d="M346 739l12 -10q6 -5 2 -10l-93 -118q-5 -5 -11 -5h-23q-6 0 -11 5l-93 118q-4 5 2 10l12 10q5 4 10 -1l92 -91l91 91q5 5 10 1zM57 535h383q10 0 10 -9v-14q0 -6 -6 -14l-336 -450h339q10 0 10 -10v-28q0 -10 -10 -10h-403q-11 0 -11 9v17q0 7 7 14l334 448h-317
q-10 0 -10 9v29q0 9 10 9z" />
    <glyph glyph-name="florin" unicode="&#x192;" horiz-adv-x="531" 
d="M420 747q38 0 81 -7q11 -2 9 -10l-4 -23q0 -8 -8 -8h-67q-87 0 -95 -59l-24 -169h129q9 0 9 -9v-26q0 -10 -9 -10h-135l-47 -334q-13 -96 -135 -96q-42 0 -82 6q-9 3 -9 10l4 24q2 8 8 8h67q87 0 95 59l46 323h-85q-9 0 -9 10v27q0 8 9 8h91l25 180q14 96 136 96z" />
    <glyph glyph-name="uni01CD" unicode="&#x1cd;" horiz-adv-x="643" 
d="M423 939l12 -10q6 -5 2 -10l-94 -118q-3 -5 -10 -5h-24q-7 0 -10 5l-93 118q-4 7 2 10l12 10q5 4 10 -1l91 -91l92 91q5 5 10 1zM321 746q57 0 75 -19q18 -20 39 -95l173 -622q1 -10 -7 -10h-41q-5 0 -8 9l-68 241h-325l-68 -241q-3 -9 -9 -9h-41q-9 0 -8 10l177 622
q21 74 39 94q20 20 72 20zM321 697q-25 0 -34 -13q-9 -14 -24 -65l-90 -319h297l-88 319q-15 54 -25 65q-9 13 -36 13z" />
    <glyph glyph-name="uni01CE" unicode="&#x1ce;" horiz-adv-x="514" 
d="M354 739l13 -10q5 -4 1 -10l-93 -118q-3 -5 -10 -5h-24q-7 0 -10 5l-94 118q-3 7 2 10l13 10q4 5 10 -1l91 -91l91 91q6 6 10 1zM225 542q106 0 160.5 -36.5t54.5 -120.5v-351q0 -18 -18 -23q-51 -16 -201 -16q-101 0 -141 34q-39 35 -39 122q0 75 38 108.5t123 33.5h185
v86q0 62 -40.5 88.5t-121.5 26.5h-124q-9 0 -9 9v22q0 8 8 10q55 7 125 7zM387 54v192h-185q-58 0 -82.5 -22t-24.5 -73q0 -61 29 -85t106 -24q104 0 157 12z" />
    <glyph glyph-name="uni01CF" unicode="&#x1cf;" horiz-adv-x="238" 
d="M219 939l12 -10q6 -5 2 -10l-94 -118q-3 -5 -10 -5h-24q-5 0 -10 5l-93 118q-4 7 2 10l12 10q5 4 10 -1l91 -91l92 91q5 5 10 1zM100 741h36q10 0 10 -9v-723q0 -9 -10 -9h-36q-10 0 -10 9v723q0 9 10 9z" />
    <glyph glyph-name="uni01D0" unicode="&#x1d0;" horiz-adv-x="210" 
d="M206 739l12 -10q6 -5 2 -10l-93 -118q-5 -5 -11 -5h-23q-6 0 -11 5l-93 118q-4 5 2 10l12 10q5 4 10 -1l91 -91l92 91q5 5 10 1zM88 535h34q10 0 10 -9v-517q0 -9 -10 -9h-34q-10 0 -10 9v517q0 9 10 9z" />
    <glyph glyph-name="uni01D1" unicode="&#x1d1;" horiz-adv-x="709" 
d="M455 939l13 -10q5 -4 1 -10l-93 -118q-3 -5 -10 -5h-24q-7 0 -10 5l-93 118q-4 6 1 10l13 10q5 5 10 -1l91 -91l91 91q5 6 10 1zM354 746q136 0 203 -49q34 -25 52 -71q34 -82 34 -257q0 -171 -34 -257q-26 -64 -86.5 -90.5t-168.5 -26.5q-92 0 -146 17.5t-86 61.5
t-44 110.5t-12 184.5t12 185t44 111q32 45 86 63t146 18zM121 369q0 -105 9 -162t34 -95q26 -38 69.5 -53t120.5 -15t120 15t69 53t35 95t9 162q0 155 -26 224q-22 58 -68.5 80t-138.5 24q-112 0 -166 -42q-27 -21 -42 -62q-25 -70 -25 -224z" />
    <glyph glyph-name="uni01D2" unicode="&#x1d2;" horiz-adv-x="552" 
d="M378 739l12 -10q6 -5 2 -10l-93 -118q-5 -5 -11 -5h-23q-6 0 -11 5l-93 118q-4 5 2 10l12 10q5 4 10 -1l91 -91l92 91q5 5 10 1zM276 542q131 0 173 -55q42 -54 42 -218q0 -165 -42 -220q-42 -54 -173 -54q-130 0 -173 54q-42 56 -42 220t42 218q43 55 173 55zM276 494
q-100 0 -131 -45q-30 -43 -30 -180t30 -182q32 -44 131 -44q101 0 131 44q31 44 31 182q0 137 -31 180q-30 45 -131 45z" />
    <glyph glyph-name="uni01D3" unicode="&#x1d3;" horiz-adv-x="731" 
d="M467 939l12 -10q6 -5 2 -10l-93 -118q-5 -5 -11 -5h-23q-6 0 -11 5l-93 118q-4 5 2 10l12 10q5 4 10 -1l92 -91l91 91q5 5 10 1zM601 741h37q9 0 9 -9v-362q0 -176 -34 -261q-29 -65 -84 -88.5t-163 -25.5q-134 0 -197 45q-48 39 -66 113.5t-19 216.5v362q0 9 9 9h37
q9 0 9 -9v-362q0 -105 9.5 -164t35.5 -96t68 -51.5t114 -14.5q136 0 181 65q45 66 45 261v362q0 9 9 9z" />
    <glyph glyph-name="uni01D4" unicode="&#x1d4;" horiz-adv-x="573" 
d="M386 739l13 -10q5 -4 1 -10l-93 -118q-3 -5 -10 -5h-24q-7 0 -10 5l-93 118q-4 6 1 10l13 10q4 5 10 -1l91 -91l91 91q6 6 10 1zM451 535h35q9 0 9 -9v-511q0 -7 -11 -10q-67 -10 -202 -10q-63 0 -97.5 7.5t-61.5 28.5q-49 42 -49 183v312q0 9 10 9h34q9 0 9 -9v-312
q0 -113 36 -144q20 -17 43.5 -22t68.5 -5h167v483q0 9 9 9z" />
    <glyph glyph-name="uni01D5" unicode="&#x1d5;" horiz-adv-x="731" 
d="M245 1002h241q9 0 9 -9v-26q0 -9 -9 -9h-241q-10 0 -10 9v26q0 9 10 9zM286 902q38 0 38 -38q0 -40 -38 -40q-40 0 -40 40q0 38 40 38zM485 864q0 -40 -39 -40t-39 40q0 38 39 38t39 -38zM601 741h37q9 0 9 -9v-362q0 -176 -34 -261q-29 -65 -84 -88.5t-163 -25.5
q-134 0 -197 45q-48 39 -66 113.5t-19 216.5v362q0 9 9 9h37q9 0 9 -9v-362q0 -105 9.5 -164t35.5 -96t68 -51.5t114 -14.5q136 0 181 65q45 66 45 261v362q0 9 9 9z" />
    <glyph glyph-name="uni01D6" unicode="&#x1d6;" horiz-adv-x="573" 
d="M164 797h241q10 0 10 -9v-26q0 -9 -10 -9h-241q-9 0 -9 9v26q0 9 9 9zM205 702q39 0 39 -38q0 -40 -39 -40q-40 0 -40 40q0 38 40 38zM365 702q40 0 40 -38q0 -40 -40 -40q-39 0 -39 40q0 38 39 38zM451 535h35q9 0 9 -9v-511q0 -7 -11 -10q-67 -10 -202 -10
q-63 0 -97.5 7.5t-61.5 28.5q-49 42 -49 183v312q0 9 10 9h34q9 0 9 -9v-312q0 -113 36 -144q20 -17 43.5 -22t68.5 -5h167v483q0 9 9 9z" />
    <glyph glyph-name="uni01D7" unicode="&#x1d7;" horiz-adv-x="731" 
d="M433 1067h43q7 0 7 -7v-8q0 -5 -3 -8l-108 -119q-5 -5 -10 -1l-12 10q-5 5 -2 10l77 119q4 4 8 4zM286 902q38 0 38 -38q0 -40 -38 -40q-40 0 -40 40q0 38 40 38zM485 864q0 -40 -39 -40t-39 40q0 38 39 38t39 -38zM601 741h37q9 0 9 -9v-362q0 -176 -34 -261
q-29 -65 -84 -88.5t-163 -25.5q-134 0 -197 45q-48 39 -66 113.5t-19 216.5v362q0 9 9 9h37q9 0 9 -9v-362q0 -105 9.5 -164t35.5 -96t68 -51.5t114 -14.5q136 0 181 65q45 66 45 261v362q0 9 9 9z" />
    <glyph glyph-name="uni01D8" unicode="&#x1d8;" horiz-adv-x="573" 
d="M357 864h42q7 0 7 -7v-7q0 -8 -3 -9l-107 -119q-4 -4 -10 0l-12 9q-5 5 -2 10l76 119q3 4 9 4zM205 702q39 0 39 -38q0 -40 -39 -40q-40 0 -40 40q0 38 40 38zM365 702q40 0 40 -38q0 -40 -40 -40q-39 0 -39 40q0 38 39 38zM451 535h35q9 0 9 -9v-511q0 -7 -11 -10
q-67 -10 -202 -10q-63 0 -97.5 7.5t-61.5 28.5q-49 42 -49 183v312q0 9 10 9h34q9 0 9 -9v-312q0 -113 36 -144q20 -17 43.5 -22t68.5 -5h167v483q0 9 9 9z" />
    <glyph glyph-name="uni01D9" unicode="&#x1d9;" horiz-adv-x="731" 
d="M467 1068l12 -9q5 -5 2 -10l-93 -119q-5 -5 -11 -5h-23q-6 0 -11 5l-93 119q-3 5 2 10l12 9q5 4 10 -1l92 -91l91 91q5 5 10 1zM286 902q38 0 38 -38q0 -40 -38 -40q-40 0 -40 40q0 38 40 38zM485 864q0 -40 -39 -40t-39 40q0 38 39 38t39 -38zM601 741h37q9 0 9 -9v-362
q0 -176 -34 -261q-29 -65 -84 -88.5t-163 -25.5q-134 0 -197 45q-48 39 -66 113.5t-19 216.5v362q0 9 9 9h37q9 0 9 -9v-362q0 -105 9.5 -164t35.5 -96t68 -51.5t114 -14.5q136 0 181 65q45 66 45 261v362q0 9 9 9z" />
    <glyph glyph-name="uni01DA" unicode="&#x1da;" horiz-adv-x="573" 
d="M386 862l13 -9q5 -5 1 -10l-93 -119q-4 -4 -10 -4h-24q-6 0 -10 4l-93 119q-4 5 1 10l13 9q4 4 10 0l91 -91l91 91q6 4 10 0zM205 702q39 0 39 -38q0 -40 -39 -40q-40 0 -40 40q0 38 40 38zM365 702q40 0 40 -38q0 -40 -40 -40q-39 0 -39 40q0 38 39 38zM451 535h35
q9 0 9 -9v-511q0 -7 -11 -10q-67 -10 -202 -10q-63 0 -97.5 7.5t-61.5 28.5q-49 42 -49 183v312q0 9 10 9h34q9 0 9 -9v-312q0 -113 36 -144q20 -17 43.5 -22t68.5 -5h167v483q0 9 9 9z" />
    <glyph glyph-name="uni01DB" unicode="&#x1db;" horiz-adv-x="731" 
d="M255 1067h42q5 0 9 -4l76 -119q4 -6 -1 -10l-13 -10q-4 -4 -10 1l-107 119q-3 3 -3 8v8q0 7 7 7zM286 902q38 0 38 -38q0 -40 -38 -40q-40 0 -40 40q0 38 40 38zM485 864q0 -40 -39 -40t-39 40q0 38 39 38t39 -38zM601 741h37q9 0 9 -9v-362q0 -176 -34 -261
q-29 -65 -84 -88.5t-163 -25.5q-134 0 -197 45q-48 39 -66 113.5t-19 216.5v362q0 9 9 9h37q9 0 9 -9v-362q0 -105 9.5 -164t35.5 -96t68 -51.5t114 -14.5q136 0 181 65q45 66 45 261v362q0 9 9 9z" />
    <glyph glyph-name="uni01DC" unicode="&#x1dc;" horiz-adv-x="573" 
d="M173 864h43q5 0 8 -4l77 -119q3 -5 -2 -10l-12 -9q-6 -4 -10 0l-107 119q-4 3 -4 9v7q0 7 7 7zM205 702q39 0 39 -38q0 -40 -39 -40q-40 0 -40 40q0 38 40 38zM365 702q40 0 40 -38q0 -40 -40 -40q-39 0 -39 40q0 38 39 38zM451 535h35q9 0 9 -9v-511q0 -7 -11 -10
q-67 -10 -202 -10q-63 0 -97.5 7.5t-61.5 28.5q-49 42 -49 183v312q0 9 10 9h34q9 0 9 -9v-312q0 -113 36 -144q20 -17 43.5 -22t68.5 -5h167v483q0 9 9 9z" />
    <glyph glyph-name="Aringacute" unicode="&#x1fa;" horiz-adv-x="643" 
d="M363 1077h42q7 0 7 -7v-8q0 -6 -3 -9l-70 -72q78 -8 78 -91q0 -92 -96 -92q-95 0 -95 92q0 78 69 91l59 91q3 5 9 5zM383 890q0 62 -62 62t-62 -62t62 -62t62 62zM321 746q57 0 75 -19q18 -20 39 -95l173 -622q1 -10 -7 -10h-41q-5 0 -8 9l-68 241h-325l-68 -241
q-3 -9 -9 -9h-41q-9 0 -8 10l177 622q21 74 39 94q20 20 72 20zM321 697q-25 0 -34 -13q-9 -14 -24 -65l-90 -319h297l-88 319q-15 54 -25 65q-9 13 -36 13z" />
    <glyph glyph-name="aringacute" unicode="&#x1fb;" horiz-adv-x="514" 
d="M294 877h43q7 0 7 -7v-8q0 -6 -4 -9l-69 -72q77 -8 77 -91q0 -92 -95 -92q-96 0 -96 92q0 78 69 90l60 92q3 5 8 5zM315 690q0 62 -62 62t-62 -62t62 -62t62 62zM225 542q106 0 160.5 -36.5t54.5 -120.5v-351q0 -18 -18 -23q-51 -16 -201 -16q-101 0 -141 34
q-39 35 -39 122q0 75 38 108.5t123 33.5h185v86q0 62 -40.5 88.5t-121.5 26.5h-124q-9 0 -9 9v22q0 8 8 10q55 7 125 7zM387 54v192h-185q-58 0 -82.5 -22t-24.5 -73q0 -61 29 -85t106 -24q104 0 157 12z" />
    <glyph glyph-name="AEacute" unicode="&#x1fc;" horiz-adv-x="970" 
d="M581 941h43q7 0 7 -8v-7q0 -4 -3 -9l-108 -118q-5 -5 -10 -1l-12 9q-5 5 -2 10l77 119q3 5 8 5zM321 745l230 -4h358q9 0 9 -9v-31q0 -9 -9 -9h-372v-312h335q9 0 9 -10v-31q0 -9 -9 -9h-335v-281h372q9 0 9 -9v-31q0 -9 -9 -9h-412q-15 0 -15 14v236h-323l-69 -241
q-3 -9 -9 -9h-40q-9 0 -8 10l177 622q21 74 39 94q19 19 72 19zM482 300v395h-161q-26 0 -35 -12q-9 -14 -23 -64l-90 -319h309z" />
    <glyph glyph-name="aeacute" unicode="&#x1fd;" horiz-adv-x="849" 
d="M479 741h42q7 0 7 -8v-7q0 -6 -3 -9l-107 -118q-5 -5 -10 -1l-12 9q-5 5 -2 10l76 119q3 5 9 5zM596 542q122 0 162 -51q42 -51 43 -201v-29q0 -11 -4.5 -15t-18.5 -4h-338q1 -119 32 -160q30 -39 124 -39h150q9 0 9 -10v-23q0 -7 -8 -9q-49 -6 -151 -6q-129 0 -169 54
q-72 -54 -207 -54q-102 0 -140 34q-39 35 -39 122q0 76 37.5 109t122.5 33h185v86q0 62 -40.5 88.5t-121.5 26.5h-124q-9 0 -9 9v22q0 7 8 10q55 7 125 7q151 0 193 -74q20 41 61 57.5t118 16.5zM596 494q-96 0 -126 -40q-29 -39 -30 -163h308q-2 126 -31 164
q-29 39 -121 39zM386 246h-185q-58 0 -82.5 -22t-24.5 -73q0 -61 29 -85t106 -24q116 0 178 46q-21 49 -21 158z" />
    <glyph glyph-name="Oslashacute" unicode="&#x1fe;" horiz-adv-x="709" 
d="M411 941h42q7 0 7 -8v-7q0 -6 -3 -9l-107 -118q-5 -5 -10 -1l-12 9q-7 5 -2 10l76 119q3 5 9 5zM643 369q0 -171 -34 -257q-26 -64 -86.5 -90.5t-168.5 -26.5q-139 0 -201 47l-35 -48q-6 -9 -13 -2l-23 15q-6 6 -2 14l39 55q-53 77 -53 293q0 118 12 185t44 111
q32 45 86 63t146 18q145 0 206 -53l29 40q7 8 14 1l23 -16q7 -4 1 -12l-34 -49q50 -79 50 -288zM354 697q-112 0 -166 -42q-27 -21 -42 -62q-25 -70 -25 -224q0 -175 35 -242l371 519q-48 51 -173 51zM587 369q0 170 -32 236l-369 -517q50 -44 168 -44q77 0 120 15t69 53
t35 95t9 162z" />
    <glyph glyph-name="oslashacute" unicode="&#x1ff;" horiz-adv-x="552" 
d="M326 741h43q7 0 7 -8v-7q0 -4 -3 -9l-108 -118q-5 -5 -10 -1l-12 9q-5 5 -2 10l77 119q3 5 8 5zM491 269q0 -165 -42 -220q-42 -54 -173 -54q-102 0 -146 32l-21 -30q-6 -9 -13 -3l-23 16q-7 6 -3 13l27 37q-36 55 -36 209q0 164 42 218q43 55 173 55q99 0 143 -31l19 26
q7 7 13 3l23 -16q8 -5 2 -13l-22 -31q37 -53 37 -211zM276 494q-100 0 -131 -45q-30 -43 -30 -180q0 -115 19 -157l254 355q-32 27 -112 27zM418 430l-256 -359q31 -28 114 -28q101 0 131 44q31 44 31 182q0 113 -20 161z" />
    <glyph glyph-name="uni0218" unicode="&#x218;" horiz-adv-x="587" 
d="M493 739q9 0 9 -8v-25q0 -9 -8 -9h-217q-84 0 -123 -26.5t-39 -84.5v-13q0 -49 18 -76t70 -48l234 -100q104 -47 104 -168v-27q0 -85 -52 -124q-19 -15 -57 -24q-38 -8 -63 -9q-34 -2 -71 -2q-158 0 -242 7q-8 0 -8 9v25q0 8 9 8h254q63 0 100 9q75 21 75 102v22
q0 93 -81 130l-242 101q-60 25 -82 61.5t-22 98.5v19q0 89 59 124t173 35q119 0 202 -7zM280 -37h38q7 0 7 -7v-7q0 -7 -3 -9l-103 -119q-4 -4 -10 0l-12 9q-5 5 -2 10l77 119q3 4 8 4z" />
    <glyph glyph-name="uni0219" unicode="&#x219;" horiz-adv-x="464" 
d="M225 542q109 0 162 -6q8 -2 8 -9v-24q0 -9 -9 -9h-177q-101 0 -101 -68v-19q0 -34 14 -53t54 -36l152 -63q51 -21 70 -50t19 -76v-14q0 -71 -42 -96q-42 -24 -149 -24q-118 0 -168 6q-8 2 -8 9v23q0 10 9 10h168q79 0 108 15t29 57v15q0 30 -14 48.5t-47 33.5l-157 64
q-51 21 -71 51.5t-20 80.5v22q0 74 60 95q44 17 110 17zM207 -37h38q7 0 7 -7v-7q0 -6 -3 -9l-103 -119q-5 -5 -10 0l-12 9q-7 5 -2 10l76 119q3 4 9 4z" />
    <glyph glyph-name="uni021A" unicode="&#x21a;" horiz-adv-x="584" 
d="M23 741h538q10 0 10 -9v-31q0 -9 -10 -9h-241v-683q0 -9 -9 -9h-37q-9 0 -9 9v683h-242q-10 0 -10 9v31q0 9 10 9zM271 -37h38q8 0 8 -7v-7q0 -6 -4 -9l-103 -119q-4 -4 -10 0l-12 9q-5 5 -2 10l77 119q3 4 8 4z" />
    <glyph glyph-name="uni021B" unicode="&#x21b;" horiz-adv-x="307" 
d="M108 680l34 8q10 3 10 -8v-145h116q10 0 10 -9v-26q0 -9 -10 -9h-116v-391q0 -34 13 -45.5t52 -11.5h60q10 0 10 -9v-25q0 -7 -8 -10q-23 -4 -60 -4q-64 0 -92 20t-28 77v399h-57q-10 0 -10 9v26q0 9 10 9h57v135q0 7 9 10zM175 -37h38q7 0 7 -7v-7q0 -6 -3 -9l-103 -119
q-4 -4 -10 0l-12 9q-7 5 -2 10l76 119q3 4 9 4z" />
    <glyph glyph-name="circumflex.001" unicode="&#x2c6;" horiz-adv-x="474" 
d="M225 741h24q7 0 10 -5l93 -119q5 -5 -2 -10l-12 -9q-4 -4 -10 1l-91 91l-92 -91q-5 -5 -10 -1l-12 9q-5 5 -2 10l94 119q3 5 10 5z" />
    <glyph glyph-name="caron.001" unicode="&#x2c7;" horiz-adv-x="474" 
d="M338 739l12 -10q6 -3 2 -10l-93 -118q-3 -5 -10 -5h-24q-7 0 -10 5l-94 118q-3 7 2 10l12 10q5 4 10 -1l92 -91l91 91q6 6 10 1z" />
    <glyph glyph-name="breve.001" unicode="&#x2d8;" horiz-adv-x="508" 
d="M358 728h21q9 0 8 -10q-5 -65 -33 -89q-28 -23 -100 -23t-101 23q-28 24 -33 89q0 10 9 10h21q7 0 10 -8q6 -41 25.5 -56.5t68.5 -15.5t68.5 15.5t25.5 56.5q2 8 10 8z" />
    <glyph glyph-name="dotaccent.001" unicode="&#x2d9;" horiz-adv-x="317" 
d="M196 664q0 -40 -39 -40t-39 40q0 38 39 38t39 -38z" />
    <glyph glyph-name="ring" unicode="&#x2da;" horiz-adv-x="433" 
d="M217 783q95 0 95 -93q0 -92 -95 -92q-96 0 -96 92q0 93 96 93zM279 690q0 62 -62 62t-62 -62t62 -62t62 62z" />
    <glyph glyph-name="ogonek" unicode="&#x2db;" horiz-adv-x="383" 
d="M145 13h20q10 0 9 -10q-19 -74 -11 -95t50 -21h40q10 0 10 -9v-19q0 -9 -8 -12q-37 -5 -51 -5q-46 0 -65 16.5t-19 58.5q0 36 15 89q1 7 10 7z" />
    <glyph glyph-name="tilde" unicode="&#x2dc;" horiz-adv-x="546" 
d="M209 717q21 0 66 -27q46 -26 61 -26q21 0 31.5 9.5t18.5 36.5q3 9 11 7l17 -3q10 -1 7 -13q-13 -51 -30 -68t-54 -17q-20 0 -66 26q-45 27 -61 27q-20 0 -30 -10t-20 -38q-4 -8 -11 -7l-17 3q-9 3 -6 13q13 52 30 69.5t53 17.5z" />
    <glyph glyph-name="hungarumlaut.001" unicode="&#x2dd;" horiz-adv-x="533" 
d="M206 741h43q7 0 7 -8v-7q0 -4 -3 -9l-108 -118q-5 -5 -10 -1l-12 9q-5 5 -2 10l77 119q3 5 8 5zM363 741h43q7 0 7 -8v-7q0 -5 -4 -9l-107 -118q-5 -5 -10 -1l-12 9q-5 5 -2 10l77 119q3 5 8 5z" />
    <glyph glyph-name="uni0326" unicode="&#x326;" horiz-adv-x="0" 
d="M208 -37h38q7 0 7 -7v-7q0 -6 -3 -9l-103 -119q-5 -5 -10 0l-12 9q-7 5 -2 10l76 119q3 4 9 4z" />
    <glyph glyph-name="pi" unicode="&#x3c0;" horiz-adv-x="612" 
d="M36 539h544q9 0 9 -9v-28q0 -10 -9 -10h-89v-483q0 -9 -9 -9h-32q-10 0 -10 9v483h-262q0 -245 -44 -483q-2 -9 -9 -9h-32q-5 0 -8 2.5t-2 6.5q45 234 45 483h-92q-9 0 -9 10v28q0 9 9 9z" />
    <glyph glyph-name="uni0401" unicode="&#x401;" 
d="M268 864q0 -40 -39 -40t-39 40q0 38 39 38t39 -38zM389 902q40 0 40 -38q0 -40 -40 -40q-39 0 -39 40q0 38 39 38zM106 741h438q9 0 9 -9v-31q0 -9 -9 -9h-397v-312h360q9 0 9 -10v-31q0 -9 -9 -9h-360v-281h397q9 0 9 -9v-31q0 -9 -9 -9h-438q-15 0 -15 14v712
q0 15 15 15z" />
    <glyph glyph-name="uni0410" unicode="&#x410;" horiz-adv-x="643" 
d="M321 746q57 0 75 -19q18 -20 39 -95l173 -622q1 -10 -7 -10h-41q-5 0 -8 9l-68 241h-325l-68 -241q-3 -9 -9 -9h-41q-9 0 -8 10l177 622q21 74 39 94q20 20 72 20zM321 697q-25 0 -34 -13q-9 -14 -24 -65l-90 -319h297l-88 319q-15 54 -25 65q-9 13 -36 13z" />
    <glyph glyph-name="uni0411" unicode="&#x411;" horiz-adv-x="660" 
d="M147 692v-270h221q122 0 181 -44q60 -43 60 -160v-21q0 -117 -60 -160q-59 -42 -181 -42q-199 0 -267 4q-10 0 -10 9v724q0 9 10 9h466q10 0 10 -9v-31q0 -9 -10 -9h-420zM554 197v20q0 87 -43.5 121t-139.5 34h-224v-328h223q99 0 141.5 33t42.5 120z" />
    <glyph glyph-name="uni0412" unicode="&#x412;" horiz-adv-x="668" 
d="M336 746q129 0 191 -44t62 -160q0 -144 -86 -165v-2q106 -19 106 -178q0 -117 -60 -160q-59 -42 -181 -42q-199 0 -267 4q-10 0 -10 9v725q0 9 10 9q68 4 235 4zM333 697h-186v-298h208q103 0 140 25q39 26 39 115q0 92 -48 125t-153 33zM394 351h-247v-307h223
q99 0 141.5 33t42.5 120q0 85 -38 119.5t-122 34.5z" />
    <glyph glyph-name="uni0413" unicode="&#x413;" horiz-adv-x="533" 
d="M137 0h-36q-10 0 -10 9v718q0 14 15 14h405q9 0 9 -9v-31q0 -9 -9 -9h-364v-683q0 -9 -10 -9z" />
    <glyph glyph-name="uni0414" unicode="&#x414;" horiz-adv-x="672" 
d="M229 741h326q15 0 15 -14v-678h38q15 0 15 -14v-178q0 -9 -9 -9h-34q-10 0 -10 9v143h-487v-143q0 -9 -9 -9h-34q-10 0 -10 9v178q0 14 15 14h46q27 19 37 44t18 84l69 552q1 12 14 12zM515 49v643h-250l-66 -530q-9 -79 -32 -113h348z" />
    <glyph glyph-name="uni0415" unicode="&#x415;" 
d="M106 741h438q9 0 9 -9v-31q0 -9 -9 -9h-397v-312h360q9 0 9 -10v-31q0 -9 -9 -9h-360v-281h397q9 0 9 -9v-31q0 -9 -9 -9h-438q-15 0 -15 14v712q0 15 15 15z" />
    <glyph glyph-name="uni0416" unicode="&#x416;" horiz-adv-x="894" 
d="M862 729l-331 -330l347 -384q6 -5 3 -10t-12 -5h-41q-10 0 -14 6l-339 378v-375q0 -9 -10 -9h-36q-10 0 -10 9v375l-340 -378q-3 -6 -13 -6h-41q-9 0 -12 5t3 10l347 384l-331 330q-5 5 -3.5 8.5t8.5 3.5h43q8 0 13 -5l326 -320v316q0 9 10 9h36q10 0 10 -9v-316l326 320
q5 5 13 5h43q7 0 8.5 -3.5t-3.5 -8.5z" />
    <glyph glyph-name="uni0417" unicode="&#x417;" horiz-adv-x="586" 
d="M233 746q119 0 179 -20q104 -31 104 -165v-27q0 -65 -30.5 -107.5t-83.5 -55.5q114 -29 114 -163v-26q0 -112 -65 -150q-64 -37 -218 -37q-116 0 -176 4q-9 1 -9 5v34q0 6 9 6h180q119 0 171 28t52 111v22q0 78 -43.5 110t-137.5 32h-186q-8 0 -8 7v33q0 8 8 8h186
q95 0 138 31.5t43 109.5v27q0 82 -53 108q-54 26 -174 26h-176q-9 0 -9 6v33q0 4 9 6q60 4 176 4z" />
    <glyph glyph-name="uni0418" unicode="&#x418;" horiz-adv-x="755" 
d="M101 741h36q10 0 10 -9v-647l433 639q12 17 33 17h42q9 0 9 -9v-723q0 -9 -9 -9h-37q-9 0 -9 9v662l-447 -659q-9 -12 -22 -12h-39q-10 0 -10 9v723q0 9 10 9z" />
    <glyph glyph-name="uni0419" unicode="&#x419;" horiz-adv-x="755" 
d="M482 928h22q9 0 8 -10q-5 -65 -33 -89q-29 -23 -101 -23t-101 24q-27 23 -32 88q-1 10 8 10h22q7 0 9 -8q7 -42 26.5 -57t67.5 -15q49 0 68.5 15t26.5 57q2 8 9 8zM101 741h36q10 0 10 -9v-647l433 639q12 17 33 17h42q9 0 9 -9v-723q0 -9 -9 -9h-37q-9 0 -9 9v662
l-447 -659q-9 -12 -22 -12h-39q-10 0 -10 9v723q0 9 10 9z" />
    <glyph glyph-name="uni041A" unicode="&#x41a;" horiz-adv-x="574" 
d="M494 741h43q7 0 8.5 -3.5t-3.5 -8.5l-339 -330l355 -384q6 -5 3.5 -10t-13.5 -5h-40q-10 0 -14 6l-347 378v-375q0 -9 -10 -9h-36q-10 0 -10 9v723q0 9 10 9h36q10 0 10 -9v-316l334 320q5 5 13 5z" />
    <glyph glyph-name="uni041B" unicode="&#x41b;" horiz-adv-x="679" 
d="M246 741h327q15 0 15 -14v-718q0 -9 -9 -9h-37q-9 0 -9 9v683h-250l-66 -530q-12 -98 -47 -133q-34 -34 -102 -34q-20 0 -30 3q-9 2 -9 9v28q0 9 9 9h13q61 0 82 28t30 105l69 552q2 12 14 12z" />
    <glyph glyph-name="uni041C" unicode="&#x41c;" horiz-adv-x="903" 
d="M728 741h36q13 0 15 -14l60 -718q0 -9 -9 -9h-37q-9 0 -9 9l-52 646l-245 -624q-5 -12 -18 -12h-35q-14 0 -18 12l-244 624l-52 -646q0 -9 -9 -9h-37q-10 0 -9 9l59 718q2 14 16 14h35q12 0 19 -7.5t16 -29.5l242 -624l242 624q9 22 15.5 29.5t18.5 7.5z" />
    <glyph glyph-name="uni041D" unicode="&#x41d;" horiz-adv-x="761" 
d="M624 741h37q9 0 9 -9v-723q0 -9 -9 -9h-37q-9 0 -9 9v348h-469v-348q0 -9 -9 -9h-37q-9 0 -9 9v723q0 9 9 9h37q9 0 9 -9v-325h469v325q0 9 9 9z" />
    <glyph glyph-name="uni041E" unicode="&#x41e;" horiz-adv-x="709" 
d="M354 746q136 0 203 -49q34 -25 52 -71q34 -82 34 -257q0 -171 -34 -257q-26 -64 -86.5 -90.5t-168.5 -26.5q-92 0 -146 17.5t-86 61.5t-44 110.5t-12 184.5t12 185t44 111q32 45 86 63t146 18zM121 369q0 -105 9 -162t34 -95q26 -38 69.5 -53t120.5 -15t120 15t69 53
t35 95t9 162q0 155 -26 224q-22 58 -68.5 80t-138.5 24q-112 0 -166 -42q-27 -21 -42 -62q-25 -70 -25 -224z" />
    <glyph glyph-name="uni041F" unicode="&#x41f;" horiz-adv-x="685" 
d="M106 741h473q15 0 15 -14v-718q0 -9 -10 -9h-36q-10 0 -10 9v683h-392v-683q0 -9 -9 -9h-37q-9 0 -9 9v718q0 14 15 14z" />
    <glyph glyph-name="uni0420" unicode="&#x420;" horiz-adv-x="621" 
d="M273 746q63 0 102 -3q96 -5 135 -34q35 -25 50.5 -70.5t15.5 -124.5q0 -81 -15.5 -126t-49.5 -70q-21 -15 -59 -22q-44 -9 -77 -10q-50 -2 -102 -2h-126v-275q0 -9 -10 -9h-36q-10 0 -10 9v724q0 9 10 9q68 4 172 4zM270 697h-123v-363h123q57 0 75 1q76 2 106 15
q38 16 53.5 53t16.5 110q0 117 -52 156q-17 12 -48 18q-54 10 -151 10z" />
    <glyph glyph-name="uni0421" unicode="&#x421;" horiz-adv-x="575" 
d="M355 746q103 0 173 -5q9 0 9 -9v-26q0 -9 -9 -9h-173q-76 0 -120 -15.5t-70 -54.5q-25 -38 -34.5 -96t-9.5 -161t9.5 -160.5t34.5 -95.5q26 -39 70 -54.5t120 -15.5h173q9 0 9 -9v-26q0 -9 -9 -9q-70 -5 -173 -5q-92 0 -146 18t-86 62q-32 45 -44.5 112.5t-12.5 182.5
q0 172 33 256q30 66 88 92t168 28z" />
    <glyph glyph-name="uni0422" unicode="&#x422;" horiz-adv-x="584" 
d="M23 741h538q10 0 10 -9v-31q0 -9 -10 -9h-241v-683q0 -9 -9 -9h-37q-9 0 -9 9v683h-242q-10 0 -10 9v31q0 9 10 9z" />
    <glyph glyph-name="uni0423" unicode="&#x423;" horiz-adv-x="584" 
d="M528 741h40q10 0 7 -11l-211 -537q-48 -122 -86 -160t-99 -38q-43 0 -54 4q-8 2 -8 10v26q0 9 9 9h46q37 0 61.5 22.5t53.5 85.5l-278 578q-6 11 7 11h41q8 0 11 -7l247 -515l201 515q4 7 12 7z" />
    <glyph glyph-name="uni0424" unicode="&#x424;" horiz-adv-x="847" 
d="M406 745h37q9 0 9 -9v-85q109 -2 168 -13q61 -10 105 -43q42 -30 58 -81.5t16 -141.5q0 -133 -45 -195q-23 -33 -65 -50q-77 -32 -237 -33v-85q0 -9 -9 -9h-37q-9 0 -9 9v85q-98 1 -168 13q-62 10 -106 42q-42 32 -58.5 83t-16.5 140q0 90 16.5 141.5t58.5 81.5
q41 31 101.5 42.5t172.5 13.5v85q0 9 9 9zM397 143v459q-176 -3 -235 -47t-59 -183q0 -138 59 -183q60 -45 235 -46zM452 602v-459q173 1 233 46q59 45 59 183q0 139 -59 183q-59 46 -233 47z" />
    <glyph glyph-name="uni0425" unicode="&#x425;" horiz-adv-x="601" 
d="M512 741h42q13 0 6 -13l-227 -340l253 -379q9 -13 -6 -13h-43q-9 0 -15 9l-222 334l-221 -332q-5 -9 -15 -9h-42q-14 0 -6 13l251 377l-227 340q-7 13 6 13h42q10 0 15 -9l197 -294l197 294q5 9 15 9z" />
    <glyph glyph-name="uni0426" unicode="&#x426;" horiz-adv-x="719" 
d="M610 732v-683h69q15 0 15 -14v-178q0 -9 -10 -9h-33q-9 0 -9 9v143h-536q-15 0 -15 14v718q0 9 9 9h37q9 0 9 -9v-683h409v683q0 9 9 9h37q9 0 9 -9z" />
    <glyph glyph-name="uni0427" unicode="&#x427;" horiz-adv-x="612" 
d="M475 741h37q9 0 9 -9v-723q0 -9 -9 -9h-37q-9 0 -9 9v275h-104q-52 0 -104 2q-98 6 -135 32q-34 25 -49.5 70t-15.5 126v218q0 9 9 9h37q9 0 9 -9v-219q-5 -112 52 -154q16 -11 48 -17q47 -6 65 -7q21 -1 87 -1h101v398q0 9 9 9z" />
    <glyph glyph-name="uni0428" unicode="&#x428;" horiz-adv-x="958" 
d="M821 741h37q9 0 9 -9v-718q0 -14 -15 -14h-746q-15 0 -15 14v718q0 9 9 9h37q9 0 9 -9v-683h305v683q0 9 10 9h36q10 0 10 -9v-683h305v683q0 9 9 9z" />
    <glyph glyph-name="uni0429" unicode="&#x429;" horiz-adv-x="976" 
d="M867 732v-683h69q15 0 15 -14v-178q0 -9 -9 -9h-34q-9 0 -9 9v143h-793q-15 0 -15 14v718q0 9 9 9h37q9 0 9 -9v-683h305v683q0 9 10 9h36q10 0 10 -9v-683h305v683q0 9 9 9h37q9 0 9 -9z" />
    <glyph glyph-name="uni042A" unicode="&#x42a;" horiz-adv-x="691" 
d="M188 732v-310h221q122 0 181 -44q60 -43 60 -160v-21q0 -117 -60 -160q-58 -42 -181 -42q-199 0 -267 4q-9 0 -9 9v684h-106q-9 0 -9 9v31q0 9 9 9h152q9 0 9 -9zM595 197v20q0 87 -43.5 121t-139.5 34h-224v-328h224q98 0 140.5 33t42.5 120z" />
    <glyph glyph-name="uni042B" unicode="&#x42b;" horiz-adv-x="849" 
d="M146 732v-310h222q120 0 181 -44q60 -43 60 -160v-21q0 -117 -60 -160q-59 -42 -181 -42q-200 0 -268 4q-9 0 -9 9v724q0 9 9 9h37q9 0 9 -9zM712 741h37q9 0 9 -9v-723q0 -9 -9 -9h-37q-9 0 -9 9v723q0 9 9 9zM553 197v20q0 87 -43.5 121t-138.5 34h-225v-328h224
q98 0 140.5 33t42.5 120z" />
    <glyph glyph-name="uni042C" unicode="&#x42c;" horiz-adv-x="650" 
d="M147 732v-310h221q122 0 181 -44q60 -43 60 -160v-21q0 -117 -60 -160q-59 -42 -181 -42q-199 0 -267 4q-10 0 -10 9v724q0 9 10 9h36q10 0 10 -9zM554 197v20q0 87 -43.5 121t-139.5 34h-224v-328h223q99 0 141.5 33t42.5 120z" />
    <glyph glyph-name="uni042D" unicode="&#x42d;" horiz-adv-x="597" 
d="M242 746q136 0 203 -49q34 -25 52 -71q34 -83 34 -256q0 -115 -12.5 -182.5t-44.5 -112.5q-32 -44 -86 -62t-146 -18q-126 0 -196 5q-9 0 -9 9v26q0 9 9 9h196q138 0 185 62q48 64 49 240h-326q-9 0 -9 9v31q0 10 9 10h326q-1 175 -49 238q-47 63 -185 63h-196q-9 0 -9 9
v26q0 9 9 9q68 5 196 5z" />
    <glyph glyph-name="uni042E" unicode="&#x42e;" horiz-adv-x="968" 
d="M613 746q136 0 203 -49q34 -25 52 -71q34 -82 34 -257q0 -171 -34 -257q-26 -64 -86.5 -90.5t-168.5 -26.5q-91 0 -144 17t-86 59q-32 43 -44.5 107.5t-13.5 178.5h-179v-348q0 -9 -9 -9h-37q-9 0 -9 9v723q0 9 9 9h37q9 0 9 -9v-325h179q1 196 61 268q60 71 227 71z
M380 369q0 -105 9 -162t34 -95q26 -38 69.5 -53t120.5 -15t120 15t69 53t35 95t9 162q0 155 -26 224q-22 58 -68.5 80t-138.5 24q-112 0 -166 -42q-27 -21 -42 -62q-25 -70 -25 -224z" />
    <glyph glyph-name="uni042F" unicode="&#x42f;" horiz-adv-x="632" 
d="M360 746q104 0 172 -4q9 0 9 -9v-724q0 -9 -9 -9h-37q-9 0 -9 9v275h-197l-172 -271q-9 -13 -22 -13h-34q-7 0 -9 4t2 8l174 277q-98 11 -135 56q-37 46 -37 169q0 79 15.5 124.5t49.5 70.5q22 16 59 23q60 14 180 14zM486 334v363h-123q-43 0 -87 -2q-84 -6 -113 -26
q-52 -39 -52 -156q-5 -112 52 -154q18 -11 49 -17q47 -6 64 -7q21 -1 87 -1h123z" />
    <glyph glyph-name="uni0430" unicode="&#x430;" horiz-adv-x="514" 
d="M225 542q106 0 160.5 -36.5t54.5 -120.5v-351q0 -18 -18 -23q-51 -16 -201 -16q-101 0 -141 33q-39 34 -39 120v7q0 73 38 105.5t123 32.5h185v86q0 62 -40.5 88.5t-121.5 26.5h-124q-10 0 -10 9v22q0 7 9 10q53 7 125 7zM387 54v192h-184q-64 0 -86.5 -21t-22.5 -75v-3
q0 -61 28 -83q28 -21 103 -21q104 0 162 11z" />
    <glyph glyph-name="uni0431" unicode="&#x431;" horiz-adv-x="562" 
d="M454 746h24q8 0 8 -15q-3 -31 -24.5 -46.5t-71.5 -25.5q-119 -22 -157 -37q-71 -30 -93 -103q-6 -19 -9 -44q42 67 155 67q131 0 173 -55q42 -54 42 -218q0 -165 -42 -220q-42 -54 -173 -54q-130 0 -173 54q-42 56 -42 220v87q0 84 12 153q9 44 42 95q17 26 75 55
q16 10 51 19q47 13 130 28q47 9 59 32l3 4q3 4 11 4zM286 494q-100 0 -131 -45q-30 -43 -30 -180t30 -182q32 -44 131 -44q101 0 131 44q31 44 31 182q0 137 -31 180q-30 45 -131 45z" />
    <glyph glyph-name="uni0432" unicode="&#x432;" horiz-adv-x="541" 
d="M272 542q103 0 150 -34.5t47 -116.5q0 -104 -69 -119v-2q85 -13 85 -128q0 -82 -45 -114.5t-145 -32.5q-151 0 -208 4q-9 0 -9 9v521q0 7 9 9q85 4 185 4zM268 492h-135v-200h146q77 0 106 17q29 18 29 77t-34 82.5t-112 23.5zM311 248h-178v-204h163q70 0 101.5 23
t31.5 79t-28 79t-90 23z" />
    <glyph glyph-name="uni0433" unicode="&#x433;" horiz-adv-x="435" 
d="M89 535h316q8 0 8 -7v-34q0 -8 -8 -8h-272v-478q0 -8 -8 -8h-39q-8 0 -8 8v517q0 10 11 10z" />
    <glyph glyph-name="uni0434" unicode="&#x434;" horiz-adv-x="546" 
d="M183 535h261q12 0 12 -10v-476h30q12 0 12 -10v-140q0 -7 -8 -7h-36q-8 0 -8 7v101h-362v-101q0 -7 -8 -7h-36q-8 0 -8 7v140q0 10 11 10h35q21 12 29.5 31.5t14.5 63.5l51 382q1 9 10 9zM400 49v437h-177l-47 -358q-7 -53 -25 -79h249z" />
    <glyph glyph-name="uni0435" unicode="&#x435;" horiz-adv-x="525" 
d="M272 542q122 0 162 -51q40 -49 42 -201v-29q0 -12 -4 -15.5t-18 -3.5h-339q1 -119 32 -160q30 -39 125 -39h150q9 0 9 -10v-23q0 -7 -8 -9q-49 -6 -151 -6q-130 0 -170 54q-40 53 -40 220q0 90 8 138t31 80t61.5 43.5t109.5 11.5zM272 494q-96 0 -126 -40t-31 -163h308
q-2 125 -30 164q-29 39 -121 39z" />
    <glyph glyph-name="uni0436" unicode="&#x436;" horiz-adv-x="739" 
d="M704 526l-250 -237l264 -278q4 -4 2.5 -7.5t-7.5 -3.5h-47q-7 0 -12 5l-257 269v-265q0 -9 -9 -9h-37q-9 0 -9 9v265l-257 -269q-5 -5 -12 -5h-47q-6 0 -7.5 3.5t2.5 7.5l264 278l-250 237q-4 4 -2 6.5t8 2.5h44q7 0 11 -4l246 -229v224q0 9 9 9h37q9 0 9 -9v-224
l246 229q4 4 14 4h41q6 0 8 -2.5t-2 -6.5z" />
    <glyph glyph-name="uni0437" unicode="&#x437;" horiz-adv-x="480" 
d="M197 541q118 0 169 -27q51 -26 51 -107v-24q0 -46 -22.5 -76t-62.5 -39q85 -19 85 -114v-23q0 -80 -51 -109q-51 -27 -169 -27q-63 0 -141 6q-8 0 -8 8v28q0 7 9 7h141q90 0 126.5 19.5t36.5 72.5v15q0 52 -30.5 73t-100.5 21h-143q-9 0 -9 8v29q0 9 9 9h142
q71 0 101.5 21t30.5 73v18q0 53 -36.5 71t-129.5 18h-139q-8 0 -8 7v27q0 10 9 10q72 5 140 5z" />
    <glyph glyph-name="uni0438" unicode="&#x438;" horiz-adv-x="604" 
d="M482 535h36q8 0 8 -7v-520q0 -8 -8 -8h-39q-8 0 -8 8v445l-331 -442q-8 -11 -20 -11h-34q-8 0 -8 8v520q0 7 8 7h39q8 0 8 -7v-435l320 428q9 14 29 14z" />
    <glyph glyph-name="uni0439" unicode="&#x439;" horiz-adv-x="604" 
d="M410 728h22q9 0 8 -10q-5 -65 -33 -89q-29 -23 -101 -23t-101 24q-27 23 -32 88q-1 10 8 10h22q7 0 9 -8q6 -41 25.5 -56.5t68.5 -15.5t68.5 15t26.5 57q2 8 9 8zM482 535h36q8 0 8 -7v-520q0 -8 -8 -8h-39q-8 0 -8 8v445l-331 -442q-8 -11 -20 -11h-34q-8 0 -8 8v520
q0 7 8 7h39q8 0 8 -7v-435l320 428q9 14 29 14z" />
    <glyph glyph-name="uni043A" unicode="&#x43a;" horiz-adv-x="471" 
d="M391 535h43q6 0 8 -2.5t-2 -6.5l-250 -237l264 -278q4 -4 2.5 -7.5t-7.5 -3.5h-47q-7 0 -12 5l-257 270v-266q0 -9 -9 -9h-37q-9 0 -9 9v517q0 9 9 9h37q9 0 9 -9v-224l246 229q4 4 12 4z" />
    <glyph glyph-name="uni043B" unicode="&#x43b;" horiz-adv-x="566" 
d="M217 535h258q13 0 13 -12v-515q0 -8 -8 -8h-39q-8 0 -8 8v478h-178l-49 -340q-12 -85 -42 -118t-96 -33q-14 0 -27 3q-9 3 -9 10v30q0 7 8 7h12q54 0 72 24q17 23 28 90l53 366q1 10 12 10z" />
    <glyph glyph-name="uni043C" unicode="&#x43c;" horiz-adv-x="726" 
d="M573 535h36q10 0 11 -10l48 -517q0 -8 -8 -8h-40q-6 0 -8 8l-38 434l-180 -419q-3 -8 -14 -8h-35q-11 0 -14 8l-179 420l-39 -435q-2 -8 -8 -8h-39q-10 0 -8 8l47 517q1 10 12 10h36q19 0 29 -27l180 -426l181 426q7 16 13 21.5t17 5.5z" />
    <glyph glyph-name="uni043D" unicode="&#x43d;" horiz-adv-x="608" 
d="M484 535h37q9 0 9 -9v-517q0 -9 -9 -9h-37q-9 0 -9 9v240h-342v-240q0 -9 -9 -9h-37q-9 0 -9 9v517q0 9 9 9h37q9 0 9 -9v-227h342v227q0 9 9 9z" />
    <glyph glyph-name="uni043E" unicode="&#x43e;" horiz-adv-x="552" 
d="M491 269q0 -165 -43 -220q-42 -54 -172 -54t-173 54q-42 56 -42 220t42 218q43 55 173 55t172 -55q43 -53 43 -218zM114 269q0 -138 31 -182q32 -44 131 -44t131 44q31 44 31 182q0 137 -31 180q-31 45 -131 45t-131 -45q-31 -43 -31 -180z" />
    <glyph glyph-name="uni043F" unicode="&#x43f;" horiz-adv-x="549" 
d="M87 535h375q9 0 9 -9v-517q0 -9 -9 -9h-37q-9 0 -9 9v477h-283v-477q0 -9 -9 -9h-37q-9 0 -9 9v517q0 9 9 9z" />
    <glyph glyph-name="uni0440" unicode="&#x440;" horiz-adv-x="559" 
d="M290 542q72 0 110 -11.5t60 -44.5q22 -34 30 -84q7 -46 7 -138q0 -90 -7 -135q-8 -49 -32 -80q-24 -32 -65 -43t-120 -11q-45 0 -142 5v-184q0 -10 -9 -10h-35q-9 0 -9 10v703q0 12 12 15q118 8 200 8zM290 494h-159v-446q63 -5 142 -5q84 0 126 25q21 14 29 41
q16 49 16 155q0 111 -15 160q-14 40 -44 54t-95 16z" />
    <glyph glyph-name="uni0441" unicode="&#x441;" horiz-adv-x="466" 
d="M276 542q96 0 145 -6q8 -2 8 -9v-24q0 -9 -9 -9h-144q-100 0 -131 -45q-31 -43 -31 -180q0 -138 31 -182q32 -44 131 -44h144q9 0 9 -10v-23q0 -7 -8 -9q-49 -6 -145 -6q-130 0 -173 54q-42 56 -42 220t42 218q43 55 173 55z" />
    <glyph glyph-name="uni0442" unicode="&#x442;" horiz-adv-x="478" 
d="M31 535h416q9 0 9 -9v-31q0 -9 -9 -9h-180v-477q0 -9 -9 -9h-37q-9 0 -9 9v477h-181q-9 0 -9 9v31q0 9 9 9z" />
    <glyph glyph-name="uni0443" unicode="&#x443;" horiz-adv-x="570" 
d="M448 535h35q9 0 9 -9v-507q0 -131 -42 -174q-41 -44 -172 -44q-72 0 -137 5q-9 0 -9 10v23q0 10 9 10h137q98 0 129 30q32 29 32 114v12q-83 -10 -158 -10q-72 0 -110.5 11.5t-60.5 43.5q-23 35 -30 83q-7 46 -7 139v254q0 9 9 9h35q9 0 9 -9v-253q0 -143 27 -187
q27 -43 128 -43q78 0 158 11v472q0 9 9 9z" />
    <glyph glyph-name="uni0444" unicode="&#x444;" horiz-adv-x="742" 
d="M505 542q103 0 139 -58q37 -56 37 -215q0 -160 -37 -216q-36 -57 -139 -57q-75 0 -107 24v-204q0 -10 -9 -10h-35q-9 0 -9 10v204q-31 -24 -107 -24q-102 0 -140 57q-36 57 -36 216q0 158 36 215q37 58 140 58q27 0 59.5 -6.5t47.5 -17.5v214q0 9 9 9h35q9 0 9 -9v-214
q15 11 47.5 17.5t59.5 6.5zM345 65v407q-26 22 -101 22q-81 0 -105 -45t-24 -180q0 -136 24 -181t105 -45q75 0 101 22zM499 43q81 0 105 45t24 181q0 135 -24 180t-105 45q-75 0 -100 -22v-407q25 -22 100 -22z" />
    <glyph glyph-name="uni0445" unicode="&#x445;" horiz-adv-x="495" 
d="M402 535h44q13 0 4 -11l-171 -239l196 -274q5 -11 -6 -11h-43q-7 0 -10 6l-168 235l-169 -235q-3 -6 -9 -6h-44q-13 0 -5 11l196 274l-172 239q-8 11 5 11h43q6 0 11 -5l144 -201l144 201q2 5 10 5z" />
    <glyph glyph-name="uni0446" unicode="&#x446;" horiz-adv-x="579" 
d="M483 526v-477h54q10 0 10 -9v-139q0 -9 -10 -9h-33q-9 0 -9 9v99h-408q-9 0 -9 9v517q0 9 9 9h37q9 0 9 -9v-477h294v477q0 9 10 9h36q10 0 10 -9z" />
    <glyph glyph-name="uni0447" unicode="&#x447;" horiz-adv-x="502" 
d="M378 535h37q9 0 9 -9v-517q0 -9 -9 -9h-37q-9 0 -9 9v190h-47q-51 0 -101 2q-89 6 -122 32q-53 53 -48 195v98q0 9 9 9h37q9 0 9 -9v-98q0 -37 2 -73q5 -58 33 -82q11 -8 41 -16q23 -6 58 -8q20 -1 85 -1h44v278q0 9 9 9z" />
    <glyph glyph-name="uni0448" unicode="&#x448;" horiz-adv-x="760" 
d="M636 535h37q9 0 9 -9v-517q0 -9 -9 -9h-586q-9 0 -9 9v517q0 9 9 9h37q9 0 9 -9v-477h220v477q0 9 9 9h37q9 0 9 -9v-477h219v477q0 9 9 9z" />
    <glyph glyph-name="uni0449" unicode="&#x449;" horiz-adv-x="779" 
d="M683 526v-477h54q10 0 10 -9v-139q0 -9 -10 -9h-34q-9 0 -9 9v99h-607q-9 0 -9 9v517q0 9 9 9h37q9 0 9 -9v-477h220v477q0 9 9 9h37q9 0 9 -9v-477h220v477q0 9 9 9h37q9 0 9 -9z" />
    <glyph glyph-name="uni044A" unicode="&#x44a;" horiz-adv-x="583" 
d="M192 528v-218h162q99 0 144 -32.5t45 -114.5v-21q0 -82 -45 -114.5t-144 -32.5q-153 0 -210 4q-7 1 -7 7v480h-108q-8 0 -8 8v34q0 7 8 7h155q8 0 8 -7zM487 146v13q0 58 -31 80t-101 22h-163v-217h163q70 0 101 23t31 79z" />
    <glyph glyph-name="uni044B" unicode="&#x44b;" horiz-adv-x="680" 
d="M133 528v-218h162q100 0 144.5 -32.5t44.5 -114.5v-21q0 -82 -44.5 -114.5t-144.5 -32.5q-152 0 -209 4q-8 2 -8 7v522q0 7 8 7h39q8 0 8 -7zM558 535h35q9 0 9 -9v-517q0 -9 -9 -9h-35q-9 0 -9 9v517q0 9 9 9zM428 146v13q0 58 -31 80t-101 22h-163v-217h163
q70 0 101 23t31 79z" />
    <glyph glyph-name="uni044C" unicode="&#x44c;" horiz-adv-x="524" 
d="M133 528v-218h162q100 0 144.5 -32.5t44.5 -114.5v-21q0 -82 -44.5 -114.5t-144.5 -32.5q-152 0 -209 4q-8 2 -8 8v521q0 7 8 7h39q8 0 8 -7zM428 146v13q0 58 -31 80t-101 22h-163v-217h163q70 0 101 23t31 79z" />
    <glyph glyph-name="uni044D" unicode="&#x44d;" horiz-adv-x="490" 
d="M204 541q135 0 180 -57q46 -56 46 -216t-46 -216q-45 -57 -180 -57q-97 0 -154 6q-9 0 -9 9v27q0 7 8 7h155q101 0 134 42q34 42 36 158h-243q-8 0 -8 8v33q0 7 8 7h243q-2 116 -36 158t-134 42h-155q-8 0 -8 7v27q0 9 9 9q57 6 154 6z" />
    <glyph glyph-name="uni044E" unicode="&#x44e;" horiz-adv-x="781" 
d="M505 542q130 0 172 -55q43 -53 43 -218t-43 -220q-42 -54 -172 -54q-127 0 -170 51q-44 53 -45 203h-157v-240q0 -9 -9 -9h-37q-9 0 -9 9v517q0 9 9 9h37q9 0 9 -9v-227h157q3 144 46 193q44 50 169 50zM505 43q99 0 131 44q31 44 31 182q0 137 -31 180q-32 45 -131 45
q-101 0 -132 -45q-30 -43 -30 -180t30 -182q32 -44 132 -44z" />
    <glyph glyph-name="uni044F" unicode="&#x44f;" horiz-adv-x="515" 
d="M286 542q86 0 143 -4q8 -2 8 -8v-522q0 -8 -8 -8h-39q-8 0 -8 8v195h-139l-130 -192q-8 -11 -21 -11h-37q-13 0 -5 9l133 198q-72 7 -101 42q-28 34 -28 120q0 109 47 141t185 32zM382 249v243h-93q-110 0 -145 -22q-35 -23 -35 -102q0 -44 8 -66.5t31 -34.5t51 -15
t90 -3h93z" />
    <glyph glyph-name="uni0451" unicode="&#x451;" horiz-adv-x="525" 
d="M228 664q0 -40 -39 -40t-39 40q0 38 39 38t39 -38zM350 702q39 0 39 -38q0 -40 -39 -40q-40 0 -40 40q0 38 40 38zM272 542q122 0 162 -51q40 -49 42 -201v-29q0 -12 -4 -15.5t-18 -3.5h-339q1 -119 32 -160q30 -39 125 -39h150q9 0 9 -10v-23q0 -7 -8 -9q-49 -6 -151 -6
q-130 0 -170 54q-40 53 -40 220q0 90 8 138t31 80t61.5 43.5t109.5 11.5zM272 494q-96 0 -126 -40t-31 -163h308q-2 125 -30 164q-29 39 -121 39z" />
    <glyph glyph-name="Wgrave" unicode="&#x1e80;" horiz-adv-x="1053" 
d="M415 941h42q6 0 9 -5l76 -119q4 -5 -1 -10l-13 -9q-4 -4 -10 1l-107 118q-3 5 -3 9v7q0 8 7 8zM966 741h41q6 0 7.5 -2t0.5 -8l-158 -622q-20 -76 -36 -95t-66 -19q-54 0 -70 19q-18 21 -35 95l-123 503l-123 -503q-19 -75 -36 -95q-16 -19 -70 -19q-50 0 -66 19t-36 95
l-158 622q-1 6 0.5 8t7.5 2h41q6 0 9 -9l153 -610q13 -52 21 -66q8 -12 28 -12q22 0 30 12q8 13 23 66l144 578q1 9 11 9h42q8 0 10 -9l145 -578q13 -49 22 -66q7 -12 30 -12q21 0 28 12q7 14 21 66l153 610q3 9 9 9z" />
    <glyph glyph-name="wgrave" unicode="&#x1e81;" horiz-adv-x="796" 
d="M290 741h42q6 0 9 -5l76 -119q5 -5 -2 -10l-12 -9q-5 -4 -10 1l-107 118q-3 5 -3 9v7q0 8 7 8zM712 535h36q9 0 8 -10l-91 -404q-20 -88 -35 -106q-15 -20 -59 -20q-46 0 -61 19q-14 20 -35 107l-77 318l-77 -318q-21 -88 -36 -107q-13 -19 -60 -19q-43 0 -60 20
q-14 18 -34 106l-91 404q-1 10 8 10h37q7 0 8 -9l89 -399q11 -50 20 -67q8 -14 22 -14q18 0 25 12q6 10 20 69l92 369q4 16 13 16h48q9 0 13 -16l92 -369q14 -59 20 -69q7 -12 25 -12q14 0 22 14q9 17 20 67l89 399q1 9 9 9z" />
    <glyph glyph-name="Wacute" unicode="&#x1e82;" horiz-adv-x="1053" 
d="M594 941h42q7 0 7 -8v-7q0 -6 -3 -9l-107 -118q-5 -5 -10 -1l-12 9q-5 5 -2 10l76 119q3 5 9 5zM966 741h41q6 0 7.5 -2t0.5 -8l-158 -622q-20 -76 -36 -95t-66 -19q-54 0 -70 19q-18 21 -35 95l-123 503l-123 -503q-19 -75 -36 -95q-16 -19 -70 -19q-50 0 -66 19t-36 95
l-158 622q-1 6 0.5 8t7.5 2h41q6 0 9 -9l153 -610q13 -52 21 -66q8 -12 28 -12q22 0 30 12q8 13 23 66l144 578q1 9 11 9h42q8 0 10 -9l145 -578q13 -49 22 -66q7 -12 30 -12q21 0 28 12q7 14 21 66l153 610q3 9 9 9z" />
    <glyph glyph-name="wacute" unicode="&#x1e83;" horiz-adv-x="796" 
d="M448 741h42q7 0 7 -8v-7q0 -4 -3 -9l-107 -118q-5 -5 -10 -1l-12 9q-7 5 -2 10l76 119q3 5 9 5zM712 535h36q9 0 8 -10l-91 -404q-20 -88 -35 -106q-15 -20 -59 -20q-46 0 -61 19q-14 20 -35 107l-77 318l-77 -318q-21 -88 -36 -107q-13 -19 -60 -19q-43 0 -60 20
q-14 18 -34 106l-91 404q-1 10 8 10h37q7 0 8 -9l89 -399q11 -50 20 -67q8 -14 22 -14q18 0 25 12q6 10 20 69l92 369q4 16 13 16h48q9 0 13 -16l92 -369q14 -59 20 -69q7 -12 25 -12q14 0 22 14q9 17 20 67l89 399q1 9 9 9z" />
    <glyph glyph-name="Wdieresis" unicode="&#x1e84;" horiz-adv-x="1053" 
d="M447 902q39 0 39 -38q0 -40 -39 -40q-40 0 -40 40q0 38 40 38zM646 864q0 -40 -39 -40t-39 40q0 38 39 38t39 -38zM966 741h41q6 0 7.5 -2t0.5 -8l-158 -622q-20 -76 -36 -95t-66 -19q-54 0 -70 19q-18 21 -35 95l-123 503l-123 -503q-19 -75 -36 -95q-16 -19 -70 -19
q-50 0 -66 19t-36 95l-158 622q-1 6 0.5 8t7.5 2h41q6 0 9 -9l153 -610q13 -52 21 -66q8 -12 28 -12q22 0 30 12q8 13 23 66l144 578q1 9 11 9h42q8 0 10 -9l145 -578q13 -49 22 -66q7 -12 30 -12q21 0 28 12q7 14 21 66l153 610q3 9 9 9z" />
    <glyph glyph-name="wdieresis" unicode="&#x1e85;" horiz-adv-x="796" 
d="M318 702q39 0 39 -38q0 -40 -39 -40q-40 0 -40 40q0 38 40 38zM517 664q0 -40 -39 -40t-39 40q0 38 39 38t39 -38zM712 535h36q9 0 8 -10l-91 -404q-20 -88 -35 -106q-15 -20 -59 -20q-46 0 -61 19q-14 20 -35 107l-77 318l-77 -318q-21 -88 -36 -107q-13 -19 -60 -19
q-43 0 -60 20q-14 18 -34 106l-91 404q-1 10 8 10h37q7 0 8 -9l89 -399q11 -50 20 -67q8 -14 22 -14q18 0 25 12q6 10 20 69l92 369q4 16 13 16h48q9 0 13 -16l92 -369q14 -59 20 -69q7 -12 25 -12q14 0 22 14q9 17 20 67l89 399q1 9 9 9z" />
    <glyph glyph-name="Ygrave" unicode="&#x1ef2;" horiz-adv-x="619" 
d="M204 941h43q5 0 8 -5l77 -119q3 -5 -2 -10l-12 -9q-5 -4 -10 1l-107 118q-4 4 -4 9v7q0 8 7 8zM560 741h41q14 0 7 -13l-271 -513v-206q0 -9 -9 -9h-37q-9 0 -9 9v206l-271 513q-7 13 7 13h41q11 0 15 -9l235 -452l236 452q5 9 15 9z" />
    <glyph glyph-name="ygrave" unicode="&#x1ef3;" horiz-adv-x="571" 
d="M194 741h43q5 0 8 -5l77 -119q3 -5 -2 -10l-12 -9q-5 -4 -10 1l-107 118q-4 4 -4 9v7q0 8 7 8zM449 535h34q10 0 10 -9v-507q-2 -131 -43 -174q-41 -44 -172 -44q-71 0 -136 5q-9 0 -9 10v23q0 10 9 10h136q98 0 129 30q32 29 32 114v12q-81 -10 -158 -10
q-72 0 -110.5 11.5t-60.5 43.5q-23 35 -30 83q-7 46 -7 139v254q0 9 10 9h34q10 0 10 -9v-253q0 -110 14 -160q12 -39 45 -54.5t95 -15.5q79 0 158 11v472q0 9 10 9z" />
    <glyph glyph-name="uni1EF8" unicode="&#x1ef8;" horiz-adv-x="619" 
d="M246 917q22 0 67 -27q46 -26 60 -26q20 0 30 9t20 37q4 8 11 7l17 -3q10 -3 7 -13q-13 -51 -30 -68t-54 -17q-21 0 -67 26q-45 27 -60 27q-20 0 -30 -10t-20 -38q-4 -8 -11 -7l-17 3q-8 5 -7 13q14 52 31 69.5t53 17.5zM560 741h41q14 0 7 -13l-271 -513v-206q0 -9 -9 -9
h-37q-9 0 -9 9v206l-271 513q-7 13 7 13h41q11 0 15 -9l235 -452l236 452q5 9 15 9z" />
    <glyph glyph-name="uni1EF9" unicode="&#x1ef9;" horiz-adv-x="571" 
d="M232 717q21 0 66 -27q47 -26 61 -26q20 0 30 9t20 37q4 9 11 7l17 -3q10 -3 7 -13q-14 -52 -30 -68q-17 -17 -53 -17q-21 0 -68 26q-45 27 -60 27q-19 0 -29 -9.5t-21 -38.5q-4 -8 -11 -7l-17 3q-7 4 -6 13q13 52 30 69.5t53 17.5zM449 535h34q10 0 10 -9v-507
q-2 -131 -43 -174q-41 -44 -172 -44q-71 0 -136 5q-9 0 -9 10v23q0 10 9 10h136q98 0 129 30q32 29 32 114v12q-81 -10 -158 -10q-72 0 -110.5 11.5t-60.5 43.5q-23 35 -30 83q-7 46 -7 139v254q0 9 10 9h34q10 0 10 -9v-253q0 -110 14 -160q12 -39 45 -54.5t95 -15.5
q79 0 158 11v472q0 9 10 9z" />
    <glyph glyph-name="endash" unicode="&#x2013;" horiz-adv-x="628" 
d="M82 273h463q10 0 10 -10v-31q0 -9 -10 -9h-463q-9 0 -9 9v31q0 10 9 10z" />
    <glyph glyph-name="emdash" unicode="&#x2014;" horiz-adv-x="811" 
d="M82 273h646q10 0 10 -10v-31q0 -9 -10 -9h-646q-9 0 -9 9v31q0 10 9 10z" />
    <glyph glyph-name="quoteleft.001" unicode="&#x2018;" horiz-adv-x="224" 
d="M167 740l12 -6q5 -2 3 -10l-72 -233q-2 -5 -9 -5h-46q-6 0 -6 6v11q0 7 3 10l105 224q3 6 10 3z" />
    <glyph glyph-name="quoteright" unicode="&#x2019;" horiz-adv-x="221" 
d="M132 741h46q7 0 7 -7v-10q0 -6 -4 -11l-104 -223q-5 -6 -10 -3l-12 6q-6 3 -3 10l72 233q2 5 8 5z" />
    <glyph glyph-name="quotesinglbase" unicode="&#x201a;" horiz-adv-x="216" 
d="M99 104h46q7 0 7 -6v-11q0 -6 -4 -10l-100 -213q-4 -7 -10 -4l-13 6q-4 3 -3 10l68 223q2 5 9 5z" />
    <glyph glyph-name="quotedblleft.001" unicode="&#x201c;" horiz-adv-x="369" 
d="M167 740l12 -6q6 -3 3 -10l-72 -233q-2 -5 -8 -5h-46q-7 0 -7 6v11q0 4 3 10l105 224q3 6 10 3zM312 740l12 -6q5 -2 3 -10l-72 -233q-3 -5 -9 -5h-46q-6 0 -6 6v11q0 7 3 10l105 224q3 6 10 3z" />
    <glyph glyph-name="quotedblright" unicode="&#x201d;" horiz-adv-x="372" 
d="M133 741h46q7 0 7 -7v-10q0 -6 -4 -11l-104 -223q-5 -8 -10 -3l-13 6q-4 3 -3 10l72 233q2 5 9 5zM283 741h47q6 0 6 -7v-10q0 -2 -3 -11l-105 -223q-3 -7 -10 -3l-12 6q-5 2 -3 10l72 233q2 5 8 5z" />
    <glyph glyph-name="quotedblbase" unicode="&#x201e;" horiz-adv-x="361" 
d="M99 104h46q7 0 7 -6v-11q0 -6 -4 -10l-100 -213q-4 -7 -10 -4l-13 6q-4 3 -3 10l68 223q2 5 9 5zM243 104h46q7 0 7 -6v-11q0 -4 -3 -10l-101 -213q-3 -7 -10 -4l-12 6q-7 4 -3 10l68 223q2 5 8 5z" />
    <glyph glyph-name="dagger.001" unicode="&#x2020;" horiz-adv-x="454" 
d="M390 503h-137v-494q0 -9 -9 -9h-35q-9 0 -9 9v494h-136q-9 0 -9 9v30q0 9 9 9h136v181q0 9 9 9h35q9 0 9 -9v-181h137q9 0 9 -9v-30q0 -9 -9 -9z" />
    <glyph glyph-name="daggerdbl" unicode="&#x2021;" horiz-adv-x="454" 
d="M209 741h35q9 0 9 -9v-181h137q9 0 9 -9v-30q0 -9 -9 -9h-137v-242h137q9 0 9 -9v-31q0 -9 -9 -9h-137v-203q0 -9 -9 -9h-35q-9 0 -9 9v203h-136q-9 0 -9 10v30q0 9 9 9h136v242h-136q-9 0 -9 9v30q0 9 9 9h136v181q0 9 9 9z" />
    <glyph glyph-name="bullet" unicode="&#x2022;" horiz-adv-x="560" 
d="M198 348q30 27 82 27t81 -27q30 -25 30 -73q0 -47 -30 -74q-29 -26 -81 -26q-51 0 -82 26q-29 27 -29 74t29 73z" />
    <glyph glyph-name="ellipsis.001" unicode="&#x2026;" horiz-adv-x="527" 
d="M99 69q36 0 36 -36q0 -38 -36 -38q-37 0 -37 38q0 36 37 36zM264 69q36 0 36 -36q0 -38 -36 -38q-37 0 -37 38q0 36 37 36zM429 69q36 0 36 -36q0 -38 -36 -38q-37 0 -37 38q0 36 37 36z" />
    <glyph glyph-name="perthousand.001" unicode="&#x2030;" horiz-adv-x="1275" 
d="M209 362q-97 0 -133 41q-35 41 -35 151t36 151t132 41t131 -41q36 -41 36 -151t-36 -151q-35 -41 -131 -41zM618 741h31q11 0 5 -10l-379 -722q-5 -9 -13 -9h-31q-11 0 -5 10l379 722q5 9 13 9zM209 698q-66 0 -91 -31q-24 -31 -24 -113t24 -114q26 -30 91 -30t89 31
q25 31 25 113t-25 113q-24 31 -89 31zM670 -4q-96 0 -132 41q-35 41 -35 151t35 151q36 41 132 41t132 -41t36 -151t-36 -151q-35 -41 -132 -41zM1066 -4q-96 0 -132 41q-35 41 -35 151t35 151q36 41 132 41t132 -41t36 -151t-36 -151q-35 -41 -132 -41zM670 332
q-65 0 -90 -31q-24 -31 -24 -113t24 -113q25 -31 90 -31q66 0 90 30q24 32 24 114t-24 113t-90 31zM1066 332q-65 0 -90 -31q-24 -32 -24 -113q0 -82 24 -113q25 -31 90 -31q66 0 90 30q24 32 24 114t-24 113t-90 31z" />
    <glyph glyph-name="guilsinglleft" unicode="&#x2039;" horiz-adv-x="283" 
d="M177 456h33q9 0 9 -10v-6q0 -7 -4 -11l-122 -156l122 -157q4 -4 4 -11v-6q0 -9 -9 -9h-33q-7 0 -11 6l-116 151q-5 7 -5 14v23q0 8 5 15l116 151q4 6 11 6z" />
    <glyph glyph-name="guilsinglright" unicode="&#x203a;" horiz-adv-x="283" 
d="M73 456h32q7 0 12 -6l116 -151q5 -7 5 -15v-23q0 -7 -5 -14l-116 -151q-5 -6 -12 -6h-32q-9 0 -9 9v6q0 7 4 11l122 157l-122 156q-4 4 -4 11v6q0 10 9 10z" />
    <glyph glyph-name="fraction.001" unicode="&#x2044;" horiz-adv-x="140" 
d="M232 770h24q9 0 4 -11l-338 -776q-4 -10 -14 -10h-25q-10 0 -4 10l339 776q6 11 14 11z" />
    <glyph glyph-name="uni2070" unicode="&#x2070;" horiz-adv-x="377" 
d="M188 486q-87 0 -117 41q-29 43 -29 160t29 160q30 43 117 43t117 -43q30 -42 30 -160t-30 -160q-29 -41 -117 -41zM188 848q-59 0 -78 -34q-20 -34 -20 -127q0 -94 19 -126q19 -33 79 -33t79 33q20 34 20 126q0 93 -20 127q-19 34 -79 34z" />
    <glyph glyph-name="uni2074" unicode="&#x2074;" horiz-adv-x="354" 
d="M110 887h38q6 0 3 -5l-73 -244h133v103q0 5 4 6l38 12q6 1 6 -4v-117h66q6 0 6 -5v-32q0 -5 -6 -5h-66v-102q0 -5 -5 -5h-38q-5 0 -5 5v102h-179q-5 0 -5 5v23q0 8 4 17l73 243q2 3 6 3z" />
    <glyph glyph-name="uni2075" unicode="&#x2075;" horiz-adv-x="332" 
d="M63 887h213q6 0 6 -4v-33q0 -5 -6 -5h-179l-8 -124q28 2 63 2q74 0 108.5 -21.5t34.5 -77.5v-39q0 -57 -35.5 -78t-112.5 -21q-66 0 -97 4q-7 1 -7 8v25q0 5 5 5h96q55 0 79 14t24 51v22q0 38 -24 52t-79 14h-93q-8 0 -8 6v30l11 163q1 7 9 7z" />
    <glyph glyph-name="uni2076" unicode="&#x2076;" horiz-adv-x="341" 
d="M157 887h40q7 0 4 -6l-86 -165q23 9 65 9q66 0 98.5 -22.5t32.5 -74.5v-43q0 -56 -33 -77.5t-105 -21.5t-105.5 22t-33.5 77v40q0 32 11 54l106 205q1 3 6 3zM82 618v-24q0 -37 21 -51.5t70 -14.5t70 14.5t21 51.5v24q0 38 -20.5 52t-70.5 14t-70.5 -14t-20.5 -52z" />
    <glyph glyph-name="uni2077" unicode="&#x2077;" horiz-adv-x="318" 
d="M27 887h264q5 0 5 -4v-25q0 -2 -2 -8l-184 -358q-2 -3 -6 -3h-44q-6 0 -3 6l181 350h-211q-5 0 -5 5v33q0 4 5 4z" />
    <glyph glyph-name="uni2078" unicode="&#x2078;" horiz-adv-x="366" 
d="M179 890h9q66 0 97 -27t31 -83q0 -67 -52 -97q63 -23 63 -91q0 -106 -140 -106h-10q-139 0 -139 107q0 69 64 103q-52 27 -52 86q0 108 129 108zM187 848h-7q-82 0 -82 -68q0 -53 56 -64l75 -14q40 22 40 75q0 71 -82 71zM218 661l-79 17q-53 -26 -53 -79q0 -71 92 -71h8
q93 0 93 66q0 57 -61 67z" />
    <glyph glyph-name="uni2079" unicode="&#x2079;" horiz-adv-x="340" 
d="M307 791v-40q0 -30 -11 -54l-106 -205q-2 -3 -6 -3h-40q-6 0 -3 6l85 165q-23 -9 -64 -9q-67 0 -99.5 22.5t-32.5 74.5v43q0 56 33 77.5t105 21.5t105.5 -22t33.5 -77zM78 782v-25q0 -38 20.5 -52t69.5 -14t70.5 14.5t21.5 51.5v25q0 37 -21 51t-71 14q-49 0 -69.5 -14
t-20.5 -51z" />
    <glyph glyph-name="uni207D" unicode="&#x207d;" horiz-adv-x="186" 
d="M130 915h32q3 0 3 -3v-4q0 -3 -2 -5q-57 -78 -67 -115q-11 -39 -11 -119q0 -75 12 -112q13 -37 66 -123q2 -2 2 -4v-4q0 -3 -3 -3h-32q-4 0 -6 2q-62 74 -74 123q-6 25 -8 50q-1 13 -1 71v16q0 79 12 120q14 41 71 107q3 3 6 3z" />
    <glyph glyph-name="uni207E" unicode="&#x207e;" horiz-adv-x="186" 
d="M24 915h32q3 0 6 -3q61 -73 71 -113q12 -40 12 -130v-16q0 -82 -13 -121q-12 -40 -70 -107q-2 -2 -6 -2h-32q-3 0 -3 3v4q0 2 2 4q57 78 67 115q11 39 11 120q0 74 -13 110q-12 38 -65 124q-2 2 -2 5v4q0 3 3 3z" />
    <glyph glyph-name="lira" unicode="&#x20a4;" horiz-adv-x="597" 
d="M416 741q56 0 105 -3q9 0 9 -7v-33q0 -6 -9 -6h-112q-115 0 -167 -30q-53 -30 -53 -115v-162h270q10 0 10 -9v-22q0 -9 -10 -9h-270v-71h270q10 0 10 -10v-21q0 -10 -10 -10h-270v-184h363q9 0 9 -9v-31q0 -9 -9 -9h-505q-9 0 -8 9l5 31q2 9 11 9h78v184h-59
q-10 0 -10 10v21q0 10 10 10h59v71h-59q-10 0 -10 9v22q0 9 10 9h59v161q0 116 66 155q65 40 217 40z" />
    <glyph glyph-name="Euro" unicode="&#x20ac;" horiz-adv-x="588" 
d="M526 697h-113q-129 0 -177 -53q-47 -52 -55 -196h279q10 0 7 -10l-5 -23q-1 -10 -11 -10h-272v-35v-28h259q8 0 7 -9l-5 -24q-3 -9 -12 -9h-248q6 -146 54 -202q50 -54 179 -54h120q9 0 9 -9v-26q0 -9 -9 -9q-70 -5 -120 -5q-164 4 -221 65t-67 240h-89q-10 0 -7 9l5 24
q2 9 11 9h79v28v35h-65q-10 0 -7 10l5 23q1 10 11 10h58q5 90 20 144t48.5 89.5t84.5 49t134 15.5q52 0 122 -5q11 0 8 -11l-7 -24q-3 -9 -10 -9z" />
    <glyph glyph-name="uni20B9" unicode="&#x20b9;" horiz-adv-x="667" 
d="M70 741h547q9 0 9 -10v-23q0 -9 -9 -9h-206q53 -36 59 -150h147q10 0 10 -10v-23q0 -9 -10 -9h-147q-2 -119 -38 -163q-37 -45 -134 -55l175 -277q7 -12 -7 -12h-34q-14 0 -23 13l-172 271h-168q-9 0 -9 9v31q0 10 9 10h95q73 0 108 3q41 3 74 15q38 15 52.5 49.5
t16.5 105.5h-345q-9 0 -9 9v23q0 10 9 10h344q-5 94 -61 123q-15 9 -47 14q-47 8 -142 8h-94q-9 0 -9 9v28q0 10 9 10z" />
    <glyph glyph-name="uni20BD" unicode="&#x20bd;" horiz-adv-x="664" 
d="M316 304h-126v-92h209q9 0 9 -9v-28q0 -10 -9 -10h-209v-156q0 -9 -9 -9h-37q-9 0 -9 9v156h-78q-9 0 -9 10v28q0 9 9 9h78v95h-78q-9 0 -9 9v28q0 10 9 10h78v379q0 9 9 9q68 4 172 4q79 0 119 -3q35 -2 48 -5q53 -9 71 -23q35 -20 50.5 -64t15.5 -124q7 -141 -65 -192
q-20 -14 -59 -21q-41 -8 -77 -9q-25 -1 -103 -1zM190 697v-343h123h67l53 3q42 3 77 19q12 6 20 15t10.5 13.5t10.5 22.5q13 27 13 100q0 119 -46 144q-47 26 -205 26h-123z" />
    <glyph glyph-name="uni2113" unicode="&#x2113;" horiz-adv-x="392" 
d="M202 746q68 0 99.5 -22t31.5 -80v-358q0 -57 -32.5 -77.5t-106.5 -20.5h-65v-86q0 -34 17.5 -45.5t58.5 -12.5h89q9 0 9 -9v-23q0 -8 -8 -10q-45 -6 -90 -6q-67 0 -98 21t-31 77v550q0 57 31 79.5t95 22.5zM204 698q-40 0 -57.5 -13.5t-17.5 -48.5v-401h66q46 1 65.5 13
t19.5 46v342q0 35 -17.5 48.5t-58.5 13.5z" />
    <glyph glyph-name="uni2116" unicode="&#x2116;" horiz-adv-x="1047" 
d="M879 746q123 0 123 -118t-123 -118q-122 0 -122 118t122 118zM625 741h37q9 0 9 -9v-723q0 -9 -9 -9h-39q-14 0 -23 12l-446 659v-662q0 -9 -10 -9h-36q-10 0 -10 9v723q0 9 10 9h42q21 0 33 -17l433 -639v647q0 9 9 9zM879 705q-78 0 -78 -77q0 -78 78 -78q79 0 79 78
q0 77 -79 77zM767 451h224q9 0 9 -9v-20q0 -10 -9 -10h-224q-9 0 -9 10v20q0 9 9 9z" />
    <glyph glyph-name="uni2117" unicode="&#x2117;" horiz-adv-x="867" 
d="M434 -7q-193 0 -283.5 91t-90.5 285t90.5 285.5t283.5 91.5q192 0 282.5 -91.5t90.5 -285.5t-90.5 -285t-282.5 -91zM434 31q172 0 253.5 82t81.5 256t-81.5 256.5t-253.5 82.5q-173 0 -254.5 -82t-81.5 -257q0 -174 81.5 -256t254.5 -82zM441 558q87 0 118 -24
q31 -22 31 -98q0 -74 -31 -96q-29 -22 -118 -22h-63v-135q0 -6 -5 -6h-41q-5 0 -5 6v367q0 5 5 5q54 3 109 3zM436 513h-58v-154h58q63 0 82 13q20 14 20 63q0 51 -21 64q-20 14 -81 14z" />
    <glyph glyph-name="uni2120" unicode="&#x2120;" horiz-adv-x="987" 
d="M224 744q72 0 124 -7q6 -1 6 -5v-29q0 -4 -6 -4h-134q-86 0 -86 -60v-6q0 -26 10.5 -40.5t38.5 -26.5l131 -55q69 -30 69 -107v-16q0 -66 -48 -86q-40 -15 -106 -15q-82 0 -148 6q-4 1 -4 6v28q0 5 5 5h160q46 0 68 12.5t22 45.5v11q0 49 -49 70l-135 55q-37 15 -51 38.5
t-14 65.5v12q0 55 36 78.5t111 23.5zM836 741h36q9 0 9 -10l38 -435q1 -6 -6 -6h-39q-6 0 -6 6l-31 358l-134 -345q-3 -7 -11 -7h-32q-8 0 -12 7l-134 345l-30 -358q-2 -6 -7 -6h-38q-7 0 -7 6l39 435q0 9 9 9h36q16 0 24 -23l135 -348l136 348q7 24 25 24z" />
    <glyph glyph-name="trademark.001" unicode="&#x2122;" horiz-adv-x="957" 
d="M35 741h329q7 0 7 -8v-31q0 -6 -7 -6h-139v-400q0 -6 -6 -6h-38q-7 0 -7 6v400h-139q-7 0 -7 6v31q0 8 7 8zM806 741h36q9 0 9 -10l38 -434q0 -7 -6 -7h-39q-6 0 -6 6l-30 358l-135 -345q-3 -7 -12 -7h-31q-8 0 -11 7l-135 346l-30 -359q0 -6 -6 -6h-38q-7 0 -7 7l37 435
q2 9 10 9h36q9 0 14 -4.5t11 -18.5l135 -350l135 350q11 23 25 23z" />
    <glyph glyph-name="Omega" unicode="&#x2126;" horiz-adv-x="850" 
d="M788 385q0 -264 -215 -341h191q9 0 9 -10v-25q0 -10 -9 -10h-253q-9 0 -9 10v44q0 8 8 10q107 34 166 116.5t59 205.5q0 162 -75.5 238t-234.5 76t-234.5 -76t-75.5 -238q0 -123 59 -205.5t166 -116.5q8 -2 8 -10v-44q0 -10 -9 -10h-253q-9 0 -9 10v25q0 10 9 10h191
q-215 77 -215 341q0 186 88.5 273.5t274.5 87.5t274.5 -87.5t88.5 -273.5z" />
    <glyph glyph-name="estimated" unicode="&#x212e;" horiz-adv-x="647" 
d="M331 576q125 0 198 -85q75 -84 75 -206h-429v-193q66 -63 152 -63q72 0 120 31t90 96l31 -19q-47 -72 -102.5 -106.5t-138.5 -34.5q-119 0 -195 84q-76 85 -76 206q0 124 75 206q75 84 200 84zM331 543q-96 0 -156 -62v-163h309v163q-68 62 -153 62z" />
    <glyph glyph-name="oneeighth" unicode="&#x215b;" horiz-adv-x="798" 
d="M521 770h23q8 0 5 -11l-339 -776q-4 -10 -13 -10h-25q-10 0 -4 10l339 776q5 11 14 11zM234 379v-31q0 -5 -5 -5h-176q-5 0 -5 5v31q0 6 5 6h66v289q0 18 -9.5 24t-30.5 6h-33q-5 0 -5 5v25q0 4 5 6q25 4 43 4q33 1 53 -11t23 -49v-299h64q5 0 5 -6zM695 194
q63 -24 63 -90q0 -107 -141 -107h-9q-139 0 -139 107q0 68 64 104q-52 25 -52 86q0 107 129 107h8q66 0 97.5 -26.5t31.5 -82.5q0 -68 -52 -98zM529 292q0 -53 56 -64l74 -15q40 22 40 75q0 71 -81 71h-7q-82 0 -82 -67zM609 39h8q93 0 93 66q0 55 -61 68l-79 16
q-53 -24 -53 -78q0 -72 92 -72z" />
    <glyph glyph-name="threeeighths" unicode="&#x215c;" horiz-adv-x="860" 
d="M577 770h24q9 0 4 -11l-338 -776q-4 -10 -14 -10h-25q-10 0 -4 10l339 776q5 11 14 11zM155 744q76 0 111.5 -21t35.5 -76v-22q0 -69 -65 -83q65 -12 65 -83v-22q0 -55 -35 -76t-112 -21q-51 0 -98 4q-7 1 -7 8v25q0 5 5 5h95q57 0 80.5 13t23.5 50v13q0 37 -22 51
t-72 14h-83q-5 0 -5 5v28q0 5 5 5h83q50 0 72 14t22 51v13q0 37 -23.5 50t-80.5 13h-95q-5 0 -5 4v27q0 6 7 6q35 5 98 5zM672 401h9q66 0 97 -26.5t31 -82.5q0 -68 -52 -98q63 -24 63 -90q0 -107 -140 -107h-10q-139 0 -139 107q0 68 64 104q-52 25 -52 86q0 107 129 107z
M680 359h-7q-82 0 -82 -67q0 -53 56 -64l75 -15q39 23 39 75q0 71 -81 71zM711 173l-79 16q-53 -24 -53 -78q0 -72 92 -72h8q93 0 93 66q0 55 -61 68z" />
    <glyph glyph-name="fiveeighths" unicode="&#x215d;" horiz-adv-x="838" 
d="M574 770h24q9 0 4 -11l-338 -776q-4 -10 -14 -10h-25q-10 0 -4 10l339 776q6 11 14 11zM73 741h213q6 0 6 -4v-33q0 -5 -6 -5h-179l-7 -125q19 3 62 3q74 0 108.5 -21t34.5 -78v-39q0 -57 -35.5 -78t-111.5 -21q-67 0 -98 4q-7 1 -7 8v25q0 5 5 5h96q55 0 79.5 14
t24.5 51v22q0 38 -24 52t-80 14h-93q-8 0 -8 6v30l12 163q0 7 8 7zM650 401h9q66 0 97 -26.5t31 -82.5q0 -68 -52 -98q63 -24 63 -90q0 -107 -140 -107h-10q-139 0 -139 107q0 68 64 104q-52 25 -52 86q0 107 129 107zM658 359h-7q-82 0 -82 -67q0 -53 56 -64l74 -15
q40 22 40 75q0 71 -81 71zM689 173l-79 16q-53 -24 -53 -78q0 -72 92 -72h8q93 0 93 66q0 55 -61 68z" />
    <glyph glyph-name="seveneighths" unicode="&#x215e;" horiz-adv-x="787" 
d="M501 770h24q9 0 4 -11l-338 -776q-4 -10 -14 -10h-25q-10 0 -4 10l339 776q5 11 14 11zM37 741h263q5 0 5 -4v-25q0 -2 -2 -8l-184 -358q-1 -3 -6 -3h-43q-7 0 -4 6l181 350h-210q-6 0 -6 5v33q0 4 6 4zM599 401h8q129 0 129 -109q0 -68 -52 -98q62 -23 62 -90
q0 -107 -140 -107h-9q-140 0 -140 107q0 67 64 104q-52 25 -52 86q0 107 130 107zM606 359h-6q-83 0 -83 -67q0 -53 56 -64l75 -15q40 22 40 75q0 71 -82 71zM638 173l-80 16q-53 -24 -53 -78q0 -72 93 -72h7q93 0 93 66q0 55 -60 68z" />
    <glyph glyph-name="arrowleft" unicode="&#x2190;" horiz-adv-x="846" 
d="M357 447h21q9 0 9 -7v-140h357q9 0 9 -9v-33q0 -9 -9 -9h-357v-140q0 -8 -9 -8h-21q-7 0 -15 5l-251 147q-6 3 -6 11v20q0 10 6 11l252 148q7 4 14 4z" />
    <glyph glyph-name="arrowup" unicode="&#x2191;" horiz-adv-x="484" 
d="M232 609h20q8 0 11 -6l148 -251q4 -7 4 -15v-22q0 -8 -8 -8h-140v-357q0 -10 -9 -10h-32q-10 0 -10 10v357h-139q-8 0 -8 8v22q0 7 4 14l148 252q3 6 11 6z" />
    <glyph glyph-name="arrowright" unicode="&#x2192;" horiz-adv-x="846" 
d="M468 447h21q6 0 15 -4l252 -148q5 -2 5 -11v-20q0 -8 -5 -11l-251 -147q-12 -5 -16 -5h-21q-9 0 -9 8v140h-357q-9 0 -9 9v33q0 9 9 9h357v140q0 7 9 7z" />
    <glyph glyph-name="arrowdown" unicode="&#x2193;" horiz-adv-x="484" 
d="M226 609h32q9 0 9 -10v-357h140q8 0 8 -8v-22q0 -5 -4 -14l-148 -252q-3 -6 -11 -6h-20q-8 0 -11 6l-148 252q-4 9 -4 14v22q0 8 8 8h139v357q0 10 10 10z" />
    <glyph glyph-name="arrowboth" unicode="&#x2194;" horiz-adv-x="1017" 
d="M639 447h21q6 0 15 -4l252 -148q5 -2 5 -11v-20q0 -8 -5 -11l-251 -147q-12 -5 -16 -5h-21q-9 0 -9 8v140h-243v-140q0 -8 -9 -8h-21q-7 0 -15 5l-251 147q-6 3 -6 11v20q0 10 6 11l252 148q7 4 14 4h21q9 0 9 -7v-140h243v140q0 7 9 7z" />
    <glyph glyph-name="arrowupdn" unicode="&#x2195;" horiz-adv-x="521" 
d="M251 698h20q9 0 11 -6l147 -250q5 -12 5 -16v-22q0 -9 -8 -7h-140l-1 -244h140q9 0 9 -8v-22q0 -7 -5 -15l-148 -252q-5 -6 -11 -5l-20 -1q-7 0 -11 6l-148 253q-3 6 -3 14v22q-2 8 7 8h140v243l-140 1q-6 0 -8 8v22l5 14l148 251q3 6 11 6z" />
    <glyph glyph-name="uni2196" unicode="&#x2196;" horiz-adv-x="641" 
d="M106 523l282 -73q9 -1 14 -8l16 -15q6 -5 0 -11l-100 -100l253 -252q7 -6 0 -13l-23 -23q-6 -6 -13 0l-252 253l-99 -99q-5 -5 -12 1l-14 15q-6 4 -7 13l-75 283q0 7 4 11l14 14q6 6 12 4z" />
    <glyph glyph-name="uni2197" unicode="&#x2197;" horiz-adv-x="641" 
d="M252 450l283 74q7 0 12 -5l13 -13q6 -6 5 -12l-74 -282q-3 -12 -7 -14l-16 -15q-7 -7 -11 -1l-99 99l-252 -253q-7 -6 -14 0l-23 23q-6 7 0 14l253 252l-99 99q-5 6 0 11l16 16q3 2 13 7z" />
    <glyph glyph-name="uni2198" unicode="&#x2198;" horiz-adv-x="643" 
d="M105 520l253 -252l98 99q5 5 12 -1l15 -15l7 -13l74 -283q2 -6 -4 -12l-14 -14q-9 -5 -12 -4l-282 74q-9 2 -14 7l-15 15q-5 8 -1 12l100 99l-253 252q-6 8 0 14l23 22q6 6 13 0z" />
    <glyph glyph-name="uni2199" unicode="&#x2199;" horiz-adv-x="643" 
d="M553 520l22 -23q6 -6 0 -13l-252 -253l99 -98q4 -6 -1 -11l-15 -16q-2 -2 -13 -7l-283 -73q-4 -2 -12 3l-14 15q-6 4 -4 11l73 282q3 8 8 15l15 14q6 6 12 1l99 -99l252 252q7 6 14 0z" />
    <glyph glyph-name="partialdiff" unicode="&#x2202;" horiz-adv-x="617" 
d="M389 741h41q9 0 10 -7l118 -386q13 -41 -2 -115l-8 -42q-22 -110 -94 -154q-70 -42 -198 -42q-131 0 -180.5 44t-26.5 152l8 48q24 111 95 153q70 42 198 42q86 0 126 -18l-97 314q-2 11 10 11zM112 237l-7 -45q-18 -82 21.5 -115t140.5 -33t154.5 33t71.5 115l8 45
q17 82 -22 115t-141 33q-101 0 -154.5 -33t-71.5 -115z" />
    <glyph glyph-name="Delta" unicode="&#x2206;" horiz-adv-x="670" 
d="M313 702h50q8 0 11 -7l270 -678l2 -8v-5q0 -4 -6 -4h-611q-6 0 -6 4v6l2 8l277 677q4 7 11 7zM580 51l-242 603l-243 -603h485z" />
    <glyph glyph-name="product.001" unicode="&#x220f;" horiz-adv-x="639" 
d="M10 795h617q9 0 9 -9v-29q0 -9 -9 -9h-89v-819q0 -10 -9 -10h-32q-9 0 -9 10v819h-336v-819q0 -10 -9 -10h-32q-9 0 -9 10v819h-92q-9 0 -9 9v29q0 9 9 9z" />
    <glyph glyph-name="summation.001" unicode="&#x2211;" horiz-adv-x="551" 
d="M29 795h441q9 0 9 -9v-31q0 -9 -9 -9h-382l239 -359q3 -5 3 -12v-8q0 -7 -3 -11l-245 -359h443q9 0 9 -9v-31q0 -10 -9 -10h-503q-9 0 -9 10v20q0 7 4 11l248 369q4 5 4 11v5q0 7 -4 11l-242 370q-4 4 -4 11v21q0 9 10 9z" />
    <glyph glyph-name="minus" unicode="&#x2212;" horiz-adv-x="508" 
d="M84 340h339q10 0 10 -9v-33q0 -9 -10 -9h-339q-9 0 -9 9v33q0 9 9 9z" />
    <glyph glyph-name="radical" unicode="&#x221a;" horiz-adv-x="543" 
d="M473 802h37q11 0 8 -11l-204 -843q-2 -8 -10 -8h-35q-8 0 -10 8l-156 439l-64 -31q-9 -4 -12 6l-12 27q-3 10 4 13l109 49q9 5 12 -5l142 -404l181 752q3 8 10 8z" />
    <glyph glyph-name="infinity.001" unicode="&#x221e;" horiz-adv-x="868" 
d="M646 456q86 0 123 -37t37 -124q0 -86 -37 -123t-123 -37q-82 0 -155 71l-57 55l-57 -55q-40 -38 -75.5 -54.5t-79.5 -16.5q-86 0 -123 37t-37 123q0 87 37 124t123 37q83 0 155 -72l57 -55l57 55q72 72 155 72zM226 408q-61 0 -87 -26t-26 -87t26 -86.5t87 -25.5
q57 0 120 60l53 52l-54 54q-64 59 -119 59zM642 408q-60 0 -117 -57l-56 -56l56 -56q59 -56 117 -56q61 0 86.5 25.5t25.5 86.5t-25.5 87t-86.5 26z" />
    <glyph glyph-name="integral.001" unicode="&#x222b;" horiz-adv-x="360" 
d="M257 768q34 0 76 -6q8 -2 8 -9v-23q0 -10 -10 -10h-60q-19 0 -39 -2q-18 -3 -32.5 -17t-14.5 -38q0 -97 21 -292t21 -293q0 -97 -124 -97q-39 0 -76 5q-8 2 -8 10v23q0 9 9 9h61q31 0 54 8q31 11 31 50q0 98 -21 293t-21 292t125 97z" />
    <glyph glyph-name="approxequal.001" unicode="&#x2248;" horiz-adv-x="635" 
d="M195 530q31 2 77 -25t89 -53.5t67 -24.5q63 0 93 57q5 8 12 4l24 -15q6 -5 3 -12q-18 -40 -52 -63.5t-79 -23.5q-32 -2 -77.5 25t-88 53.5t-67.5 24.5q-62 0 -85 -59q-5 -8 -12 -4l-24 12q-5 5 -5 12q13 41 46 66.5t79 25.5zM203 342q37 2 121 -51t112 -51q62 0 93 57
q5 9 12 3l24 -14q5 -4 3 -12q-18 -40 -52.5 -64t-78.5 -24q-32 -2 -77.5 25t-88 53.5t-67.5 24.5q-64 0 -85 -58q-5 -8 -12 -4l-24 12q-7 3 -5 11q13 41 46 66.5t79 25.5z" />
    <glyph glyph-name="notequal.001" unicode="&#x2260;" horiz-adv-x="620" 
d="M438 612h26q9 0 4 -11l-55 -126h123q9 0 9 -9v-33q0 -9 -9 -9h-145l-94 -213h239q9 0 9 -9v-33q0 -9 -9 -9h-260l-51 -116q-4 -10 -14 -10h-27q-8 0 -5 10l51 116h-146q-9 0 -9 9v33q0 9 9 9h168l94 213h-262q-9 0 -9 9v33q0 9 9 9h284l56 126q5 11 14 11z" />
    <glyph glyph-name="lessequal" unicode="&#x2264;" horiz-adv-x="612" 
d="M532 593h4q4 0 4 -3v-38q0 -8 -8 -11l-402 -143l402 -144q8 -3 8 -11v-38q0 -3 -4 -3h-4q-4 0 -7 1l-449 162q-7 3 -7 11v43q0 8 7 11l449 162q3 1 7 1zM78 144h451q9 0 9 -9v-31q0 -9 -9 -9h-451q-9 0 -9 9v31q0 9 9 9z" />
    <glyph glyph-name="greaterequal" unicode="&#x2265;" horiz-adv-x="612" 
d="M75 593h4q5 0 7 -1l449 -162q8 -3 8 -11v-43q0 -8 -8 -11l-449 -162q-2 -1 -7 -1h-4q-3 0 -3 3v38q0 8 7 11l403 144l-403 143q-7 3 -7 11v38q0 3 3 3zM83 144h450q10 0 10 -9v-31q0 -9 -10 -9h-450q-9 0 -9 9v31q0 9 9 9z" />
    <glyph glyph-name="uni2460" unicode="&#x2460;" horiz-adv-x="800" 
d="M401 11q-176 0 -268 92t-92 267t92.5 267t267.5 92q176 0 267 -92t91 -267t-91.5 -267t-266.5 -92zM401 49q321 0 321 321t-321 321q-322 0 -322 -321t322 -321zM437 511v-299h64q5 0 5 -6v-32q0 -5 -5 -5h-176q-5 0 -5 6v31q0 6 5 6h66v289q0 18 -9.5 24t-30.5 6h-33
q-6 0 -6 5v25q0 4 5 6q27 4 44 4q33 1 53 -11t23 -49z" />
    <glyph glyph-name="uni2461" unicode="&#x2461;" horiz-adv-x="800" 
d="M401 11q-176 0 -268 92t-92 267t92 267q94 92 268 92t266 -92.5t92 -266.5q0 -175 -91.5 -267t-266.5 -92zM401 49q321 0 321 321t-321 321q-322 0 -322 -321t322 -321zM382 571q62 0 100 -17q44 -18 44 -78v-35q0 -33 -10 -53t-41 -39l-110 -68q-40 -22 -40 -49v-20h202
q4 0 4 -3v-37q0 -3 -3 -3h-244q-14 0 -14 15v43q0 27 12 44.5t46 38.5l119 75q31 18 31 63v19q0 35 -24 48.5t-76 13.5h-90q-4 0 -4 4v26q0 6 7 7q52 5 91 5z" />
    <glyph glyph-name="uni2462" unicode="&#x2462;" horiz-adv-x="800" 
d="M401 11q-176 0 -268 92t-92 267t92.5 267t267.5 92q174 0 266 -92.5t92 -266.5q0 -175 -91.5 -267t-266.5 -92zM401 49q321 0 321 321q0 159 -81 240t-240 81q-322 0 -322 -321t322 -321zM380 571q76 0 111.5 -21t35.5 -76v-23q0 -70 -65 -82q65 -12 65 -83v-22
q0 -55 -35 -76.5t-112 -21.5q-26 0 -98 5q-7 0 -7 8v25q0 5 5 5h95q57 0 80.5 13t23.5 50v13q0 36 -22 50t-72 14h-83q-5 0 -5 5v29q0 5 5 5h83q50 0 72 14t22 51v13q0 36 -24 49.5t-80 13.5h-95q-5 0 -5 4v26q0 7 7 7q48 5 98 5z" />
    <glyph glyph-name="uni2463" unicode="&#x2463;" horiz-adv-x="800" 
d="M401 11q-176 0 -268 92t-92 267t92.5 267t267.5 92q174 0 266 -92.5t92 -266.5q0 -175 -91.5 -267t-266.5 -92zM401 49q321 0 321 321q0 159 -81 240t-240 81q-322 0 -322 -321t322 -321zM332 568h38q4 0 3 -6l-73 -243h133v102q0 5 4 6l38 13q6 2 6 -4v-117h66q5 0 5 -5
v-32q0 -5 -5 -5h-66v-102q0 -6 -5 -6h-38q-5 0 -5 6v102h-179q-5 0 -5 5v23q0 7 4 16l73 243q1 4 6 4z" />
    <glyph glyph-name="uni2464" unicode="&#x2464;" horiz-adv-x="800" 
d="M401 11q-176 0 -268 92t-92 267t92.5 267t267.5 92q174 0 266 -92.5t92 -266.5q0 -175 -91.5 -267t-266.5 -92zM401 49q321 0 321 321q0 159 -81 240t-240 81q-322 0 -322 -321t322 -321zM294 568h214q5 0 5 -5v-32q0 -5 -5 -5h-180l-7 -125q19 3 63 3q74 0 108.5 -21.5
t34.5 -77.5v-39q0 -57 -36 -78.5t-112 -21.5q-49 0 -97 5q-7 1 -7 8v25q0 5 5 5h95q56 0 80 13.5t24 51.5v22q0 38 -24 52t-80 14h-92q-8 0 -8 6v29l11 163q0 8 8 8z" />
    <glyph glyph-name="uni2465" unicode="&#x2465;" horiz-adv-x="800" 
d="M401 11q-176 0 -268 92t-92 267t92.5 267t267.5 92q174 0 266 -92.5t92 -266.5q0 -175 -91.5 -267t-266.5 -92zM401 49q321 0 321 321q0 159 -81 240t-240 81q-322 0 -322 -321t322 -321zM385 568h40q9 0 4 -6l-86 -165q22 8 65 8q66 0 98.5 -22.5t32.5 -74.5v-43
q0 -55 -34 -77t-104 -22q-72 0 -105.5 22t-33.5 77v40q0 30 11 54l106 205q1 4 6 4zM310 299v-24q0 -37 21 -51.5t70 -14.5t70 14.5t21 51.5v24q0 38 -20.5 52t-70.5 14t-70.5 -14t-20.5 -52z" />
    <glyph glyph-name="uni2466" unicode="&#x2466;" horiz-adv-x="800" 
d="M401 11q-176 0 -268 92t-92 267t92.5 267t267.5 92q174 0 266 -92.5t92 -266.5q0 -175 -91.5 -267t-266.5 -92zM401 49q321 0 321 321q0 159 -81 240t-240 81q-322 0 -322 -321t322 -321zM269 568h263q6 0 6 -5v-25q0 -4 -3 -7l-183 -358q-3 -4 -6 -4h-44q-8 0 -3 6
l180 351h-210q-5 0 -5 5v32q0 5 5 5z" />
    <glyph glyph-name="uni2467" unicode="&#x2467;" horiz-adv-x="800" 
d="M401 11q-176 0 -268 92t-92 267t92.5 267t267.5 92q174 0 266 -92.5t92 -266.5q0 -175 -91.5 -267t-266.5 -92zM401 49q321 0 321 321q0 159 -81 240t-240 81q-322 0 -322 -321t322 -321zM398 571h8q129 0 129 -110q0 -69 -52 -97q62 -26 62 -91q0 -107 -140 -107h-9
q-140 0 -140 108q0 69 64 103q-52 27 -52 86q0 108 130 108zM404 529h-7q-82 0 -82 -68q0 -53 56 -64l75 -15q40 22 40 75q0 72 -82 72zM437 342l-80 17q-53 -26 -53 -79q0 -71 92 -71h8q93 0 93 66q0 57 -60 67z" />
    <glyph glyph-name="uni2468" unicode="&#x2468;" horiz-adv-x="800" 
d="M401 11q-176 0 -268 92t-92 267t92.5 267t267.5 92q174 0 266 -92.5t92 -266.5q0 -175 -91.5 -267t-266.5 -92zM401 49q321 0 321 321q0 159 -81 240t-240 81q-322 0 -322 -321t322 -321zM539 471v-39q0 -30 -11 -54l-106 -205q-1 -4 -6 -4h-40q-8 0 -3 6l85 166
q-20 -9 -64 -9q-67 0 -99.5 22t-32.5 75v42q0 56 33 77.5t105 21.5t105.5 -22t33.5 -77zM310 463v-25q0 -38 20.5 -52t69.5 -14t70.5 14.5t21.5 51.5v25q0 37 -21 51t-71 14q-49 0 -69.5 -14t-20.5 -51z" />
    <glyph glyph-name="uni24EA" unicode="&#x24ea;" horiz-adv-x="800" 
d="M401 729q176 0 267.5 -92t91.5 -267t-92 -267t-267 -92q-174 0 -268 92q-92 92 -92 267t92.5 267t267.5 92zM401 49q321 0 321 321t-321 321q-322 0 -322 -321t322 -321zM400 167q-87 0 -117 41q-29 43 -29 160t29 160q30 43 117 43t117 -43q30 -42 30 -160t-30 -160
q-29 -41 -117 -41zM400 529q-59 0 -78 -34q-20 -34 -20 -127q0 -94 19 -126q19 -33 79 -33t79 33q20 34 20 126q0 93 -20 127q-19 34 -79 34z" />
    <glyph glyph-name="uni24FF" unicode="&#x24ff;" horiz-adv-x="800" 
d="M740 350q0 -168 -86 -254t-254 -86t-254.5 86t-86.5 254t86.5 254t254.5 86t254 -86.5t86 -253.5zM399 147q88 0 117 41q30 42 30 160t-30 160q-30 43 -117 43t-117 -43q-29 -43 -29 -160t29 -160q30 -41 117 -41zM399 509q60 0 79 -34q20 -34 20 -127q0 -92 -20 -126
q-20 -33 -79 -33t-79 33q-19 32 -19 126q0 93 20 127q19 34 78 34z" />
    <glyph glyph-name="lozenge.001" unicode="&#x25ca;" horiz-adv-x="535" 
d="M256 706h23q8 0 11 -6l215 -346q3 -6 -1 -12l-214 -337q-3 -6 -11 -6h-23q-8 0 -11 6l-215 337q-3 6 0 12l215 346q3 6 11 6zM445 355l-172 275q-5 12 -12 0l-171 -275q-3 -6 0 -12l171 -271q7 -10 12 0l172 271q3 5 0 12z" />
    <glyph glyph-name="uni261E" unicode="&#x261e;" horiz-adv-x="830" 
d="M624 597l154 -3q49 0 64.5 -13t15.5 -54q0 -42 -15.5 -55t-64.5 -13h-58q5 -12 5 -30q0 -17 -3 -24.5t-14 -17.5q17 -17 17 -45q0 -17 -3 -24.5t-14 -17.5q17 -17 17 -45q0 -29 -12 -40t-50 -18q-165 -23 -260 -21q-89 1 -217 31v-40q0 -7 -6 -7h-132q-6 0 -7 6
q-60 193 -1 387q2 6 8 6h131q7 0 7 -6v-26q104 43 189 56q90 14 249 14zM507 491h271q28 0 38 8t10 28q0 21 -10.5 28t-39.5 7l-152 3q-160 0 -249 -15q-87 -15 -189 -59v-250q106 -31 199 -34q92 -3 260 18q27 4 37 10t10 20q0 17 -10 23t-38 6h-138q-7 0 -7 7v20q0 6 7 6
h139q27 0 37 5t10 20q0 18 -10 24t-38 6h-138q-7 0 -7 6v20q0 6 7 6h139q27 0 37 5t10 20q0 18 -10 24t-38 6h-137q-7 0 -7 6v20q0 6 7 6zM154 193v334h-88q-48 -154 -3 -334h91z" />
    <glyph glyph-name="uni267C" unicode="&#x267c;" horiz-adv-x="800" 
d="M754 374q0 -147 -104 -251q-103 -103 -250 -103t-250 103q-104 104 -104 251q0 146 104 250t250 104t250 -104t104 -250zM405 558l41 -69l-39 -24l129 1l63 112l-42 -25l-28 46q-16 25 -41 31l-8 1l-162 1q-35 -4 -52 -26l-4 -8l-57 -98l114 -65l71 125q10 10 15 -2z
M555 270l-81 -1v46l-64 -112l65 -112v49l54 1q28 0 47 21l5 6l81 140q16 33 4 58l-4 8l-57 97l-113 -64l72 -126q2 -5 -0.5 -8.5t-8.5 -2.5zM230 284l40 71l40 -23l-66 111l-128 -1l42 -24l-26 -47q-15 -27 -6 -51l3 -8l81 -140q24 -32 50 -32h8h113l-1 130h-144
q-14 2 -6 14z" />
    <glyph glyph-name="uni2776" unicode="&#x2776;" horiz-adv-x="800" 
d="M740 350q0 -168 -86 -254t-254 -86t-254.5 86t-86.5 254t86.5 254t254.5 86t254 -86.5t86 -253.5zM500 192h-64v299q-3 37 -23 49t-53 11q-17 0 -44 -4q-5 -2 -5 -6v-25q0 -5 6 -5h33q12 0 19.5 -1.5t14 -8.5t6.5 -20v-289h-66q-5 0 -5 -6v-31q0 -6 5 -6h176q5 0 5 5v32
q0 6 -5 6z" />
    <glyph glyph-name="uni2777" unicode="&#x2777;" horiz-adv-x="800" 
d="M740 350q0 -168 -86 -254t-254 -86t-254.5 86t-86.5 254t86.5 254t254.5 86t254 -86.5t86 -253.5zM381 551q-39 0 -91 -5q-7 -1 -7 -7v-26q0 -4 4 -4h90q52 0 76 -13.5t24 -48.5v-19q0 -45 -31 -63l-119 -75q-34 -21 -46 -38.5t-12 -44.5v-43q0 -15 14 -15h244q3 0 3 3
v37q0 3 -4 3h-202v20q0 27 40 49l110 68q31 19 41 39t10 53v35q0 60 -44 78q-38 17 -100 17z" />
    <glyph glyph-name="uni2778" unicode="&#x2778;" horiz-adv-x="800" 
d="M740 350q0 -168 -86 -254t-254 -86t-254.5 86t-86.5 254t86.5 254t254.5 86t254 -86.5t86 -253.5zM379 551q-50 0 -98 -5q-7 0 -7 -7v-26q0 -4 5 -4h95q56 0 80 -13.5t24 -49.5v-13q0 -37 -22 -51t-72 -14h-83q-5 0 -5 -5v-29q0 -5 5 -5h83q50 0 72 -14t22 -50v-13
q0 -37 -23.5 -50t-80.5 -13h-95q-5 0 -5 -5v-25q0 -8 7 -8q72 -5 98 -5q77 0 112 21.5t35 76.5v22q0 71 -65 83q65 12 65 82v23q0 55 -35.5 76t-111.5 21z" />
    <glyph glyph-name="uni2779" unicode="&#x2779;" horiz-adv-x="800" 
d="M740 350q0 -168 -86 -254t-254 -86t-254.5 86t-86.5 254t86.5 254t254.5 86t254 -86.5t86 -253.5zM369 548h-38q-5 0 -6 -4l-73 -243q-4 -9 -4 -16v-23q0 -5 5 -5h179v-102q0 -6 5 -6h38q5 0 5 6v102h66q5 0 5 5v32q0 5 -5 5h-66v117q0 6 -6 4l-38 -13q-4 -1 -4 -6v-102
h-133l73 243q2 6 -3 6z" />
    <glyph glyph-name="uni277A" unicode="&#x277a;" horiz-adv-x="800" 
d="M740 350q0 -168 -86 -254t-254 -86t-254.5 86t-86.5 254t86.5 254t254.5 86t254 -86.5t86 -253.5zM507 548h-214q-8 0 -8 -8l-11 -163v-29q0 -6 8 -6h92q56 0 80 -14t24 -52v-22q0 -38 -24 -51.5t-80 -13.5h-95q-5 0 -5 -5v-25q0 -7 7 -8q48 -5 97 -5q76 0 112 21.5
t36 78.5v39q0 56 -34.5 77.5t-108.5 21.5q-43 0 -63 -3l7 125h180q5 0 5 5v32q0 5 -5 5z" />
    <glyph glyph-name="uni277B" unicode="&#x277b;" horiz-adv-x="800" 
d="M740 350q0 -168 -86 -254t-254 -86t-254.5 86t-86.5 254t86.5 254t254.5 86t254 -86.5t86 -253.5zM424 548h-40q-5 0 -6 -4l-106 -205q-11 -24 -11 -54v-40q0 -55 33.5 -77t105.5 -22q70 0 104 22t34 77v43q0 52 -32.5 74.5t-98.5 22.5q-43 0 -65 -8l86 165q4 6 -4 6z
M491 279v-24q0 -37 -21 -51.5t-70 -14.5t-70 14.5t-21 51.5v24q0 38 20.5 52t70.5 14t70.5 -14t20.5 -52z" />
    <glyph glyph-name="uni277C" unicode="&#x277c;" horiz-adv-x="800" 
d="M740 350q0 -168 -86 -254t-254 -86t-254.5 86t-86.5 254t86.5 254t254.5 86t254 -86.5t86 -253.5zM531 548h-263q-5 0 -5 -5v-32q0 -5 5 -5h210l-180 -351q-4 -6 3 -6h44q3 0 6 4l183 358q3 3 3 7v25q0 5 -6 5z" />
    <glyph glyph-name="uni277D" unicode="&#x277d;" horiz-adv-x="800" 
d="M740 350q0 -168 -86 -254t-254 -86t-254.5 86t-86.5 254t86.5 254t254.5 86t254 -86.5t86 -253.5zM405 551h-8q-130 0 -130 -108q0 -59 52 -86q-64 -34 -64 -103q0 -108 140 -108h9q140 0 140 107q0 65 -62 91q52 28 52 97q0 110 -129 110zM396 509h7q82 0 82 -72
q0 -53 -40 -75l-75 15q-56 11 -56 64q0 68 82 68zM356 339l80 -17q60 -10 60 -67q0 -66 -93 -66h-8q-92 0 -92 71q0 53 53 79z" />
    <glyph glyph-name="uni277E" unicode="&#x277e;" horiz-adv-x="800" 
d="M740 350q0 -168 -86 -254t-254 -86t-254.5 86t-86.5 254t86.5 254t254.5 86t254 -86.5t86 -253.5zM261 451v-42q0 -53 32.5 -75t99.5 -22q45 0 64 9l-85 -166q-4 -6 3 -6h40q5 0 6 4l106 205q11 24 11 54v39q0 55 -33.5 77t-105.5 22t-105 -21.5t-33 -77.5zM491 443v-25
q0 -37 -21.5 -51.5t-70.5 -14.5t-69.5 14t-20.5 52v25q0 37 20.5 51t69.5 14q50 0 71 -14t21 -51z" />
    <glyph glyph-name="uniF8FF" unicode="&#xf8ff;" horiz-adv-x="921" 
d="M871 20h-821v700h821v-700zM491 387q12 0 16 7h1l2 -6h8v73h-11v-19q0 -6 1 -9h-1q-5 8 -15 8t-16 -7q-13 -20 0 -40q6 -7 15 -7zM644 449q1 -1 5 -1t5 1q2 5 0 10q-1 1 -5 1t-5 -1q-2 -5 0 -10zM161 388h10l20 57h1q0 -6 -1 -10v-47h11v69h-16l-20 -55l-19 55h-16v-69
h10v33q0 19 -1 25h1zM351 396q-3 0 -5 2t-2 6v28h15v8h-15v12h-7l-4 -11l-8 -4v-5h8v-29q0 -16 15 -16h6q3 0 5 2v8q-1 -1 -8 -1zM261 434q-6 7 -18 7t-19 -7q-6 -7 -6 -20q0 -8 3 -14q3 -7 9 -10q4 -3 13 -3q12 0 18 7q15 20 0 40zM318 403q0 1 -1 3t-1 3l-4 5l-10 4l-10 5
q-2 2 -2 4q0 5 9 5q5 0 14 -3l4 8q-20 9 -33 0q-5 -3 -5 -10q0 -6 3 -9q3 -4 12 -7l8 -4q3 0 3 -2q2 -2 2 -4q0 -6 -11 -6q-6 0 -17 4v-9q6 -3 17 -3t16 4q6 5 6 12zM405 388h7v35q0 9 -5 14q-4 4 -15 4q-7 0 -9 -1t-5.5 -2.5t-4.5 -1.5l4 -8q3 3 7 3q2 1 8 1q5 0 7 -2t2 -8
v-2l-9 -1q-14 0 -18 -4q-6 -5 -6 -12q0 -11 9.5 -15t16.5 0q2 1 8 7zM461 430l1 11h-5q-6 0 -9 -3q-6 -4 -7 -7h-1l-1 9h-9v-52h11v27q0 6 4 11q5 5 11 5q4 0 5 -1zM559 387h10l8 3v9l-9 -3h-3q-3 -1 -5 -1q-8 0 -11 5q-4 3 -4 11h35v6q0 16 -14.5 22.5t-25.5 -5.5
q-7 -7 -7 -21q0 -26 26 -26zM629 403q0 6 -5 11l-10 4l-10 5q-2 2 -2 4q0 5 9 5q5 0 14 -3l4 8q-20 9 -33 0q-5 -3 -5 -10q0 -6 3 -9q3 -4 12 -7l8 -4q3 0 3 -2q1 -1 1 -4q0 -6 -10 -6q-6 0 -17 4v-9q11 -5 26 -1.5t12 14.5zM717 434v6h-18h-1q-1 1 -3 1h-5q-10 0 -15 -5
q-6 -5 -6 -13q0 -6 3 -9q3 -5 7 -6q-1 0 -5 -4q-2 -2 -2 -5l1 -4q1 -3 4 -3q-5 -2 -8 -5t-3 -8q0 -6 5 -11q7 -4 17 -4q13 0 21 5q7 4 7 14q0 7 -4 11q-4 3 -14 3h-9q-3 0 -4 1h-2q-2 2 -2 3q0 4 4 5h5q11 0 15 4q6 4 6 13q0 2 -1 3v2q-1 1 -2 4zM763 388h12v34q0 19 -19 19
q-2 0 -10 -2q-4 -1 -7 -6l-2 7h-9v-52h12v26q0 18 13 18q5 0 8 -3q2 -2 2 -9v-32zM655 388v52h-12v-52h12zM683 431q1 3 7 3t7 -3q3 -3 3 -8q0 -10 -10 -10q-1 0 -7 2q-8 8 0 16zM569 419h-24q0 7 4 10q5 6 12.5 3t7.5 -13zM229 414q0 9 4 13q3 5 10 5q13 0 13 -18t-13 -18
q-14 0 -14 18zM494 396q-6 0 -9 4q-3 5 -3 14t3 13q3 5 9 5q7 0 10 -4q4 -4 4 -14v-2q0 -9 -4 -12q-3 -4 -10 -4zM388 395q-4 0 -6 2t-2 6t3 7q8 2 12 2l6 1v-5q0 -6 -3 -9q-4 -4 -10 -4zM676 379q0 5 2 7q6 2 8 2h8q7 0 9 -2q3 -2 3 -5q0 -4 -5 -6q-5 -3 -13 -3q-3 0 -9 2
q-3 2 -3 5zM664 278h1l2 -7h8v74h-11v-19v-4q1 -3 1 -5q-6 7 -16 7t-16 -7q-13 -20 0 -40q6 -7 16 -7t15 8zM155 271v60h21v9h-52v-9h20v-60h11zM401 271v29h26v9h-26v22h28v9h-39v-69h11zM179 324l21 -53l-2 -5q-3 -9 -11 -9h-6v-8q2 -1 7 -1q15 0 21 16l22 60h-12
q-3 -10 -6 -18.5t-4.5 -12t-1.5 -5.5q-1 -1 -1 -6h-1q0 6 -3 12l-11 30h-12zM268 270q8 0 15 7q6 7 6 20q0 14 -6 20q-4 7 -15 7t-16 -8l-2 8h-9v-76h11v29q6 -7 16 -7zM327 270q7 0 9 1q5 0 8 3v9q-4 -3 -8 -3q-2 -1 -9 -1t-11 4q-4 5 -4 12h35v6q0 23 -22 23
q-16 0 -22.5 -17t4.5 -30q7 -7 20 -7zM482 317q-6 7 -18 7t-18 -7q-7 -6 -7 -20q0 -8 3 -14q4 -6 9 -10q6 -3 13 -3q16 -3 23 16t-5 31zM541 271h8v53h-11v-27q0 -9 -3 -14q-4 -4 -10 -4q-11 0 -11 12v33h-11v-35q0 -19 19 -19q2 0 10 2l7 6zM602 271h11v34q0 19 -18 19
q-6 0 -10 -2t-7 -5l-2 7h-9v-53h11v26q0 9 4 14q3 4 10 4q5 0 8 -3q2 -6 2 -9v-32zM724 314l1 10h-5q-10 0 -16 -10l-2 10h-9v-53h11v27q0 7 5 12q3 4 10 4h5zM729 324l21 -53l-2 -5q-3 -9 -11 -9h-6v-8q2 -1 7 -1q15 0 21 16l22 60h-12q-3 -10 -6 -18.5t-4.5 -12t-1.5 -5.5
q-1 -1 -1 -6h-1q0 6 -3 12l-11 30h-12zM325 316q5 0 8 -3q3 -5 3 -10h-24q1 2 2.5 5.5t1.5 4.5q3 3 9 3zM265 315q6 0 9 -4q3 -5 3 -14t-3 -13q-3 -5 -9 -5q-7 0 -10 5q-3 3 -3 13v2q0 9 3 12q3 4 10 4zM451 297q0 9 3 14q3 4 10 4q13 0 13 -18t-13 -18t-13 18zM652 279
q-9 0 -12.5 11t2.5 21q4 4 9 4q7 0 11 -4q3 -5 3 -14v-1q0 -8 -3 -13q-4 -4 -10 -4z" />
    <glyph glyph-name="u1F603" unicode="&#x1f603;" horiz-adv-x="860" 
d="M426 18q-188 0 -276 89.5t-88 282.5q0 192 88 281.5t276 89.5q194 0 283.5 -89t89.5 -282q0 -194 -89.5 -283t-283.5 -89zM426 58q170 0 252 81.5t82 250.5q0 168 -82 249.5t-252 81.5q-165 0 -245 -81.5t-80 -249.5t80.5 -250t244.5 -82zM284 406q-32 0 -46.5 14.5
t-14.5 48.5q0 33 14.5 47.5t46.5 14.5q34 0 48.5 -14.5t14.5 -47.5q0 -34 -14.5 -48.5t-48.5 -14.5zM496 469q0 33 14.5 47.5t47.5 14.5t47.5 -14.5t14.5 -47.5q0 -34 -14.5 -48.5t-47.5 -14.5t-47.5 14.5t-14.5 48.5zM426 128q-113 0 -168.5 46t-50.5 131h428
q4 -84 -49 -130t-160 -47z" />
    <glyph glyph-name="NULL" horiz-adv-x="0" 
 />
    <glyph glyph-name="CR" horiz-adv-x="333" 
 />
    <glyph glyph-name="Q.salt" horiz-adv-x="709" 
d="M440 0l160 -93q8 -5 4 -13l-16 -26q-4 -9 -12 -4l-223 131q-92 0 -145.5 17.5t-85.5 61.5t-44 110.5t-12 184.5t12 185t44 111q32 45 86 63t146 18q136 0 203 -49q34 -25 52 -71q34 -82 34 -257q0 -193 -42 -274q-42 -80 -161 -95zM121 369q0 -105 9 -162t34 -95
q26 -38 69.5 -53t120.5 -15t120 15t69 53t35 95t9 162q0 155 -26 224q-22 58 -68.5 80t-138.5 24q-112 0 -166 -42q-27 -21 -42 -62q-25 -70 -25 -224z" />
    <glyph glyph-name="i.locl" horiz-adv-x="209" 
d="M143 664q0 -40 -39 -40t-39 40q0 38 39 38t39 -38zM87 535h35q9 0 9 -9v-517q0 -9 -9 -9h-35q-9 0 -9 9v517q0 9 9 9z" />
    <glyph glyph-name="g.salt" horiz-adv-x="547" 
d="M476 556l21 -22q7 -6 0 -13l-35 -36q27 -42 27 -142q0 -119 -42 -160q-42 -39 -173 -39q-80 0 -121 12l-10 -27q-15 -36 -4 -49t62 -18l195 -17q28 -3 46.5 -14t27 -29t11.5 -35t3 -39v-7q0 -69 -42 -95q-41 -25 -149 -25q-141 0 -213 6q-9 1 -9 9v24q0 9 9 9h214
q79 0 108 15t29 57v8q0 65 -58 70l-204 19q-116 11 -77 108l20 49q-29 20 -41 58.5t-12 109.5q0 119 42 159q43 40 173 40q108 0 151 -24l38 38q7 6 13 0zM274 191q99 0 131 30q31 31 31 122q0 90 -31 120q-31 31 -131 31q-99 0 -130 -31q-31 -30 -31 -120q0 -91 31 -122
q31 -30 130 -30z" />
    <glyph glyph-name="hungarumlaut.salt" horiz-adv-x="548" 
d="M146 718q-1 10 8 10h21q8 0 10 -8q6 -41 25.5 -56.5t68.5 -15.5t68.5 15t26.5 57q2 8 9 8h21q10 0 9 -10q-5 -65 -33 -89q-29 -23 -101 -23t-101 23q-27 24 -32 89zM476 556l21 -22q7 -6 0 -13l-35 -36q27 -42 27 -142q0 -119 -42 -160q-42 -39 -173 -39q-82 0 -127 14
l-3 -7q-16 -36 -5.5 -49t62.5 -19l195 -22q88 -9 88 -126v-14q0 -69 -42 -95q-40 -25 -149 -25q-141 0 -213 6q-9 1 -9 9v24q0 9 9 9h214q79 0 108 15t29 57v15q0 74 -58 80l-203 23q-61 6 -81.5 37.5t4.5 72.5l14 30q-26 21 -37 59t-11 105q0 119 42 159q43 40 173 40
q108 0 151 -24l38 38q7 6 13 0zM274 191q99 0 131 30q31 31 31 122q0 90 -31 120q-31 31 -131 31q-99 0 -130 -31q-31 -30 -31 -120q0 -91 31 -122q31 -30 130 -30z" />
    <glyph glyph-name="ring.salt" horiz-adv-x="548" 
d="M178 598l-12 9q-7 5 -2 10l93 119q3 5 10 5h24q7 0 10 -5l94 -119q3 -5 -2 -10l-12 -9q-5 -4 -10 1l-92 91l-91 -91q-5 -5 -10 -1zM476 556l21 -22q7 -6 0 -13l-35 -36q27 -42 27 -142q0 -119 -42 -160q-42 -39 -173 -39q-82 0 -127 14l-3 -7q-16 -36 -5.5 -49t62.5 -19
l195 -22q88 -9 88 -126v-14q0 -69 -42 -95q-40 -25 -149 -25q-141 0 -213 6q-9 1 -9 9v24q0 9 9 9h214q79 0 108 15t29 57v15q0 74 -58 80l-203 23q-61 6 -81.5 37.5t4.5 72.5l14 30q-26 21 -37 59t-11 105q0 119 42 159q43 40 173 40q108 0 151 -24l38 38q7 6 13 0z
M274 191q99 0 131 30q31 31 31 122q0 90 -31 120q-31 31 -131 31q-99 0 -130 -31q-31 -30 -31 -120q0 -91 31 -122q31 -30 130 -30z" />
    <glyph glyph-name="lslash.salt" horiz-adv-x="548" 
d="M301 597h-38q-8 0 -8 7v8q0 5 4 8l103 119q4 4 10 0l12 -9q5 -5 2 -10l-77 -119q-3 -4 -8 -4zM476 556l21 -22q7 -6 0 -13l-35 -36q27 -42 27 -142q0 -119 -42 -160q-42 -39 -173 -39q-82 0 -127 14l-3 -7q-16 -36 -5.5 -49t62.5 -19l195 -22q88 -9 88 -126v-14
q0 -69 -42 -95q-40 -25 -149 -25q-141 0 -213 6q-9 1 -9 9v24q0 9 9 9h214q79 0 108 15t29 57v15q0 74 -58 80l-203 23q-61 6 -81.5 37.5t4.5 72.5l14 30q-26 21 -37 59t-11 105q0 119 42 159q43 40 173 40q108 0 151 -24l38 38q7 6 13 0zM274 191q99 0 131 30q31 31 31 122
q0 90 -31 120q-31 31 -131 31q-99 0 -130 -31q-31 -30 -31 -120q0 -91 31 -122q31 -30 130 -30z" />
    <glyph glyph-name="caron.salt" horiz-adv-x="548" 
d="M238 664q0 38 39 38t39 -38q0 -40 -39 -40t-39 40zM476 556l21 -22q7 -6 0 -13l-36 -36q28 -40 28 -142q0 -119 -42 -160q-42 -39 -173 -39q-83 0 -128 14l-3 -7q-16 -36 -5 -49t63 -19l194 -22q89 -9 89 -126v-14q0 -69 -42 -95q-41 -25 -149 -25q-139 0 -214 6
q-8 2 -8 9v24q0 9 9 9h214q79 0 108 15t29 57v15q0 74 -58 80l-204 23q-61 6 -81 37.5t5 72.5l14 30q-26 21 -37 59t-11 105q0 119 42 159q43 40 173 40q106 0 150 -24l39 38q7 6 13 0zM143 222q31 -31 131 -31q99 0 130 31q32 32 32 121q0 90 -32 120q-31 31 -130 31
q-100 0 -131 -31q-31 -30 -31 -120t31 -121z" />
    <glyph glyph-name="zero.onum" horiz-adv-x="623" 
d="M561 267q0 -157 -52 -213t-198 -58q-145 0 -197 57q-52 56 -52 213q0 158 52 216q53 59 197 60t197 -59q53 -59 53 -216zM311 493q-115 -2 -155 -49t-40 -178q0 -129 40 -175q41 -47 155 -45q115 0 155 46q41 47 41 175t-41 177q-40 49 -155 49z" />
    <glyph glyph-name="one.onum" horiz-adv-x="407" 
d="M251 444v-395h120q10 0 10 -9v-31q0 -9 -10 -9h-302q-9 0 -9 9v31q0 9 9 9h127v385q0 34 -20 46t-65 12h-57q-10 -1 -10 9v24q0 6 8 9q31 7 68 7q38 0 63 -7q64 -13 68 -90z" />
    <glyph glyph-name="two.onum" horiz-adv-x="564" 
d="M243 542q39 0 77 -2q29 -1 67 -9q54 -11 80 -41.5t30 -91.5v-24q0 -51 -13 -84q-16 -39 -74 -55l-223 -66q-46 -14 -62 -31.5t-17 -53.5v-35h393q6 0 6 -5v-39q0 -5 -6 -5h-423q-25 0 -25 28v58q0 55 22 80q23 27 86 47l223 66q41 12 50 37q7 20 7 58v24q6 56 -60 82
q-15 7 -42 8q-29 3 -45 3q-11 1 -51 1h-165q-6 0 -6 6v31q0 4 5 6q84 7 166 7z" />
    <glyph glyph-name="three.onum" horiz-adv-x="561" 
d="M214 540q119 0 179 -20q53 -16 78 -55.5t25 -109.5v-21q0 -66 -30 -108t-83 -55q53 -12 83 -53.5t30 -107.5v-20q0 -116 -71 -151q-64 -34 -211 -34q-96 0 -156 4q-9 0 -9 7v31q0 7 9 7h156q121 0 173 28q54 27 54 109v17q-1 77 -44 108.5t-138 31.5h-165q-8 0 -8 7v32
q0 8 8 8h165q95 0 138.5 31.5t43.5 109.5v18q0 82 -54 109q-53 28 -173 28h-157q-8 0 -8 8v30q0 7 9 7q44 4 156 4z" />
    <glyph glyph-name="four.onum" horiz-adv-x="608" 
d="M199 535h37q10 0 7 -11l-147 -476h289v212q0 8 7 11l38 15q10 3 10 -6v-232h135q9 0 9 -9v-31q0 -9 -9 -9h-135v-184q0 -9 -9 -9h-37q-9 0 -9 9v184h-339q-9 0 -9 9v18q0 10 7 31l144 472q2 6 11 6z" />
    <glyph glyph-name="five.onum" horiz-adv-x="565" 
d="M95 535h383q9 0 9 -9v-31q0 -9 -9 -9h-343l-17 -260q54 2 116 2q151 0 215 -40q65 -39 67 -156v-37q-2 -116 -67 -155t-215 -39q-89 0 -164 3q-9 2 -9 7v33q0 7 9 7h170q115 0 168 29t53 115v36q-1 87 -54 117q-52 31 -167 31h-170q-9 0 -9 6v36l19 301q0 13 15 13z" />
    <glyph glyph-name="six.onum" horiz-adv-x="595" 
d="M287 741h42q14 0 6 -11l-162 -314q42 18 130 18q130 0 189.5 -43.5t59.5 -151.5v-48q0 -108 -59.5 -152t-189.5 -44t-190 44t-60 152v42q0 72 22 115l201 386q3 7 11 7zM108 237v-45q0 -82 46.5 -115t148.5 -33q101 0 147.5 33t46.5 115v45q0 82 -46.5 115t-147.5 33
q-102 0 -148.5 -33t-46.5 -115z" />
    <glyph glyph-name="seven.onum" horiz-adv-x="531" 
d="M28 535h473q9 0 9 -9v-23q0 -7 -4 -14l-341 -676q-3 -7 -11 -7h-42q-14 0 -6 12l336 668h-414q-10 0 -10 9v31q0 9 10 9z" />
    <glyph glyph-name="eight.onum" horiz-adv-x="633" 
d="M310 746h15q117 0 173 -49.5t56 -153.5q0 -129 -93 -181q112 -46 112 -169q0 -198 -249 -198h-17q-126 0 -187 49t-61 151q0 123 113 191q-91 49 -91 160q0 101 56 150.5t173 49.5zM325 697h-15q-174 0 -174 -146q0 -113 117 -140l158 -29q88 52 88 161q0 154 -174 154z
M383 331l-158 32q-111 -59 -111 -169q0 -150 193 -150h17q194 0 194 144q0 118 -135 143z" />
    <glyph glyph-name="nine.onum" horiz-adv-x="584" 
d="M290 542q130 0 189.5 -44t59.5 -152v-37q0 -72 -22 -115l-198 -382q-3 -6 -11 -6h-42q-12 0 -6 11l159 308q-45 -17 -129 -17q-128 0 -189 42t-61 153v43q0 108 59.5 152t190.5 44zM95 345v-40q0 -82 46.5 -115t148.5 -33t148 32.5t46 114.5v40q0 82 -46 115t-148 33
t-148.5 -32.5t-46.5 -114.5z" />
    <glyph glyph-name="zero.subs" horiz-adv-x="377" 
d="M188 -177q-87 0 -117 42q-29 41 -29 159q0 117 29 160q30 43 117 43t117 -43q30 -42 30 -160t-30 -159q-29 -42 -117 -42zM188 185q-59 0 -78 -34q-20 -34 -20 -127q0 -94 19 -126q19 -33 79 -33t79 33q20 34 20 126q0 93 -20 127q-19 34 -79 34z" />
    <glyph glyph-name="one.subs" horiz-adv-x="244" 
d="M154 168v-300h64q6 0 6 -6v-31q0 -5 -6 -5h-176q-5 0 -5 5v31q0 6 5 6h66v289q0 14 -6.5 21t-13 8t-20.5 1h-33q-5 0 -5 5v25q0 4 5 6q17 4 43 4q76 0 76 -59z" />
    <glyph glyph-name="two.subs" horiz-adv-x="332" 
d="M145 227q72 0 108 -20.5t36 -73.5v-35q0 -34 -10 -53.5t-41 -39.5l-110 -67q-41 -26 -41 -50v-20h203q4 0 4 -3v-36q0 -3 -3 -3h-245q-13 0 -13 15v42q0 28 12 45t45 38l120 75q31 19 31 63v20q0 34 -24 47.5t-76 13.5h-90q-4 0 -4 5v25q0 5 6 7q53 5 92 5z" />
    <glyph glyph-name="three.subs" horiz-adv-x="335" 
d="M144 227q76 0 111.5 -20.5t35.5 -75.5v-23q0 -70 -64 -83q64 -12 64 -82v-23q0 -55 -35 -76t-112 -21q-50 0 -97 4q-8 2 -8 8v25q0 5 5 5h96q56 0 79.5 13t23.5 50v13q1 36 -21.5 50.5t-72.5 14.5h-83q-4 0 -4 5v28q0 5 4 5h83q50 0 72 14t22 51v13q0 37 -23.5 50
t-79.5 13h-96q-5 0 -5 4v27q0 5 8 7q31 4 97 4z" />
    </font>
</defs>
</svg>
