<?xml version="1.0" standalone="no"?>
<!DOCTYPE svg PUBLIC "-//W3C//DTD SVG 1.1//EN" "http://www.w3.org/Graphics/SVG/1.1/DTD/svg11.dtd" >
<svg>
<metadata>
Created by FontForge 20120731 at Fri Dec 23 08:24:07 2022
 By fw_worker
Copyright (c) 2016 by Mostardesign Type Foundry. All rights reserved.
</metadata>
<defs>
<font id="UniviaPro-Bold" horiz-adv-x="800" >
  <font-face 
    font-family="Univia Pro"
    font-weight="700"
    font-stretch="normal"
    units-per-em="1000"
    panose-1="0 0 8 0 0 0 0 0 0 0"
    ascent="800"
    descent="-200"
    x-height="560"
    cap-height="774"
    bbox="-150.115 -272.571 1358.67 1175"
    underline-thickness="0"
    underline-position="0"
    unicode-range="U+0020-1F603"
  />
<missing-glyph horiz-adv-x="448" 
d="M86 774h493q15 0 15 -15v-743q0 -16 -15 -16h-493q-15 0 -15 16v743q0 15 15 15zM321 629q-72 0 -120 -9q-13 -3 -13 -15v-45q0 -10 10 -10h123q49 0 66 -8.5t21 -41.5v-24q0 -23 -8.5 -36t-27.5 -23l-81 -39q-29 -17 -37 -30t-5 -38l4 -37q0 -6 7 -6h57q7 0 7 7l1 13
q1 12 7.5 19t27.5 17l67 32q40 19 55.5 44t15.5 75v37q0 75 -54 98q-45 20 -123 20zM288 218q-51 0 -51 -48q0 -47 51 -47q50 0 50 47q0 48 -50 48z" />
    <glyph glyph-name="f_f" unicode="ff" horiz-adv-x="793" 
d="M783 769q16 -3 16 -19v-83q0 -16 -16 -16h-79q-32 0 -44 -8t-12 -31v-53h121q16 0 13 -17l-16 -84q-3 -14 -17 -14h-101v-428q0 -16 -15 -16h-119q-15 0 -15 16v428h-250v-428q0 -16 -15 -16h-118q-15 0 -15 16v428h-65q-17 0 -17 15v85q0 15 17 15h65v79q0 89 55 118
q44 23 121 23q58 0 108 -10q16 -3 16 -19v-83q0 -16 -17 -16h-79q-32 0 -44 -8t-12 -31v-53h250v79q0 89 55 118q44 23 121 23q58 0 108 -10z" />
    <glyph glyph-name="fi.001" unicode="fi" horiz-adv-x="675" 
d="M542 796q41 0 64 -21t23 -59t-23 -59.5t-64 -21.5q-42 0 -65 21.5t-23 59.5t23 59t65 21zM277 779q36 0 86 -10q16 -3 16 -19v-83q0 -16 -16 -16h-58q-32 0 -44 -8t-12 -31v-53h351q15 0 15 -16v-527q0 -16 -15 -16h-118q-15 0 -15 16v428h-218v-428q0 -16 -15 -16h-118
q-15 0 -15 16v428h-65q-17 0 -17 15v85q0 15 17 15h65v79q0 89 55 118q44 23 121 23z" />
    <glyph glyph-name="fl" unicode="fl" horiz-adv-x="664" 
d="M589 766q15 -2 15 -16v-734q0 -16 -15 -16h-118q-15 0 -15 16v634l-143 1q-34 1 -49 -7.5t-15 -31.5v-53h114q16 0 13 -17l-16 -84q-3 -14 -17 -14h-94v-428q0 -16 -15 -16h-118q-15 0 -15 16v428h-65q-17 0 -17 15v85q0 15 17 15h65v79q0 70 41 104q19 16 49 23
q50 14 140 14q118 0 258 -13z" />
    <glyph glyph-name="f_f_i" unicode="ffi" horiz-adv-x="1074" 
d="M941 796q41 0 63.5 -21t22.5 -59t-22.5 -59.5t-63.5 -21.5q-42 0 -65 21.5t-23 59.5t23 59t65 21zM675 779q40 0 94 -10q16 -3 16 -19v-83q0 -16 -17 -16h-64q-32 0 -44 -8t-12 -31v-53h351q15 0 15 -16v-527q0 -16 -15 -16h-118q-15 0 -15 16v428h-218v-428
q0 -16 -15 -16h-119q-15 0 -15 16v428h-250v-428q0 -16 -15 -16h-118q-15 0 -15 16v428h-65q-17 0 -17 15v85q0 15 17 15h65v79q0 89 55 118q44 23 121 23q48 0 98 -10q16 -3 16 -19v-83q0 -16 -17 -16h-69q-32 0 -44 -8t-12 -31v-53h250v79q0 89 55 118q44 23 121 23z" />
    <glyph glyph-name="f_f_l" unicode="ffl" horiz-adv-x="1063" 
d="M988 766q15 -2 15 -16v-734q0 -16 -15 -16h-118q-15 0 -15 16v634l-143 1q-34 1 -49 -7.5t-15 -31.5v-53h107q16 0 13 -17l-16 -84q-3 -14 -17 -14h-87v-428q0 -16 -15 -16h-119q-15 0 -15 16v428h-250v-428q0 -16 -15 -16h-118q-15 0 -15 16v428h-65q-17 0 -17 15v85
q0 15 17 15h65v79q0 89 55 118q44 23 121 23q60 0 110 -10q16 -3 16 -19v-83q0 -16 -17 -16h-81q-32 0 -44 -8t-12 -31v-53h250v79q0 70 41 104q19 16 49 23q50 14 141 14q115 0 258 -13z" />
    <glyph glyph-name="f_b" unicode="fb" horiz-adv-x="998" 
d="M727 565q135 0 182 -60q47 -59 47 -226q0 -170 -51 -227t-208 -57q-105 0 -220 19q-22 3 -22 25v611l-142 1q-35 1 -50 -7.5t-15 -31.5v-53h115q15 0 12 -17l-15 -84q-3 -14 -17 -14h-95v-428q0 -16 -15 -16h-118q-15 0 -15 16v428h-65q-16 0 -16 15v85q0 15 16 15h65v79
q0 70 41 104q19 16 49 23q50 14 140 14q116 0 259 -13q15 -2 15 -15v-192q54 6 123 6zM699 123q72 0 90 31q19 31 19 126q0 98 -20 127t-94 29h-90v-306q39 -7 95 -7z" />
    <glyph glyph-name="f_f_b" unicode="ffb" horiz-adv-x="1399" 
d="M1127 565q135 0 182 -59t47 -227q0 -170 -51 -227t-208 -57q-103 0 -220 19q-21 3 -21 25v611l-143 1q-34 1 -49 -7.5t-15 -31.5v-53h114q15 0 12 -17l-15 -84q-3 -14 -17 -14h-94v-428q0 -16 -15 -16h-119q-15 0 -15 16v428h-252v-428q0 -16 -15 -16h-118q-15 0 -15 16
v428h-65q-16 0 -16 15v85q0 15 16 15h65v79q0 89 55 118q44 23 121 23q58 0 108 -10q16 -3 16 -19v-83q0 -16 -17 -16h-78q-33 0 -45 -8t-12 -31v-53h252v79q0 70 41 104q19 16 49 23q50 14 141 14q118 0 258 -13q15 -2 15 -15v-192q56 6 123 6zM1100 123q71 0 89 31
q19 31 19 126q0 98 -20 127t-94 29h-90v-306q39 -7 96 -7z" />
    <glyph glyph-name="f_f_j" unicode="ffj" horiz-adv-x="1066" 
d="M932 796q42 0 64.5 -21t22.5 -59t-22.5 -59.5t-64.5 -21.5q-41 0 -64 21.5t-23 59.5t23 59t64 21zM766 769q16 -3 16 -19v-83q0 -16 -16 -16h-62q-32 0 -44 -8t-12 -31v-53h343q15 0 15 -16v-624q0 -77 -35 -101q-34 -25 -106 -25q-48 0 -82 8q-17 5 -17 20v85
q0 16 17 16h25q32 0 40.5 7.5t8.5 37.5v477h-209v-428q0 -16 -15 -16h-119q-15 0 -15 16v428h-250v-428q0 -16 -15 -16h-118q-15 0 -15 16v428h-65q-17 0 -17 15v85q0 15 17 15h65v79q0 89 55 118q44 23 121 23q48 0 98 -10q15 -3 15 -19v-83q0 -16 -16 -16h-69
q-32 0 -44 -8t-12 -31v-53h250v79q0 89 55 118q41 19 86 22t126 -9z" />
    <glyph glyph-name="f_f_k" unicode="ffk" horiz-adv-x="1351" 
d="M1309 541l-160 -201l204 -313q17 -27 -17 -27h-126q-14 0 -22 11l-187 295v-290q0 -16 -15 -16h-118q-15 0 -15 16v634l-143 1q-34 1 -49 -7.5t-15 -31.5v-53h114q16 0 13 -17l-16 -84q-3 -14 -17 -14h-94v-428q0 -16 -15 -16h-118q-15 0 -15 16v428h-250v-428
q0 -16 -15 -16h-118q-15 0 -15 16v428h-65q-16 0 -16 15v85q0 15 16 15h65v79q0 89 55 118q44 23 121 23q58 0 108 -10q16 -3 16 -19v-83q0 -16 -17 -16h-78q-33 0 -45 -8t-12 -31v-53h250v79q0 70 41 104q19 16 49 23q50 14 140 14q118 0 258 -13q15 -2 15 -16v-382
l144 182q7 10 21 10h134q25 0 9 -19z" />
    <glyph glyph-name="f_j" unicode="fj" horiz-adv-x="667" 
d="M534 796q41 0 63.5 -21t22.5 -59t-22.5 -59.5t-63.5 -21.5q-42 0 -65 21.5t-23 59.5t23 59t65 21zM277 779q42 0 92 -10q16 -3 16 -19v-83q0 -16 -17 -16h-63q-32 0 -44 -8t-12 -31v-53h343q15 0 15 -16v-624q0 -77 -35 -101q-34 -25 -106 -25q-45 0 -82 8q-16 6 -16 20
v85q0 16 17 16h25q32 0 40.5 7.5t8.5 37.5v477h-210v-428q0 -16 -15 -16h-118q-15 0 -15 16v428h-65q-17 0 -17 15v85q0 15 17 15h65v79q0 89 55 118q44 23 121 23z" />
    <glyph glyph-name="f_k" unicode="fk" horiz-adv-x="954" 
d="M912 541l-160 -201l204 -313q16 -27 -17 -27h-126q-14 0 -22 11l-187 295v-290q0 -16 -15 -16h-118q-15 0 -15 16v634l-143 1q-34 1 -49 -7.5t-15 -31.5v-53h114q16 0 13 -17l-16 -84q-3 -14 -17 -14h-94v-428q0 -16 -15 -16h-118q-15 0 -15 16v428h-65q-17 0 -17 15v85
q0 15 17 15h65v79q0 70 41 104q19 16 49 23q50 14 140 14q118 0 258 -13q15 -2 15 -16v-382l144 182q7 10 21 10h134q25 0 9 -19z" />
    <glyph glyph-name=".notdef" horiz-adv-x="448" 
d="M86 774h493q15 0 15 -15v-743q0 -16 -15 -16h-493q-15 0 -15 16v743q0 15 15 15zM321 629q-72 0 -120 -9q-13 -3 -13 -15v-45q0 -10 10 -10h123q49 0 66 -8.5t21 -41.5v-24q0 -23 -8.5 -36t-27.5 -23l-81 -39q-29 -17 -37 -30t-5 -38l4 -37q0 -6 7 -6h57q7 0 7 7l1 13
q1 12 7.5 19t27.5 17l67 32q40 19 55.5 44t15.5 75v37q0 75 -54 98q-45 20 -123 20zM288 218q-51 0 -51 -48q0 -47 51 -47q50 0 50 47q0 48 -50 48z" />
    <glyph glyph-name=".null" horiz-adv-x="0" 
 />
    <glyph glyph-name="nonmarkingreturn" horiz-adv-x="333" 
 />
    <glyph glyph-name="space" unicode=" " horiz-adv-x="206" 
 />
    <glyph glyph-name="exclam" unicode="!" horiz-adv-x="294" 
d="M82 774h130q15 0 15 -16v-338q0 -13 -1 -19l-30 -159q-4 -16 -15 -16h-67q-12 0 -15 16l-30 159q0 5 -0.5 9.5t-0.5 7.5l-1 2v338q0 16 15 16zM148 156q41 0 63.5 -21t22.5 -59t-22.5 -59.5t-63.5 -21.5q-42 0 -65 21.5t-23 59.5t23 59t65 21z" />
    <glyph glyph-name="quotedbl" unicode="&#x22;" horiz-adv-x="505" 
d="M59 774h131q15 0 15 -16v-118l-1 -2q0 -3 -0.5 -7.5t-0.5 -9.5l-30 -159q-3 -16 -15 -16h-67q-12 0 -15 16l-30 159q0 5 -0.5 9.5t-1.5 7.5v2v118q0 16 15 16zM316 774h130q15 0 15 -16v-118q0 -13 -1 -19l-31 -159q-3 -16 -15 -16h-66q-12 0 -15 16l-30 159
q0 5 -0.5 9.5t-0.5 7.5l-1 2v118q0 16 15 16z" />
    <glyph glyph-name="numbersign" unicode="#" horiz-adv-x="712" 
d="M653 466h-93v-160h93q16 0 16 -15v-104q0 -15 -16 -15h-93v-156q0 -16 -15 -16h-116q-15 0 -15 16v156h-127v-156q0 -16 -15 -16h-117q-15 0 -15 16v156h-80q-16 0 -16 15v104q0 15 16 15h80v160h-80q-16 0 -16 15v103q0 15 16 15h80v160q0 15 15 15h117q15 0 15 -15
v-160h127v160q0 15 15 15h116q15 0 15 -15v-160h93q16 0 16 -15v-103q0 -15 -16 -15zM287 306h127v160h-127v-160z" />
    <glyph glyph-name="dollar" unicode="$" horiz-adv-x="623" 
d="M266 479l187 -65q76 -27 107 -67q32 -40 32 -115v-26q0 -84 -59 -125t-176 -48v-69q0 -15 -15 -15h-55q-15 0 -15 15v68q-106 3 -217 19q-15 3 -15 17v86q0 14 16 14h301q40 0 58.5 11.5t18.5 37.5v12q0 26 -15.5 40.5t-56.5 29.5l-195 67q-63 21 -91 63.5t-28 120.5v21
q0 85 55 125t169 46v70q0 15 15 15h55q15 0 15 -15v-68q72 -1 183 -19q15 -3 15 -13v-92q0 -13 -16 -13h-254q-43 0 -60.5 -11.5t-17.5 -40.5v-9q0 -25 13 -40t46 -27z" />
    <glyph glyph-name="percent" unicode="%" horiz-adv-x="937" 
d="M214 779q112 0 150 -42q39 -42 39 -164q0 -121 -39 -163q-38 -42 -150 -42q-111 0 -150 42q-38 43 -38 163q0 121 38 164q39 42 150 42zM642 775h54q15 0 6 -15l-390 -745q-8 -15 -23 -15h-55q-14 0 -7 15l391 745q9 15 24 15zM214 679q-41 0 -56 -22t-15 -84
q0 -61 15 -82.5t56 -21.5q42 0 57 21.5t15 82.5q0 62 -15 84t-57 22zM722 406q112 0 150 -42q39 -42 39 -164q0 -121 -39 -163q-38 -42 -150 -42q-111 0 -150 42q-38 43 -38 163q0 121 38 164q39 42 150 42zM722 305q-41 0 -56 -22t-15 -83t15 -82.5t56 -21.5q42 0 57 21.5
t15 82.5t-15 83t-57 22z" />
    <glyph glyph-name="ampersand" unicode="&#x26;" horiz-adv-x="674" 
d="M317 780q85 0 154 -15q23 -6 23 -24v-85q0 -13 -15 -13h-146q-72 0 -98 -16q-26 -17 -26 -68v-14q0 -55 23 -75t88 -20h288q17 0 17 -15v-70q0 -11 -17 -16l-68 -16v-164q0 -32 11.5 -41.5t47.5 -9.5h31q18 0 18 -16v-79q0 -16 -17 -19q-31 -9 -74 -9q-84 0 -114 31
q-62 -31 -150 -31q-105 0 -169 37q-72 43 -72 161v44q0 129 99 151q-99 22 -99 152v45q0 113 66 154q67 41 199 41zM408 148v181h-97q-59 0 -80.5 -20t-21.5 -74v-15q0 -49 25.5 -68.5t85.5 -19.5q49 0 88 16z" />
    <glyph glyph-name="quotesingle" unicode="'" horiz-adv-x="248" 
d="M59 774h130q15 0 15 -16v-118v-2q-1 -3 -1.5 -7.5t-0.5 -9.5l-30 -159q-3 -16 -15 -16h-66q-12 0 -15 16l-31 159q-1 6 -1 19v118q0 16 15 16z" />
    <glyph glyph-name="parenleft" unicode="(" horiz-adv-x="355" 
d="M223 826h114q8 0 8 -8v-10q0 -6 -3 -10q-78 -110 -122 -201q-17 -34 -25 -80q-7 -43 -9 -78q-2 -44 -2 -103q0 -73 2 -125q3 -41 19 -94q17 -56 46 -106q38 -61 91 -137q3 -4 3 -10v-10q0 -8 -8 -8h-114q-9 0 -15 8q-82 108 -115 176q-35 72 -42 130q-8 62 -8 177
q0 113 8 175q9 60 43 129q34 71 114 177q6 8 15 8z" />
    <glyph glyph-name="parenright" unicode=")" horiz-adv-x="356" 
d="M19 826h113q10 0 16 -8q61 -82 92 -134q34 -56 49 -109q17 -59 20 -103q4 -41 4 -135q0 -115 -8 -177q-7 -55 -43 -130q-35 -72 -114 -176q-6 -8 -16 -8h-113q-8 0 -8 8v10q0 6 3 10q60 88 89 137q30 48 47 106q17 56 18 94q3 39 3 125q0 59 -2 103q-2 42 -8 78
q-9 43 -28.5 85.5t-39.5 74t-79 121.5q-3 4 -3 10v10q0 8 8 8z" />
    <glyph glyph-name="asterisk" unicode="*" horiz-adv-x="425" 
d="M180 794h64q15 0 15 -15l-8 -115l109 42q14 5 19 -9l18 -61q5 -15 -11 -18l-108 -31l73 -91q11 -10 -3 -21l-49 -34q-12 -9 -21 3l-64 94l-68 -96q-9 -14 -21 -3l-48 37q-12 9 -2 21l72 88l-110 33q-14 3 -10 19l19 59q5 15 20 9l106 -42l-7 116q-1 15 15 15z" />
    <glyph glyph-name="plus" unicode="+" horiz-adv-x="563" 
d="M228 551h109q15 0 15 -15v-161h165q15 0 15 -15v-102q0 -15 -15 -15h-165v-162q0 -15 -15 -15h-109q-15 0 -15 15v162h-167q-15 0 -15 15v102q0 15 15 15h167v161q0 15 15 15z" />
    <glyph glyph-name="comma" unicode="," horiz-adv-x="282" 
d="M80 126h150q10 0 10 -10v-23q0 -6 -5 -14l-179 -252q-8 -8 -15 -4l-44 24q-7 4 -3 14l74 256q3 9 12 9z" />
    <glyph glyph-name="hyphen" unicode="-" horiz-adv-x="453" 
d="M71 365h311q15 0 15 -15v-107q0 -15 -15 -15h-311q-15 0 -15 15v107q0 15 15 15z" />
    <glyph glyph-name="period" unicode="." horiz-adv-x="250" 
d="M125 156q41 0 64 -21t23 -59t-23 -59.5t-64 -21.5q-42 0 -64.5 21.5t-22.5 59.5t22.5 59t64.5 21z" />
    <glyph glyph-name="slash" unicode="/" horiz-adv-x="498" 
d="M409 813h59q15 0 7 -17l-361 -822q-8 -17 -22 -17h-61q-15 0 -7 17l362 822q8 17 23 17z" />
    <glyph glyph-name="zero" unicode="0" horiz-adv-x="689" 
d="M641 386q0 -230 -60 -311q-59 -80 -236 -80q-139 0 -208 50q-51 41 -69.5 118.5t-19.5 222.5q0 121 13 192t46 118t88.5 65.5t149.5 18.5t149 -18.5t88 -65.5t46 -118t13 -192zM345 643q-83 0 -111 -54q-28 -52 -28 -203q0 -150 28 -202t111 -52q82 0 110 52t28 202
q0 151 -28 203q-29 54 -110 54z" />
    <glyph glyph-name="one" unicode="1" horiz-adv-x="487" 
d="M336 639v-502h122q15 0 15 -15v-107q0 -15 -15 -15h-400q-15 0 -15 15l-1 107q0 15 16 15h127v461q0 32 -14 42t-56 10h-65q-17 -2 -17 15v84q0 16 16 19q53 12 103 12q63 0 104 -14q80 -25 80 -127z" />
    <glyph glyph-name="two" unicode="2" horiz-adv-x="622" 
d="M287 780q100 0 161 -19q119 -36 119 -163v-91q0 -61 -18 -102q-17 -39 -83 -82l-179 -111q-23 -13 -31.5 -25t-8.5 -31v-18h324q8 0 8 -6v-126q0 -6 -7 -6h-514q-27 0 -27 28v90q0 59 26 96q27 36 101 86l213 140q23 15 31 35t8 56v34q0 45 -31.5 61.5t-108.5 16.5h-194
q-12 0 -12 11v86q0 18 19 22q96 18 204 18z" />
    <glyph glyph-name="three" unicode="3" horiz-adv-x="615" 
d="M258 780q162 0 233 -40q72 -39 72 -155v-45q0 -130 -99 -152q99 -23 99 -151v-44q0 -117 -72 -157q-73 -41 -233 -41q-118 0 -193 15q-13 3 -17.5 7.5t-4.5 13.5v89q0 12 15 12h188q98 0 129 17q31 18 31 73v9q-2 55 -25 74q-25 20 -98 20h-178q-14 0 -14 14v97
q0 14 14 14h178q73 0 98 20q25 21 25 75v13q0 52 -32 69q-31 16 -132 16h-184q-15 0 -15 12v87q0 17 22 23q83 15 193 15z" />
    <glyph glyph-name="four" unicode="4" horiz-adv-x="680" 
d="M178 774h126q16 0 11 -18l-121 -430h182v173q0 14 14 19l127 43q16 4 16 -13v-222h113q16 0 16 -15v-107q0 -15 -16 -15h-113v-173q0 -16 -15 -16h-127q-15 0 -15 16v173h-337q-15 0 -15 15v74q0 14 7 36l129 450q1 10 18 10z" />
    <glyph glyph-name="five" unicode="5" horiz-adv-x="630" 
d="M92 774h464q15 0 15 -15v-107q0 -15 -15 -15h-345l-13 -162q45 6 102 6q147 0 217 -44q68 -43 70 -162v-75q-1 -120 -73 -163q-72 -42 -232 -42q-128 0 -207 14q-23 5 -23 23v87q0 13 15 13h205q94 0 126 21q31 21 31 80v8q-2 61 -32 81q-29 22 -125 22h-193
q-27 0 -27 20v95l24 300q2 15 16 15z" />
    <glyph glyph-name="six" unicode="6" horiz-adv-x="631" 
d="M270 774h135q19 0 10 -18l-144 -289q27 7 75 7q258 0 258 -199v-74q0 -111 -69 -158.5t-212 -47.5q-145 0 -216 48t-71 159v73q0 57 20 102l196 387q6 10 18 10zM323 344q-75 0 -103 -23q-26 -23 -26 -80v-5q0 -59 27 -81.5t102 -22.5q73 0 99 23q25 22 25 80v5
q0 59 -26 81.5t-98 22.5z" />
    <glyph glyph-name="seven" unicode="7" horiz-adv-x="603" 
d="M36 774h535q15 0 15 -15v-81q0 -12 -7 -23l-337 -645q-6 -10 -18 -10h-148q-19 0 -10 18l327 619h-357q-16 0 -16 14v108q0 15 16 15z" />
    <glyph glyph-name="eight" unicode="8" horiz-adv-x="662" 
d="M324 779h17q133 0 196.5 -51.5t63.5 -160.5q0 -66 -25 -110t-79 -74q65 -28 94 -69.5t29 -108.5q0 -106 -69 -158t-212 -52h-18q-143 0 -211.5 52t-68.5 160q0 123 127 190q-104 51 -104 169q0 109 63 161t197 52zM338 642h-11q-105 0 -105 -83q0 -65 82 -96l73 -22
q67 36 67 109q0 92 -106 92zM380 306l-95 30q-87 -39 -87 -106q0 -98 126 -98h13q126 0 126 84q0 64 -83 90z" />
    <glyph glyph-name="nine" unicode="9" horiz-adv-x="631" 
d="M308 779q145 0 216 -48t71 -159v-73q0 -57 -20 -102l-196 -387q-6 -10 -18 -10h-135q-19 0 -10 18l144 289q-37 -8 -75 -8q-258 0 -258 200v74q0 111 69 158.5t212 47.5zM308 641q-72 0 -98 -23q-25 -22 -25 -80v-4q0 -59 25.5 -81.5t97.5 -22.5q75 0 102.5 22.5
t27.5 80.5v5q0 58 -27.5 80.5t-102.5 22.5z" />
    <glyph glyph-name="colon" unicode=":" horiz-adv-x="284" 
d="M142 566q42 0 64.5 -21t22.5 -59t-22.5 -59.5t-64.5 -21.5q-41 0 -64 21.5t-23 59.5t23 59t64 21zM142 156q42 0 64.5 -21t22.5 -59t-22.5 -59.5t-64.5 -21.5q-41 0 -64 21.5t-23 59.5t23 59t64 21z" />
    <glyph glyph-name="semicolon" unicode=";" horiz-adv-x="306" 
d="M162 566q41 0 64 -21t23 -59t-23 -59.5t-64 -21.5q-42 0 -65 21.5t-23 59.5t23 59t65 21zM83 126h151q10 0 10 -10v-23q0 -6 -5 -14l-180 -252q-8 -8 -15 -4l-44 24q-7 4 -3 14l74 256q3 9 12 9z" />
    <glyph glyph-name="less" unicode="&#x3c;" horiz-adv-x="563" 
d="M483 620h18q10 0 10 -10v-113q0 -12 -12 -18l-270 -116l270 -116q12 -6 12 -17v-113q0 -11 -10 -11h-18q-5 0 -13 3l-433 194q-12 5 -12 17v87q0 11 12 17l433 194q6 2 13 2z" />
    <glyph glyph-name="equal" unicode="=" horiz-adv-x="657" 
d="M73 511h511q15 0 15 -15v-106q0 -15 -15 -15h-511q-15 0 -15 15v106q0 15 15 15zM73 251h511q15 0 15 -15v-106q0 -15 -15 -15h-511q-15 0 -15 15v106q0 15 15 15z" />
    <glyph glyph-name="greater" unicode="&#x3e;" horiz-adv-x="563" 
d="M63 620h17q8 0 14 -2l433 -194q11 -6 11 -17v-87q0 -12 -11 -17l-433 -194q-8 -3 -14 -3h-17q-11 0 -11 11v113q0 11 12 17l271 116l-271 116q-12 6 -12 18v113q0 10 11 10z" />
    <glyph glyph-name="question" unicode="?" horiz-adv-x="544" 
d="M237 780q100 0 161 -19q117 -33 117 -165v-57q0 -79 -24 -117q-22 -37 -86 -66l-102 -49q-28 -13 -39 -24t-15 -29l-2 -17q0 -11 -12 -11h-97q-10 0 -12 11l-7 53q-5 44 8 65q13 22 65 51l111 56q31 16 43 32.5t12 48.5v30q0 43 -26.5 56.5t-96.5 13.5h-194q-15 0 -15 15
v80q0 21 23 27q82 15 188 15zM186 156q41 0 63.5 -21t22.5 -59t-22.5 -59.5t-63.5 -21.5q-42 0 -65 21.5t-23 59.5t23 59t65 21z" />
    <glyph glyph-name="at" unicode="@" horiz-adv-x="1027" 
d="M522 774q235 0 348.5 -99t113.5 -309q0 -300 -275 -305l-208 1q-107 0 -151 24q-43 24 -43 107v19q0 76 40 105t133 29h107v30q0 31 -19 44.5t-61 13.5h-153q-12 0 -12 13v70q0 11 12 13q64 13 150 13q122 0 165 -36q44 -35 44 -110v-283q213 0 213 251
q0 181 -100.5 268.5t-304.5 87.5q-217 0 -320 -105t-103 -326q0 -190 75 -292q99 -129 313 -134q13 0 13 -13v-29q0 -12 -13 -12q-227 1 -336 119.5t-109 362.5q0 249 116.5 365.5t364.5 116.5zM587 163v101h-96q-38 0 -49 -9t-11 -37v-9q0 -28 14 -37t54 -9h88z" />
    <glyph glyph-name="A" unicode="A" horiz-adv-x="711" 
d="M354 780q91 0 120 -20q27 -19 50 -100l176 -644q3 -16 -13 -16h-128q-6 0 -8.5 3t-4.5 13l-57 208h-268l-58 -208q-2 -10 -4.5 -13t-9.5 -3h-127q-16 0 -13 16l179 644q23 81 50 100q29 20 116 20zM354 648q-12 0 -16 -5t-9 -24l-73 -265h198l-72 265q-7 24 -14 27
q-4 2 -14 2z" />
    <glyph glyph-name="B" unicode="B" horiz-adv-x="700" 
d="M365 780q147 0 212 -48t65 -167q0 -82 -26 -123t-87 -52v-3q71 -9 100.5 -51.5t29.5 -128.5q0 -119 -63 -166q-62 -46 -207 -46q-183 0 -303 10q-15 1 -15 14v736q0 8 3 10.5t12 3.5q127 11 279 11zM349 643h-121v-199h102q90 0 121 18q32 20 32 79q0 58 -30 80t-104 22z
M379 331h-151v-199h150q68 0 95 21t27 75q0 58 -28 80.5t-93 22.5z" />
    <glyph glyph-name="C" unicode="C" horiz-adv-x="623" 
d="M369 780q115 0 197 -15q23 -6 23 -27v-80q0 -15 -15 -15h-205q-101 0 -132 -52q-30 -53 -30 -203q0 -152 30 -204q31 -52 132 -52h205q15 0 15 -15v-81q0 -20 -23 -26q-74 -15 -197 -15q-101 0 -160 18.5t-96 64.5q-36 47 -50.5 118.5t-14.5 191.5t14.5 191.5t50.5 117.5
q37 46 96 64.5t160 18.5z" />
    <glyph glyph-name="D" unicode="D" horiz-adv-x="745" 
d="M376 780q175 0 249 -92q75 -92 75 -301q0 -210 -75 -301q-73 -91 -249 -91q-170 0 -290 10q-15 1 -15 13v737q0 8 3 10.5t12 3.5q127 11 290 11zM368 643h-140v-511h148q89 0 127 59t38 196q0 136 -40 196t-133 60z" />
    <glyph glyph-name="E" unicode="E" horiz-adv-x="648" 
d="M86 774h501q15 0 15 -15v-107q0 -15 -15 -15h-359v-189h328q16 0 16 -15v-102q0 -15 -16 -15h-328v-179h359q15 0 15 -15v-107q0 -15 -15 -15h-501q-15 0 -15 16v743q0 15 15 15z" />
    <glyph glyph-name="F" unicode="F" horiz-adv-x="607" 
d="M86 774h482q15 0 15 -15v-107q0 -15 -15 -15h-340v-190h309q16 0 16 -15v-102q0 -15 -16 -15h-309v-299q0 -16 -15 -16h-127q-15 0 -15 16v743q0 15 15 15z" />
    <glyph glyph-name="G" unicode="G" horiz-adv-x="686" 
d="M369 780q141 0 214 -15q23 -6 23 -27v-80q0 -15 -15 -15h-222q-101 0 -132 -52q-30 -53 -30 -204t30 -203q31 -52 132 -52h125v233q0 16 15 16h117q15 0 15 -16v-284q0 -18 -4 -25q-16 -28 -94 -45q-74 -16 -174 -16q-98 0 -158 18t-98 65q-36 46 -50.5 117.5
t-14.5 191.5q0 229 65 311q66 82 256 82z" />
    <glyph glyph-name="H" unicode="H" horiz-adv-x="787" 
d="M574 774h127q15 0 15 -16v-742q0 -16 -15 -16h-127q-15 0 -15 16v302h-331v-302q0 -16 -15 -16h-127q-15 0 -15 16v742q0 16 15 16h127q15 0 15 -16v-301h331v301q0 16 15 16z" />
    <glyph glyph-name="I" unicode="I" horiz-adv-x="299" 
d="M86 774h127q15 0 15 -16v-742q0 -16 -15 -16h-127q-15 0 -15 16v742q0 16 15 16z" />
    <glyph glyph-name="J" unicode="J" horiz-adv-x="589" 
d="M161 774h348q15 0 15 -15v-382q1 -221 -67 -302q-68 -80 -260 -80q-85 0 -159 15q-23 5 -23 25v82q0 15 15 15h167q104 0 137 49q35 50 33 196v260h-205q-16 0 -16 15v107q0 15 15 15z" />
    <glyph glyph-name="K" unicode="K" horiz-adv-x="678" 
d="M500 774h141q22 0 9 -19l-260 -337l287 -391q19 -27 -17 -27h-140q-16 0 -22 11l-270 371v-366q0 -16 -15 -16h-127q-15 0 -15 16v743q0 15 15 15h127q15 0 15 -15v-318l251 323q7 10 21 10z" />
    <glyph glyph-name="L" unicode="L" horiz-adv-x="587" 
d="M86 774h127q15 0 15 -15v-622h328q15 0 15 -15v-107q0 -15 -15 -15h-470q-15 0 -15 16v743q0 15 15 15z" />
    <glyph glyph-name="M" unicode="M" horiz-adv-x="982" 
d="M734 775h121q12 0 13 -16l72 -743q1 -16 -15 -16h-127q-14 0 -15 16l-44 480l-180 -457q-6 -15 -21 -15h-95q-13 0 -21 15l-179 457l-44 -480q-1 -16 -15 -16h-127q-16 0 -15 16l72 742q1 16 13 16h121q24 0 35.5 -8t21.5 -31l186 -487l186 487q9 24 21 32t36 8z" />
    <glyph glyph-name="N" unicode="N" horiz-adv-x="785" 
d="M572 774h127q15 0 15 -16v-742q0 -16 -15 -16h-93q-32 0 -50 25l-328 481v-490q0 -16 -15 -16h-127q-15 0 -15 16v742q0 16 15 16h99q30 -3 38 -7.5t24 -25.5l310 -453v470q0 16 15 16z" />
    <glyph glyph-name="O" unicode="O" horiz-adv-x="742" 
d="M695 386q0 -228 -67 -310q-68 -81 -257 -81t-257 81q-67 82 -67 310q0 121 15 192.5t52 117.5q37 47 96.5 65.5t160.5 18.5t160.5 -18.5t96.5 -65.5q37 -46 52 -117.5t15 -192.5zM206 386q0 -149 32 -202q31 -52 133 -52t133 52q32 53 32 202q0 151 -32 204t-133 53
t-133 -53t-32 -204z" />
    <glyph glyph-name="P" unicode="P" horiz-adv-x="674" 
d="M352 780q167 0 229 -55q64 -54 64 -202q0 -79 -14.5 -125t-50.5 -72t-87 -36t-141 -10h-124v-264q0 -10 -3 -13t-12 -3h-127q-9 0 -12 3t-3 13v739q0 8 3 10.5t12 3.5q127 11 266 11zM336 643h-108v-242h108q92 0 121 21q29 23 29 97q0 75 -30 99q-29 25 -120 25z" />
    <glyph glyph-name="Q" unicode="Q" horiz-adv-x="742" 
d="M695 386q0 -203 -52 -288q-51 -84 -190 -99l36 -123q4 -16 -15 -16h-113q-14 0 -18 16l-36 121q-149 12 -205 96q-55 83 -55 293q0 121 15 192.5t52 117.5q37 47 96.5 65.5t160.5 18.5t160.5 -18.5t96.5 -65.5q37 -46 52 -117.5t15 -192.5zM536 386q0 151 -32 204
t-133 53t-133 -53t-32 -204q0 -149 32 -202q31 -52 133 -52t133 52q32 53 32 202z" />
    <glyph glyph-name="R" unicode="R" horiz-adv-x="692" 
d="M352 780q167 0 229 -55q64 -54 64 -202q0 -113 -34 -165q-35 -52 -119 -68l170 -270q6 -8 2.5 -14t-14.5 -6h-126q-25 0 -40 22l-164 258h-92v-264q0 -10 -3 -13t-12 -3h-127q-9 0 -12 3t-3 13v739q0 8 3 10.5t12 3.5q127 11 266 11zM336 643h-108v-242h108q92 0 121 21
q29 23 29 97q0 75 -30 99q-29 25 -120 25z" />
    <glyph glyph-name="S" unicode="S" horiz-adv-x="625" 
d="M328 780q95 0 209 -20q18 -6 18 -18v-81q0 -18 -19 -18h-237q-92 0 -92 -65v-14q0 -52 59 -75l187 -73q75 -30 107 -74t32 -127v-28q0 -102 -71.5 -147t-216.5 -45q-115 0 -247 21q-17 5 -17 22v76q0 18 19 18h284q91 0 91 62v13q0 32 -16 50t-56 33l-195 73
q-63 24 -91 71t-28 133v22q0 103 67.5 147t212.5 44z" />
    <glyph glyph-name="T" unicode="T" horiz-adv-x="638" 
d="M31 774h575q16 0 16 -15v-107q0 -15 -16 -15h-209v-621q0 -16 -15 -16h-127q-15 0 -15 16v621h-209q-15 0 -15 15v107q0 15 15 15z" />
    <glyph glyph-name="U" unicode="U" horiz-adv-x="763" 
d="M556 774h127q15 0 15 -15v-373q0 -184 -38 -273q-33 -67 -95.5 -91.5t-182.5 -26.5q-101 0 -159 17t-94 62t-50 116.5t-14 195.5v373q0 15 15 15h127q15 0 15 -15v-373q0 -151 32 -203q31 -51 128 -51q96 0 127 51q32 52 32 203v373q0 15 15 15z" />
    <glyph glyph-name="V" unicode="V" horiz-adv-x="697" 
d="M27 774h128q6 0 8.5 -3t5.5 -13l156 -605q4 -14 6 -18.5t6 -8t10 -3.5q11 0 15 5.5t10 24.5l154 605q4 16 14 16h128q16 0 12 -16l-165 -644q-21 -81 -49 -100q-26 -19 -118 -19q-89 0 -115 19t-49 100l-169 644q-4 16 12 16z" />
    <glyph glyph-name="W" unicode="W" horiz-adv-x="1101" 
d="M932 774h132q17 0 14 -16l-125 -644q-15 -79 -41 -99t-108 -20q-94 0 -119 19q-26 20 -45 100l-89 378l-90 -378q-9 -34 -13 -48t-14.5 -31t-16 -21t-26.5 -10t-37.5 -6.5t-55.5 -2.5q-83 0 -109 20q-24 19 -41 99l-124 644q-3 16 13 16h133q11 0 14 -16l107 -573
q4 -18 8.5 -24t14.5 -6q12 0 16.5 5.5t9.5 24.5l131 546q4 16 21 16h118q16 0 20 -16l132 -546q6 -20 9.5 -25t15.5 -5q10 0 14.5 6t8.5 24l107 573q2 10 5 13t10 3z" />
    <glyph glyph-name="X" unicode="X" horiz-adv-x="702" 
d="M525 774h141q24 0 11 -22l-234 -349l256 -381q15 -22 -11 -22h-141q-17 0 -27 16l-168 264l-169 -264q-10 -16 -27 -16h-141q-26 0 -11 22l256 381l-235 349q-13 22 11 22h141q17 0 27 -16l148 -233l146 233q10 16 27 16z" />
    <glyph glyph-name="Y" unicode="Y" horiz-adv-x="713" 
d="M558 774h141q23 0 11 -22l-275 -504v-232q0 -16 -15 -16h-127q-15 0 -15 16v234l-275 502q-12 22 11 22h141q17 0 27 -16l174 -352l175 352q9 16 27 16z" />
    <glyph glyph-name="Z" unicode="Z" horiz-adv-x="688" 
d="M57 774h575q15 0 15 -15v-97q0 -13 -7 -20l-402 -505h402q16 0 16 -15v-106q0 -16 -16 -16h-594q-15 0 -15 16l-1 95q0 12 7 20l402 506h-381q-16 0 -16 15l-1 107q0 15 16 15z" />
    <glyph glyph-name="bracketleft" unicode="[" horiz-adv-x="424" 
d="M89 826h296q15 0 15 -15v-80q0 -15 -15 -15h-169v-761h169q15 0 15 -15v-80q0 -15 -15 -15h-296q-15 0 -15 15v951q0 15 15 15z" />
    <glyph glyph-name="backslash" unicode="\" horiz-adv-x="498" 
d="M31 813h58q16 0 22 -17l364 -822q8 -17 -8 -17h-61q-14 0 -22 17l-361 822q-8 17 8 17z" />
    <glyph glyph-name="bracketright" unicode="]" horiz-adv-x="424" 
d="M39 826h296q15 0 15 -15v-951q0 -15 -15 -15h-296q-15 0 -15 15v80q0 15 15 15h169v761h-169q-15 0 -15 15v80q0 15 15 15z" />
    <glyph glyph-name="asciicircum" unicode="^" horiz-adv-x="557" 
d="M223 744h113q12 0 17 -11l175 -350q10 -18 -11 -18h-120q-13 0 -18 11l-100 215l-102 -215q-5 -11 -18 -11h-119q-18 0 -11 18l176 350q5 11 18 11z" />
    <glyph glyph-name="underscore" unicode="_" horiz-adv-x="642" 
d="M15 -48h612q15 0 15 -15v-53q0 -15 -15 -15h-612q-15 0 -15 15v53q0 15 15 15z" />
    <glyph glyph-name="grave" unicode="`" horiz-adv-x="482" 
d="M130 792h145q9 0 12 -6l73 -130q5 -8 -3 -14l-43 -25q-8 -5 -14 0l-175 146q-5 8 -5 12v7q0 10 10 10z" />
    <glyph glyph-name="a" unicode="a" horiz-adv-x="565" 
d="M267 565q140 0 191 -42t51 -130v-346q0 -24 -22 -31q-91 -21 -227 -21q-67 0 -102.5 5t-67.5 22q-60 33 -61 146q1 96 49 130q49 34 156 34h127v36q0 69 -94 69h-181q-8 0 -11 3t-3 12v82q0 8 2.5 11t11.5 5q77 15 181 15zM361 125v111h-115q-39 0 -54.5 -13.5
t-15.5 -46.5q0 -35 18.5 -48t66.5 -13q66 0 100 10z" />
    <glyph glyph-name="b" unicode="b" horiz-adv-x="602" 
d="M74 774h118q15 0 15 -16v-199q55 6 123 6q136 0 183 -60q47 -59 47 -226q0 -171 -52 -227q-51 -57 -208 -57q-103 0 -220 19q-21 3 -21 25v719q0 16 15 16zM297 436h-90v-306q39 -7 96 -7q72 0 90 31q18 32 18 126q0 98 -20 127t-94 29z" />
    <glyph glyph-name="c" unicode="c" horiz-adv-x="511" 
d="M297 565q101 0 163 -13q17 -3 17 -20v-79q0 -16 -17 -16h-163q-67 0 -87 -30q-19 -29 -19 -127q0 -96 19 -127q20 -30 87 -30h163q17 0 17 -15v-80q0 -16 -17 -19q-65 -14 -163 -14q-85 0 -132 12t-75 45q-27 34 -37 84.5t-10 143.5t10 143.5t37 83.5q28 34 74.5 46
t132.5 12z" />
    <glyph glyph-name="d" unicode="d" horiz-adv-x="602" 
d="M410 774h118q15 0 15 -16v-719q0 -22 -21 -25q-117 -19 -220 -19q-157 0 -208 57t-51 227q0 169 46 227q47 59 183 59q68 0 123 -6v199q0 16 15 16zM395 130v306h-90q-74 0 -94 -29t-20 -127q0 -94 18 -126q19 -31 90 -31q57 0 96 7z" />
    <glyph glyph-name="e" unicode="e" horiz-adv-x="574" 
d="M294 565q148 0 196 -56q48 -54 50 -222v-31q0 -15 -7 -21t-25 -6h-314q2 -67 23 -86q23 -20 90 -20h177q15 0 15 -15v-83q0 -14 -14 -16q-70 -14 -191 -14q-152 0 -201 57q-50 58 -50 228q0 172 50 228q49 57 201 57zM294 437q-57 0 -78.5 -23t-22.5 -88h198
q-1 65 -21.5 88t-75.5 23z" />
    <glyph glyph-name="f" unicode="f" horiz-adv-x="394" 
d="M277 779q58 0 108 -10q16 -3 16 -19v-83q0 -16 -17 -16h-79q-32 0 -44 -8t-12 -31v-53h122q15 0 12 -17l-15 -84q-3 -14 -17 -14h-102v-428q0 -16 -15 -16h-118q-15 0 -15 16v428h-65q-17 0 -17 15v85q0 15 17 15h65v79q0 89 55 118q44 23 121 23z" />
    <glyph glyph-name="g" unicode="g" horiz-adv-x="604" 
d="M304 565q119 0 220 -19q21 -3 21 -25v-509q0 -95 -25 -141q-20 -41 -72.5 -59.5t-147.5 -18.5q-101 0 -185 14q-14 2 -14 16v76q0 15 14 15h172q65 0 87 17.5t22 68.5v6q-61 -11 -122 -11q-136 0 -184 60q-47 61 -47 233q0 166 52 221q53 56 209 56zM396 130v307h-99
q-69 0 -88 -31q-18 -32 -18 -125q0 -97 20 -128q21 -29 96 -29q54 0 89 6z" />
    <glyph glyph-name="h" unicode="h" horiz-adv-x="611" 
d="M75 774h118q15 0 15 -16v-198q52 5 106 5q79 0 121 -9t70 -35q29 -26 39.5 -70.5t10.5 -125.5v-309q0 -16 -15 -16h-119q-14 0 -14 16v271q0 73 -9 103t-28 38.5t-71 8.5h-90v-421q0 -16 -15 -16h-120q-14 0 -14 16v742q0 16 15 16z" />
    <glyph glyph-name="i" unicode="i" horiz-adv-x="268" 
d="M135 796q41 0 63.5 -21t22.5 -59t-22.5 -59.5t-63.5 -21.5q-42 0 -65 21.5t-23 59.5t23 59t65 21zM75 560h118q15 0 15 -15v-529q0 -16 -15 -16h-118q-15 0 -15 16v529q0 15 15 15z" />
    <glyph glyph-name="j" unicode="j" horiz-adv-x="274" 
d="M140 796q42 0 64.5 -21t22.5 -59t-22.5 -59.5t-64.5 -21.5q-41 0 -64 21.5t-23 59.5t23 59t64 21zM80 560h119q15 0 15 -15v-626q0 -77 -35 -101q-34 -25 -106 -25q-48 0 -82 8q-17 6 -17 20v85q0 16 18 16h24q32 0 40.5 7.5t8.5 37.5v578q0 15 15 15z" />
    <glyph glyph-name="k" unicode="k" horiz-adv-x="558" 
d="M75 774h118q15 0 15 -16v-390l143 182q7 10 21 10h135q25 0 9 -19l-161 -201l205 -313q15 -27 -17 -27h-126q-16 0 -22 11l-187 295v-290q0 -16 -15 -16h-118q-15 0 -15 16v742q0 16 15 16z" />
    <glyph glyph-name="l" unicode="l" horiz-adv-x="268" 
d="M75 774h118q15 0 15 -15v-743q0 -16 -15 -16h-118q-15 0 -15 16v743q0 15 15 15z" />
    <glyph glyph-name="m" unicode="m" horiz-adv-x="887" 
d="M617 566q121 0 167 -45q47 -44 47 -168l-1 -337q0 -16 -15 -16h-118q-15 0 -15 16v271q-1 42 -2 62.5t-6 40.5t-8.5 26t-17.5 12.5t-24 7t-37 1.5q-43 0 -81 -6q13 -38 13 -106l-1 -309q0 -16 -14 -16h-119q-14 0 -14 16v305q0 81 -20 99q-12 11 -26.5 14t-49.5 3h-68
v-421q0 -16 -15 -16h-118q-15 0 -15 16v517q0 12 13 15q80 17 192 17t179 -32q85 33 174 33z" />
    <glyph glyph-name="n" unicode="n" horiz-adv-x="611" 
d="M313 565q79 0 121.5 -9t70.5 -35q29 -26 39.5 -70.5t10.5 -125.5v-309q0 -16 -16 -16h-118q-15 0 -15 16v271q0 62 -3.5 87.5t-16.5 40.5q-12 15 -28.5 18.5t-58.5 3.5h-91v-421q0 -16 -15 -16h-119q-15 0 -15 16v517q0 6 2 9t4.5 4t8.5 2q79 17 239 17z" />
    <glyph glyph-name="o" unicode="o" horiz-adv-x="596" 
d="M298 565q83 0 129.5 -12.5t75.5 -45.5q29 -32 39.5 -83t10.5 -144q0 -171 -50 -229q-50 -56 -205 -56t-205 56q-50 58 -50 229q0 172 50 228q50 57 205 57zM298 437q-68 0 -87 -31q-19 -29 -19 -126q0 -96 19 -127q19 -30 87 -30t87 30q20 32 20 127t-20 126
q-19 31 -87 31z" />
    <glyph glyph-name="p" unicode="p" horiz-adv-x="603" 
d="M300 565q156 0 209 -57q52 -55 52 -220q0 -173 -48 -233q-47 -60 -183 -60q-70 0 -123 6v-187q0 -15 -15 -15h-118q-15 0 -15 15v707q0 21 21 25q117 19 220 19zM307 437h-100v-307q43 -6 90 -6q75 0 95 29q21 28 21 127q0 94 -18 126q-18 31 -88 31z" />
    <glyph glyph-name="q" unicode="q" horiz-adv-x="604" 
d="M304 565q103 0 220 -19q21 -4 21 -25v-707q0 -15 -15 -15h-118q-15 0 -15 15v187q-53 -6 -123 -6q-136 0 -184 60q-47 61 -47 233q0 166 52 221q53 56 209 56zM397 129v308h-100q-70 0 -88 -31q-18 -30 -18 -125q0 -97 20 -128q21 -29 96 -29q50 0 90 5z" />
    <glyph glyph-name="r" unicode="r" horiz-adv-x="401" 
d="M239 565q83 0 133 -11q16 -4 16 -20v-82q0 -15 -17 -15h-94q-42 0 -56 -10t-14 -41v-370q0 -16 -15 -16h-119q-15 0 -15 16v408q0 69 37 104q44 37 144 37z" />
    <glyph glyph-name="s" unicode="s" horiz-adv-x="506" 
d="M274 565q86 0 158 -13q16 -4 16 -16v-76q0 -16 -17 -16h-180q-59 0 -59 -36v-10q0 -30 48 -46l128 -45q58 -20 81.5 -55.5t23.5 -94.5v-16q0 -79 -52.5 -112.5t-160.5 -33.5q-116 0 -207 10q-17 0 -17 15v81q0 15 17 15h205q40 0 54.5 7t14.5 27v9q0 15 -11.5 25.5
t-43.5 21.5l-123 44q-102 34 -102 152v19q0 76 56 110t171 34z" />
    <glyph glyph-name="t" unicode="t" horiz-adv-x="380" 
d="M109 684l118 31q16 4 16 -15v-143h92q17 0 17 -15v-80q0 -15 -17 -15h-92v-273q0 -30 12.5 -40.5t46.5 -10.5h41q17 0 17 -15v-85q0 -16 -16 -19q-45 -9 -85 -9q-61 0 -94 9q-35 10 -51 36.5t-19 83.5v323h-59q-16 0 -16 15v80q0 15 16 15h59v111q0 13 14 16z" />
    <glyph glyph-name="u" unicode="u" horiz-adv-x="610" 
d="M417 560h120q14 0 14 -15v-516q0 -9 -2.5 -12t-11.5 -5q-91 -17 -240 -17q-79 0 -121 9t-71 35q-28 26 -38.5 70.5t-10.5 126.5v309q0 15 16 15h118q14 0 14 -15v-271q0 -74 9 -105q9 -29 28 -37.5t71 -8.5h90v422q0 15 15 15z" />
    <glyph glyph-name="v" unicode="v" horiz-adv-x="587" 
d="M428 560h127q16 0 13 -16l-113 -430q-22 -80 -48 -100q-25 -19 -115 -19q-87 0 -112 19q-24 19 -46 100l-117 430q-3 16 13 16h127q6 0 8.5 -3t4.5 -13l100 -399q5 -19 8.5 -23.5t13.5 -4.5q12 0 16 4.5t9 23.5l98 399l1.5 6t1.5 4.5t2.5 3.5t3 1.5t4.5 0.5z" />
    <glyph glyph-name="w" unicode="w" horiz-adv-x="884" 
d="M722 560h127q14 0 12 -14l-86 -451q-12 -65 -39 -83q-26 -17 -98 -17q-86 0 -109 16q-23 17 -38 84l-49 222l-49 -222q-13 -67 -38 -84q-22 -16 -108 -16q-71 0 -99 17q-25 18 -39 83l-85 451q-3 14 12 14h127q8 0 11 -14l69 -408q3 -12 6 -15.5t10 -3.5q8 0 11 3t5 16
l93 391q5 14 16 14h117q12 0 15 -14l93 -391q3 -13 5.5 -16t10.5 -3q7 0 10.5 3.5t6.5 15.5l69 408q3 14 11 14z" />
    <glyph glyph-name="x" unicode="x" horiz-adv-x="578" 
d="M402 560h143q20 0 7 -18l-172 -249l190 -274q5 -7 3 -13t-11 -6h-144q-9 0 -16 10l-113 168l-114 -168q-4 -10 -16 -10h-143q-9 0 -11 6t3 13l190 274l-173 249q-13 18 8 18h143q10 0 18 -9l95 -142l95 142q6 9 18 9z" />
    <glyph glyph-name="y" unicode="y" horiz-adv-x="622" 
d="M428 560h119q15 0 15 -15v-533q0 -95 -25 -141q-20 -41 -72.5 -59.5t-147.5 -18.5q-106 0 -188 14q-14 2 -14 16v76q0 15 14 15h175q65 0 87 17.5t22 68.5v6q-61 -11 -122 -11q-135 0 -186 57q-50 59 -50 201v292q0 15 15 15h119q15 0 15 -15v-264q0 -98 22 -127
q22 -30 98 -30q54 0 89 6v415q0 15 15 15z" />
    <glyph glyph-name="z" unicode="z" horiz-adv-x="542" 
d="M59 560h422q17 0 17 -15v-68q0 -9 -7 -19l-246 -330h249q17 0 17 -15v-97q0 -16 -17 -16h-446q-18 0 -18 16v65q0 9 7 19l254 335h-232q-17 0 -17 15v95q0 15 17 15z" />
    <glyph glyph-name="braceleft" unicode="{" horiz-adv-x="363" 
d="M233 833q43 0 82 -10q17 -5 17 -22v-76q0 -15 -15 -15h-39q-27 0 -38.5 -10.5t-9.5 -34.5l27 -229q5 -42 -26 -59l-72 -38v-6l72 -38q31 -17 26 -59l-27 -229q-2 -24 9.5 -34.5t38.5 -10.5h39q15 0 15 -15v-76q0 -17 -17 -22q-39 -10 -82 -10q-82 0 -118.5 29t-29.5 95
l28 271q1 14 -9 18l-78 49q-8 5 -8 18v34q0 13 8 18l78 49q10 4 9 18l-28 271q-7 66 29.5 95t118.5 29z" />
    <glyph glyph-name="bar" unicode="|" horiz-adv-x="296" 
d="M89 816h118q15 0 15 -15v-885q0 -16 -15 -16h-118q-15 0 -15 16v885q0 15 15 15z" />
    <glyph glyph-name="braceright" unicode="}" horiz-adv-x="363" 
d="M130 833q82 0 118.5 -29t29.5 -95l-28 -271q-2 -14 9 -18l78 -49q8 -5 8 -18v-34q0 -13 -8 -18l-78 -49q-11 -4 -9 -18l28 -271q7 -66 -29.5 -95t-118.5 -29q-46 0 -82 10q-10 2 -13.5 6.5t-3.5 15.5v76q0 15 15 15h38q28 0 39.5 10.5t8.5 34.5l-26 229q-3 24 2.5 36.5
t23.5 22.5l72 38v6l-72 38q-18 10 -23.5 22.5t-2.5 36.5l26 229q3 24 -8.5 34.5t-39.5 10.5h-38q-15 0 -15 15v76q0 11 3.5 15.5t13.5 6.5q36 10 82 10z" />
    <glyph glyph-name="asciitilde" unicode="~" horiz-adv-x="630" 
d="M206 443q35 1 76.5 -19t77.5 -40t58 -19q54 0 81 50q7 12 20 3l68 -44q10 -6 4 -19q-20 -57 -65.5 -89.5t-104.5 -32.5q-35 -1 -75.5 19t-76 40t-59.5 19q-53 0 -81 -49q-6 -12 -18 -4l-69 44q-9 6 -5 19q21 57 65.5 89.5t103.5 32.5z" />
    <glyph glyph-name="Adieresis" unicode="&#xa1;" horiz-adv-x="284" 
d="M143 565q41 0 63.5 -21t22.5 -60q0 -38 -22.5 -59t-63.5 -21q-42 0 -65 21t-23 59q0 39 23 60t65 21zM109 347h67q11 0 15 -16l30 -159q1 -6 1 -19v-338q0 -16 -15 -16h-130q-15 0 -15 16v338q0 7 2 19l30 159q3 16 15 16z" />
    <glyph glyph-name="Aring" unicode="&#xa2;" horiz-adv-x="525" 
d="M462 437h-163q-67 0 -87 -30q-19 -29 -19 -127q0 -96 19 -127q20 -30 87 -30h163q17 0 17 -15v-80q0 -16 -17 -19q-65 -14 -163 -14h-23l-13 -74q-1 -16 -17 -16h-55q-15 0 -12 16l14 81q-88 16 -118 76t-30 202q0 89 9 138.5t33 82.5q24 34 65.5 48t116.5 16l13 74
q3 16 18 16h54q14 0 13 -16l-13 -75q70 -4 108 -12q17 -3 17 -20v-79q0 -16 -17 -16z" />
    <glyph glyph-name="Ccedilla" unicode="&#xa3;" horiz-adv-x="649" 
d="M434 778q58 0 139 -14q22 -6 22 -23v-88q0 -13 -15 -13h-136q-96 0 -127 -21q-30 -19 -30 -79v-153h217q16 0 16 -15v-63q0 -15 -16 -15h-217v-157h311q16 0 16 -15v-107q0 -15 -16 -15h-559q-15 0 -14 15l19 107q4 15 19 15h66v157h-57q-16 0 -16 15v63q0 15 16 15h57
v185q0 120 72 163q73 43 233 43z" />
    <glyph glyph-name="Eacute" unicode="&#xa4;" horiz-adv-x="598" 
d="M50 527l39 38q11 11 22 0l51 -51q57 28 136 28t136 -28l51 51q11 11 22 0l39 -38q10 -11 -1 -22l-47 -47q34 -53 34 -132q0 -80 -34 -132l47 -48q11 -11 1 -21l-39 -39q-11 -11 -22 0l-51 51q-57 -28 -136 -28t-136 28l-51 -51q-11 -11 -22 0l-39 39q-10 10 1 21l47 48
q-34 52 -34 132q0 79 34 132l-47 47q-11 11 -1 22zM298 428q-99 0 -99 -102q0 -103 99 -103t99 103q0 102 -99 102z" />
    <glyph glyph-name="Ntilde" unicode="&#xa5;" horiz-adv-x="755" 
d="M579 774h141q23 0 11 -22l-252 -433h132q15 0 15 -15v-39q0 -15 -15 -15h-155v-78h155q15 0 15 -15v-39q0 -15 -15 -15h-155v-87q0 -16 -15 -16h-127q-15 0 -15 16v87h-154q-16 0 -16 15v39q0 15 16 15h154v78h-154q-16 0 -16 15v39q0 15 16 15h131l-252 433
q-12 22 11 22h141q17 0 27 -16l174 -323l175 323q9 16 27 16z" />
    <glyph glyph-name="Odieresis" unicode="&#xa6;" horiz-adv-x="294" 
d="M88 816h118q15 0 15 -15v-352q0 -12 -12 -12h-124q-12 0 -12 12v352q0 15 15 15zM85 285h124q12 0 12 -13v-356q0 -16 -15 -16h-118q-15 0 -15 16v356q0 13 12 13z" />
    <glyph glyph-name="Udieresis" unicode="&#xa7;" horiz-adv-x="468" 
d="M251 777q59 0 103 -10q11 -2 11 -11v-73q0 -10 -11 -10h-131q-61 0 -61 -50v-61l163 -60q56 -21 77 -54t21 -94v-287q0 -84 -47 -111q-46 -28 -159 -28q-56 0 -103 10q-11 2 -11 11v73q0 10 11 10h131q61 0 61 50v57l-163 60q-56 21 -77 54t-21 94v291q0 84 46 111
q46 28 160 28zM254 413l-92 36v-101q0 -24 11.5 -38t40.5 -25l92 -34v100q0 45 -52 62z" />
    <glyph glyph-name="aacute" unicode="&#xa8;" horiz-adv-x="616" 
d="M198 776q37 0 57 -19t20 -54t-20 -54.5t-57 -19.5q-78 0 -78 74q0 73 78 73zM419 776q37 0 57 -19t20 -54t-20 -54.5t-57 -19.5q-78 0 -78 74q0 73 78 73z" />
    <glyph glyph-name="agrave" unicode="&#xa9;" horiz-adv-x="846" 
d="M711 85q-91 -93 -288 -93t-288 93q-92 94 -92 290t92 290q91 93 288 93t288 -93q92 -94 92 -290t-92 -290zM102 375q0 -166 78 -244.5t243 -78.5t243 78.5t78 244.5t-78 244.5t-243 78.5t-243 -78t-78 -245zM424 571q70 0 103 -10q14 -3 14 -15v-46q0 -11 -10 -11h-107
q-44 0 -58 -23q-13 -22 -13 -94t13 -95q14 -23 58 -23h107q10 0 10 -10v-46q0 -13 -14 -16q-36 -9 -103 -9q-96 0 -131 41q-34 40 -34 158t34 158q35 41 131 41z" />
    <glyph glyph-name="acircumflex" unicode="&#xaa;" horiz-adv-x="383" 
d="M183 780q78 0 110 -23.5t32 -74.5v-208q0 -14 -12 -19q-48 -15 -140 -15q-71 0 -99 19t-28 75v12q0 52 28 73.5t89 21.5h83v27q0 22 -14 32t-49 10h-103q-10 0 -10 10v39q0 11 10 12q49 9 103 9zM246 512v65h-68q-52 0 -52 -32v-4q0 -34 51 -34q41 0 69 5zM80 382h222
q15 0 15 -15v-29q0 -15 -15 -15h-222q-15 0 -15 15v29q0 15 15 15z" />
    <glyph glyph-name="adieresis" unicode="&#xab;" horiz-adv-x="590" 
d="M168 480h118q15 0 15 -15v-7q0 -11 -7 -18l-131 -163l131 -163q7 -7 7 -18v-7q0 -15 -15 -15h-118q-10 0 -18 9l-108 142q-9 10 -9 26v53q0 14 9 25l108 142q8 9 18 9zM415 480h117q15 0 15 -15v-7q0 -11 -7 -18l-130 -163l130 -163q7 -7 7 -18v-7q0 -15 -15 -15h-117
q-11 0 -18 9l-109 142q-9 12 -9 26v53q0 13 9 25l109 142q7 9 18 9z" />
    <glyph glyph-name="atilde" unicode="&#xac;" horiz-adv-x="620" 
d="M56 484h489q15 0 15 -15l-1 -275q0 -15 -15 -15h-113q-15 0 -15 15v145h-360q-15 0 -15 15v115q0 15 15 15z" />
    <glyph glyph-name="aring" unicode="&#xae;" horiz-adv-x="846" 
d="M711 85q-91 -93 -288 -93t-288 93q-92 94 -92 290t92 290q91 93 288 93t288 -93q92 -94 92 -290t-92 -290zM102 375q0 -166 78 -244.5t243 -78.5t243 78.5t78 244.5t-78 244.5t-243 78.5t-243 -78t-78 -245zM439 574q81 0 113 -29t32 -103q0 -56 -17 -83t-57 -35l82 -132
q10 -13 -8 -13h-70q-19 0 -27 14l-80 126l-31 -1v-129q0 -7 -1.5 -8.5t-8.5 -1.5h-74q-6 0 -7.5 1.5t-1.5 8.5v369q0 9 9 9q64 7 147 7zM429 492h-53v-101h53q38 0 49.5 9t11.5 39q0 31 -12.5 42t-48.5 11z" />
    <glyph glyph-name="ccedilla" unicode="&#xaf;" horiz-adv-x="560" 
d="M135 739h290q15 0 15 -15v-61q0 -15 -15 -15h-290q-15 0 -15 15v61q0 15 15 15z" />
    <glyph glyph-name="eacute" unicode="&#xb0;" horiz-adv-x="351" 
d="M176 780q141 0 141 -136t-141 -136q-142 0 -142 136t142 136zM176 707q-63 0 -63 -63t63 -63q62 0 62 63t-62 63z" />
    <glyph glyph-name="egrave" unicode="&#xb1;" horiz-adv-x="604" 
d="M250 634h105q15 0 15 -15v-128h165q15 0 15 -15v-83q0 -15 -15 -15h-165v-127q0 -15 -15 -15h-105q-15 0 -15 15v127h-166q-15 0 -15 15v83q0 15 15 15h166v128q0 15 15 15zM67 179h471q15 0 15 -15v-79q0 -15 -15 -15h-471q-15 0 -15 15v79q0 15 15 15z" />
    <glyph glyph-name="ecircumflex" unicode="&#xb2;" horiz-adv-x="354" 
d="M170 931q65 0 101 -16q45 -19 45 -78v-49q0 -35 -10.5 -56t-41.5 -40l-104 -58q-36 -18 -36 -37v-6h190q6 0 6 -4v-66q0 -4 -5 -4h-275q-14 0 -14 15v50q0 36 16 58t58 47l105 64q26 15 26 48v19q0 23 -13.5 31t-46.5 8h-115q-7 0 -7 7v47q0 9 9 10q47 10 112 10z" />
    <glyph glyph-name="edieresis" unicode="&#xb3;" horiz-adv-x="345" 
d="M162 931q78 0 111.5 -24t33.5 -85v-15q0 -71 -57 -84q57 -11 57 -83v-18q0 -61 -33.5 -84.5t-111.5 -23.5q-64 0 -119 9q-9 1 -9 12v45q0 8 9 8h85q57 0 75.5 8.5t18.5 35.5v12q0 45 -71 45h-84q-9 0 -9 8v51q0 8 9 8h84q41 0 56 10t15 37v10q0 27 -18.5 35.5t-75.5 8.5
h-85q-9 0 -9 7v46q0 10 9 11q50 10 119 10z" />
    <glyph glyph-name="iacute" unicode="&#xb4;" horiz-adv-x="482" 
d="M207 792h145q10 0 10 -10v-7q0 -7 -5 -12l-175 -146q-5 -5 -14 0l-43 25q-8 6 -3 14l73 130q3 6 12 6z" />
    <glyph glyph-name="igrave" unicode="&#xb5;" horiz-adv-x="614" 
d="M421 560h120q14 0 14 -15v-516q0 -9 -2.5 -12t-11.5 -5q-91 -17 -240 -17q-63 0 -93 8v-133q0 -16 -15 -16h-118q-15 0 -15 16v675q0 15 16 15h118q14 0 14 -15v-271q0 -74 9 -105q9 -29 28 -37.5t71 -8.5h90v422q0 15 15 15z" />
    <glyph glyph-name="icircumflex" unicode="&#xb6;" horiz-adv-x="687" 
d="M311 780q149 0 219 -51q36 -25 55 -73q36 -85 36 -268v-388h-106v429q0 135 -37 187q-36 53 -120 59v-393h-40q-151 -1 -220 39q-67 42 -69 167v77q2 127 66 170q65 45 216 45z" />
    <glyph glyph-name="idieresis" unicode="&#xb7;" horiz-adv-x="260" 
d="M131 361q41 0 63.5 -21t22.5 -59t-22.5 -59.5t-63.5 -21.5q-42 0 -65 21.5t-23 59.5t23 59t65 21z" />
    <glyph glyph-name="ntilde" unicode="&#xb8;" horiz-adv-x="437" 
d="M231 22h47q14 0 18 -13q21 -65 21 -108q0 -41 -25.5 -59.5t-79.5 -18.5q-59 0 -80 8q-12 5 -12 18v61q0 14 14 14h35q32 0 41.5 4t13.5 22q0 22 -6 55q-5 17 13 17z" />
    <glyph glyph-name="oacute" unicode="&#xb9;" horiz-adv-x="286" 
d="M195 855v-264h65q10 0 10 -10v-55q0 -9 -10 -9h-217q-10 0 -10 10v54q0 10 10 10h69v237q0 18 -9 25t-32 7h-32q-11 0 -11 9v42q0 9 10 13q20 7 55 7q39 0 67 -12q35 -14 35 -64z" />
    <glyph glyph-name="ograve" unicode="&#xba;" horiz-adv-x="396" 
d="M198 780q92 0 120 -34q29 -34 29 -136q0 -103 -29 -137q-28 -33 -120 -33t-121 33q-28 34 -28 137q0 102 29 136q28 34 120 34zM198 710q-45 0 -57 -19q-12 -18 -12 -81q0 -62 12 -82q12 -18 57 -18q46 0 57 18q12 20 12 82q0 63 -12 81q-10 19 -57 19zM87 382h222
q15 0 15 -15v-29q0 -15 -15 -15h-222q-15 0 -15 15v29q0 15 15 15z" />
    <glyph glyph-name="ocircumflex" unicode="&#xbb;" horiz-adv-x="590" 
d="M58 480h118q10 0 18 -9l108 -142q9 -12 9 -25v-53q0 -14 -9 -26l-108 -142q-8 -9 -18 -9h-118q-15 0 -15 15v7q0 11 7 18l131 163l-131 163q-7 7 -7 18v7q0 15 15 15zM305 480h117q10 0 18 -9l109 -142q9 -12 9 -25v-53q0 -14 -9 -26l-109 -142q-8 -9 -18 -9h-117
q-15 0 -15 15v7q0 11 7 18l130 163l-130 163q-7 7 -7 18v7q0 15 15 15z" />
    <glyph glyph-name="odieresis" unicode="&#xbc;" horiz-adv-x="888" 
d="M586 813h39q16 0 8 -17l-361 -822q-8 -17 -23 -17h-40q-17 0 -8 17l363 822q8 17 22 17zM277 427v-55q0 -9 -11 -9h-216q-11 0 -11 10v54q0 10 11 10h69v237q0 18 -9.5 25t-32.5 7h-32q-11 0 -11 9v42q0 7 10 13q21 7 55 7q31 0 48 -4q23 -4 39 -22.5t16 -49.5v-264h64
q11 0 11 -10zM795 295v-124h60q11 0 11 -10v-55q0 -10 -11 -10h-60v-86q0 -10 -10 -10h-65q-10 0 -10 10v86h-179q-9 0 -9 11v34q0 10 4 19l67 245q1 6 12 6h65q12 0 7 -11l-63 -229h96v96q0 9 7 12l66 23q12 4 12 -7z" />
    <glyph glyph-name="otilde" unicode="&#xbd;" horiz-adv-x="861" 
d="M583 813h39q16 0 8 -17l-361 -822q-9 -17 -23 -17h-40q-16 0 -8 17l363 822q8 17 22 17zM269 427v-55q0 -9 -10 -9h-217q-10 0 -10 10v54q0 10 10 10h69v237q0 18 -9 25t-32 7h-32q-11 0 -11 9v42q0 9 10 13q20 7 55 7q39 0 67 -12q35 -14 35 -64v-264h65q10 0 10 -10z
M637 81v-6h190q6 0 6 -5v-65q0 -5 -6 -5h-274q-14 0 -14 15v50q0 36 15.5 57.5t57.5 48.5l105 63q26 14 26 48v19q0 23 -13 31t-46 8h-115q-7 0 -7 8v46q0 8 8 11q54 9 113 9q74 0 110 -20t36 -73v-50q0 -35 -10.5 -56t-41.5 -40l-104 -57q-36 -20 -36 -37z" />
    <glyph glyph-name="uacute" unicode="&#xbe;" horiz-adv-x="923" 
d="M621 813h39q14 0 8 -17l-361 -822q-9 -17 -23 -17h-40q-16 0 -8 17l363 822q8 17 22 17zM165 777q78 0 111.5 -24t33.5 -85v-15q0 -71 -57 -84q57 -11 57 -83v-18q0 -61 -33.5 -84.5t-111.5 -23.5q-64 0 -118 9q-10 1 -10 12v45q0 8 10 8h84q57 0 75.5 8.5t18.5 35.5v12
q1 23 -16.5 34t-53.5 11h-85q-8 0 -8 8v51q0 8 8 8h84q41 0 56 10t15 37v10q0 27 -18.5 35.5t-75.5 8.5h-84q-10 0 -10 7v46q0 10 10 11q49 10 118 10zM640 411h65q10 0 7 -11l-63 -229h96v96q0 9 7 12l66 23q12 4 12 -7v-124h60q11 0 11 -10v-55q0 -10 -11 -10h-60v-86
q0 -10 -10 -10h-66q-9 0 -9 10v86h-179q-10 0 -10 11v34q0 4 4 19l67 245q5 6 13 6z" />
    <glyph glyph-name="ugrave" unicode="&#xbf;" horiz-adv-x="537" 
d="M356 565q41 0 64 -21t23 -60q0 -38 -23 -59t-64 -21q-42 0 -65 21t-23 59q0 39 23 60t65 21zM305 347h97q11 0 13 -11l6 -53q6 -41 -8 -64q-14 -24 -65 -52l-111 -56q-30 -16 -42 -32.5t-12 -48.5v-22q0 -44 33.5 -61t108.5 -17h174q15 0 15 -15v-81q0 -20 -22 -26
q-74 -15 -168 -15q-128 0 -207 36q-91 39 -91 156v48q0 79 23 117q24 38 87 66l102 49q28 15 39 26t14 28l2 17q2 11 12 11z" />
    <glyph glyph-name="ucircumflex" unicode="&#xc0;" horiz-adv-x="711" 
d="M178 992h146q9 0 12 -6l73 -130q5 -8 -3 -14l-43 -25q-9 -5 -14 0l-176 146q-5 8 -5 12v7q0 10 10 10zM354 780q91 0 120 -20q27 -19 50 -100l176 -644q3 -16 -13 -16h-128q-6 0 -8.5 3t-4.5 13l-57 208h-268l-58 -208q-2 -10 -4.5 -13t-9.5 -3h-127q-16 0 -13 16
l179 644q23 81 50 100q29 20 116 20zM354 648q-12 0 -16 -5t-9 -24l-73 -265h198l-72 265q-7 24 -14 27q-4 2 -14 2z" />
    <glyph glyph-name="udieresis" unicode="&#xc1;" horiz-adv-x="711" 
d="M377 992h145q10 0 10 -10v-7q0 -7 -5 -12l-175 -146q-6 -5 -14 0l-43 25q-8 6 -3 14l73 130q3 6 12 6zM354 780q91 0 120 -20q27 -19 50 -100l176 -644q3 -16 -13 -16h-128q-6 0 -8.5 3t-4.5 13l-57 208h-268l-58 -208q-2 -10 -4.5 -13t-9.5 -3h-127q-16 0 -13 16
l179 644q23 81 50 100q29 20 116 20zM354 648q-12 0 -16 -5t-9 -24l-73 -265h198l-72 265q-7 24 -14 27q-4 2 -14 2z" />
    <glyph glyph-name="dagger" unicode="&#xc2;" horiz-adv-x="711" 
d="M312 992h84q15 0 20 -8l96 -133q8 -11 -3 -17l-31 -16q-10 -6 -18 0l-106 75l-106 -75q-8 -6 -18 0l-31 16q-11 6 -3 17l96 133q5 8 20 8zM354 780q91 0 120 -20q27 -19 50 -100l176 -644q3 -16 -13 -16h-128q-6 0 -8.5 3t-4.5 13l-57 208h-268l-58 -208q-2 -10 -4.5 -13
t-9.5 -3h-127q-16 0 -13 16l179 644q23 81 50 100q29 20 116 20zM354 648q-12 0 -16 -5t-9 -24l-73 -265h198l-72 265q-7 24 -14 27q-4 2 -14 2z" />
    <glyph glyph-name="degree" unicode="&#xc3;" horiz-adv-x="711" 
d="M277 976q27 0 78 -20q50 -19 65 -19q17 0 26.5 7t17.5 26q6 14 19 10l43 -12q14 -5 10 -20q-17 -68 -39 -92t-66 -24q-29 0 -79 19q-51 20 -64 20q-17 0 -26.5 -7t-17.5 -26q-6 -14 -19 -10l-43 12q-14 5 -10 21q17 67 39 91t66 24zM354 780q91 0 120 -20q27 -19 50 -100
l176 -644q3 -16 -13 -16h-128q-6 0 -8.5 3t-4.5 13l-57 208h-268l-58 -208q-2 -10 -4.5 -13t-9.5 -3h-127q-16 0 -13 16l179 644q23 81 50 100q29 20 116 20zM354 648q-12 0 -16 -5t-9 -24l-73 -265h198l-72 265q-7 24 -14 27q-4 2 -14 2z" />
    <glyph glyph-name="cent" unicode="&#xc4;" horiz-adv-x="711" 
d="M244 976q37 0 57 -19t20 -54t-20 -54.5t-57 -19.5q-78 0 -78 74q0 73 78 73zM465 976q37 0 57 -19t20 -54t-20 -54.5t-57 -19.5q-78 0 -78 74q0 73 78 73zM354 780q91 0 120 -20q27 -19 50 -100l176 -644q3 -16 -13 -16h-128q-6 0 -8.5 3t-4.5 13l-57 208h-268l-58 -208
q-2 -10 -4.5 -13t-9.5 -3h-127q-16 0 -13 16l179 644q23 81 50 100q29 20 116 20zM354 648q-12 0 -16 -5t-9 -24l-73 -265h198l-72 265q-7 24 -14 27q-4 2 -14 2z" />
    <glyph glyph-name="sterling" unicode="&#xc5;" horiz-adv-x="711" 
d="M237 925q0 112 117 112t117 -112t-117 -112t-117 112zM416 925q0 62 -62 62t-62 -62t62 -62t62 62zM354 780q91 0 120 -20q27 -19 50 -100l176 -644q3 -16 -13 -16h-128q-6 0 -8.5 3t-4.5 13l-57 208h-268l-58 -208q-2 -10 -4.5 -13t-9.5 -3h-127q-16 0 -13 16l179 644
q23 81 50 100q29 20 116 20zM354 648q-12 0 -16 -5t-9 -24l-73 -265h198l-72 265q-7 24 -14 27q-4 2 -14 2z" />
    <glyph glyph-name="section" unicode="&#xc6;" horiz-adv-x="1023" 
d="M354 780l273 -6h335q15 0 15 -15v-107q0 -15 -15 -15h-333v-189h302q16 0 16 -15v-102q0 -15 -16 -15h-302v-179h333q15 0 15 -15v-107q0 -15 -15 -15h-476q-15 0 -15 16v208h-251l-57 -208q-4 -16 -14 -16h-128q-15 0 -12 16l178 644q23 81 50 100q29 20 117 20z
M471 354v294h-101q-22 0 -30.5 -8t-15.5 -35l-68 -251h215z" />
    <glyph glyph-name="bullet.001" unicode="&#xc7;" horiz-adv-x="623" 
d="M574 643h-205q-101 0 -132 -52q-30 -53 -30 -203q0 -152 30 -204q31 -52 132 -52h205q15 0 15 -15v-81q0 -20 -23 -26q-66 -13 -173 -15q17 -60 17 -94q0 -41 -25.5 -59.5t-80.5 -18.5q-58 0 -79 8q-12 5 -12 18v61q0 14 14 14h35q32 0 41.5 4t13.5 22q0 12 -5 47
q-154 10 -209 94q-55 85 -55 297q0 120 14.5 191.5t50.5 117.5q37 46 96 64.5t160 18.5q115 0 197 -15q23 -6 23 -27v-80q0 -15 -15 -15z" />
    <glyph glyph-name="paragraph" unicode="&#xc8;" horiz-adv-x="648" 
d="M191 992h145q9 0 12 -6l73 -130q5 -8 -3 -14l-43 -25q-9 -5 -14 0l-175 146q-5 5 -5 12v7q0 10 10 10zM86 774h501q15 0 15 -15v-107q0 -15 -15 -15h-359v-189h328q16 0 16 -15v-102q0 -15 -16 -15h-328v-179h359q15 0 15 -15v-107q0 -15 -15 -15h-501q-15 0 -15 16v743
q0 15 15 15z" />
    <glyph glyph-name="germandbls" unicode="&#xc9;" horiz-adv-x="648" 
d="M335 992h146q10 0 10 -10v-7q0 -4 -5 -12l-176 -146q-5 -5 -14 0l-43 25q-8 6 -3 14l73 130q3 6 12 6zM86 774h501q15 0 15 -15v-107q0 -15 -15 -15h-359v-189h328q16 0 16 -15v-102q0 -15 -16 -15h-328v-179h359q15 0 15 -15v-107q0 -15 -15 -15h-501q-15 0 -15 16v743
q0 15 15 15z" />
    <glyph glyph-name="registered" unicode="&#xca;" horiz-adv-x="648" 
d="M283 992h85q15 0 20 -8l96 -133q8 -11 -3 -17l-32 -16q-9 -6 -17 0l-106 75l-106 -75q-8 -8 -18 0l-31 16q-11 7 -3 17l95 133q6 8 20 8zM86 774h501q15 0 15 -15v-107q0 -15 -15 -15h-359v-189h328q16 0 16 -15v-102q0 -15 -16 -15h-328v-179h359q15 0 15 -15v-107
q0 -15 -15 -15h-501q-15 0 -15 16v743q0 15 15 15z" />
    <glyph glyph-name="copyright" unicode="&#xcb;" horiz-adv-x="648" 
d="M216 976q76 0 76 -73q0 -74 -76 -74q-78 0 -78 74q0 73 78 73zM437 976q37 0 57 -19t20 -54t-20 -54.5t-57 -19.5q-78 0 -78 74q0 73 78 73zM86 774h501q15 0 15 -15v-107q0 -15 -15 -15h-359v-189h328q16 0 16 -15v-102q0 -15 -16 -15h-328v-179h359q15 0 15 -15v-107
q0 -15 -15 -15h-501q-15 0 -15 16v743q0 15 15 15z" />
    <glyph glyph-name="trademark" unicode="&#xcc;" horiz-adv-x="299" 
d="M-14 992h145q9 0 12 -6l73 -130q5 -8 -3 -14l-43 -25q-8 -5 -14 0l-175 146q-5 8 -5 12v7q0 10 10 10zM86 774h127q15 0 15 -16v-742q0 -16 -15 -16h-127q-15 0 -15 16v742q0 16 15 16z" />
    <glyph glyph-name="acute" unicode="&#xcd;" horiz-adv-x="299" 
d="M166 992h146q10 0 10 -10v-7q0 -4 -5 -12l-176 -146q-5 -5 -14 0l-43 25q-8 6 -3 14l73 130q3 6 12 6zM86 774h127q15 0 15 -16v-742q0 -16 -15 -16h-127q-15 0 -15 16v742q0 16 15 16z" />
    <glyph glyph-name="dieresis" unicode="&#xce;" horiz-adv-x="299" 
d="M106 992h85q14 0 20 -8l96 -133q8 -11 -4 -17l-31 -16q-9 -6 -17 0l-106 75l-107 -75q-8 -6 -17 0l-31 16q-12 6 -4 17l96 133q6 8 20 8zM86 774h127q15 0 15 -16v-742q0 -16 -15 -16h-127q-15 0 -15 16v742q0 16 15 16z" />
    <glyph glyph-name="notequal" unicode="&#xcf;" horiz-adv-x="299" 
d="M38 976q77 0 77 -73q0 -74 -77 -74q-37 0 -57.5 19.5t-20.5 54.5t20.5 54t57.5 19zM259 976q77 0 77 -73q0 -74 -77 -74q-37 0 -57 19.5t-20 54.5t20 54t57 19zM86 774h127q15 0 15 -16v-742q0 -16 -15 -16h-127q-15 0 -15 16v742q0 16 15 16z" />
    <glyph glyph-name="AE" unicode="&#xd0;" horiz-adv-x="756" 
d="M388 780q175 0 249 -92q75 -92 75 -301q0 -210 -75 -301q-73 -91 -249 -91q-169 0 -290 10q-15 1 -15 13v317h-67q-15 0 -15 15v61q0 15 15 15h67v329q0 8 3 10.5t12 3.5q127 11 290 11zM240 335v-203h148q89 0 127 59t38 196t-39.5 196.5t-132.5 59.5h-141v-217h129
q15 0 15 -15v-61q0 -15 -15 -15h-129z" />
    <glyph glyph-name="Oslash" unicode="&#xd1;" horiz-adv-x="785" 
d="M315 976q27 0 78 -20q50 -19 65 -19q17 0 26.5 7t17.5 26q6 14 19 10l43 -12q14 -5 10 -20q-17 -68 -39 -92t-66 -24q-29 0 -79 19q-51 20 -64 20q-17 0 -26.5 -7t-17.5 -26q-8 -14 -18 -10l-44 12q-13 4 -10 21q17 67 39 91t66 24zM572 774h127q15 0 15 -16v-742
q0 -16 -15 -16h-93q-32 0 -50 25l-328 481v-490q0 -16 -15 -16h-127q-15 0 -15 16v742q0 16 15 16h99q30 -3 38 -7.5t24 -25.5l310 -453v470q0 16 15 16z" />
    <glyph glyph-name="infinity" unicode="&#xd2;" horiz-adv-x="742" 
d="M176 992h145q9 0 12 -6l73 -130q5 -8 -3 -14l-43 -25q-8 -5 -14 0l-175 146q-5 5 -5 12v7q0 10 10 10zM695 386q0 -228 -67 -310q-68 -81 -257 -81t-257 81q-67 82 -67 310q0 121 15 192.5t52 117.5q37 47 96.5 65.5t160.5 18.5t160.5 -18.5t96.5 -65.5q37 -46 52 -117.5
t15 -192.5zM206 386q0 -149 32 -202q31 -52 133 -52t133 52q32 53 32 202q0 151 -32 204t-133 53t-133 -53t-32 -204z" />
    <glyph glyph-name="plusminus" unicode="&#xd3;" horiz-adv-x="742" 
d="M394 992h145q10 0 10 -10v-7q0 -7 -5 -12l-175 -146q-5 -5 -14 0l-43 25q-8 6 -3 14l73 130q3 6 12 6zM695 386q0 -228 -67 -310q-68 -81 -257 -81t-257 81q-67 82 -67 310q0 121 15 192.5t52 117.5q37 47 96.5 65.5t160.5 18.5t160.5 -18.5t96.5 -65.5q37 -46 52 -117.5
t15 -192.5zM206 386q0 -149 32 -202q31 -52 133 -52t133 52q32 53 32 202q0 151 -32 204t-133 53t-133 -53t-32 -204z" />
    <glyph glyph-name="lessequal.001" unicode="&#xd4;" horiz-adv-x="742" 
d="M328 992h85q14 0 20 -8l96 -133q8 -11 -4 -17l-31 -16q-9 -6 -17 0l-106 75l-107 -75q-8 -6 -17 0l-31 16q-11 8 -4 17l96 133q6 8 20 8zM695 386q0 -228 -67 -310q-68 -81 -257 -81t-257 81q-67 82 -67 310q0 121 15 192.5t52 117.5q37 47 96.5 65.5t160.5 18.5
t160.5 -18.5t96.5 -65.5q37 -46 52 -117.5t15 -192.5zM206 386q0 -149 32 -202q31 -52 133 -52t133 52q32 53 32 202q0 151 -32 204t-133 53t-133 -53t-32 -204z" />
    <glyph glyph-name="greaterequal.001" unicode="&#xd5;" horiz-adv-x="742" 
d="M293 976q28 0 79 -20q48 -19 64 -19q17 0 26.5 7t18.5 26q6 14 18 10l43 -12q14 -5 11 -20q-18 -68 -39.5 -92t-65.5 -24q-29 0 -79 19q-51 20 -64 20q-17 0 -26.5 -7t-18.5 -26q-5 -14 -18 -10l-43 12q-14 5 -11 21q18 67 40 91t65 24zM695 386q0 -228 -67 -310
q-68 -81 -257 -81t-257 81q-67 82 -67 310q0 121 15 192.5t52 117.5q37 47 96.5 65.5t160.5 18.5t160.5 -18.5t96.5 -65.5q37 -46 52 -117.5t15 -192.5zM206 386q0 -149 32 -202q31 -52 133 -52t133 52q32 53 32 202q0 151 -32 204t-133 53t-133 -53t-32 -204z" />
    <glyph glyph-name="yen" unicode="&#xd6;" horiz-adv-x="742" 
d="M261 976q76 0 76 -73q0 -74 -76 -74q-78 0 -78 74q0 73 78 73zM482 976q37 0 57 -19t20 -54t-20 -54.5t-57 -19.5q-78 0 -78 74q0 73 78 73zM695 386q0 -228 -67 -310q-68 -81 -257 -81t-257 81q-67 82 -67 310q0 121 15 192.5t52 117.5q37 47 96.5 65.5t160.5 18.5
t160.5 -18.5t96.5 -65.5q37 -46 52 -117.5t15 -192.5zM206 386q0 -149 32 -202q31 -52 133 -52t133 52q32 53 32 202q0 151 -32 204t-133 53t-133 -53t-32 -204z" />
    <glyph glyph-name="mu" unicode="&#xd7;" horiz-adv-x="553" 
d="M436 567l74 -73q10 -10 -1 -22l-135 -134l134 -133q11 -11 0 -22l-81 -81q-11 -9 -22 0l-134 132l-133 -134q-11 -11 -22 0l-74 74q-9 11 0 22l136 133l-133 134q-9 11 0 22l81 81q10 10 21 0l133 -133l134 134q11 11 22 0z" />
    <glyph glyph-name="partialdiff.001" unicode="&#xd8;" horiz-adv-x="742" 
d="M371 780q136 0 205 -39l29 40q11 14 21 4l34 -23q12 -8 3 -21l-33 -47q65 -82 65 -308q0 -228 -67 -310q-68 -81 -257 -81q-135 0 -205 38l-30 -43q-9 -14 -20 -3l-34 23q-11 7 -4 20l34 49q-65 82 -65 307q0 121 15 192.5t52 117.5q37 47 96.5 65.5t160.5 18.5zM371 643
q-101 0 -133 -53t-32 -204q0 -106 14 -154l265 380q-34 31 -114 31zM522 541l-265 -378q34 -31 114 -31q102 0 133 52q32 53 32 202q0 107 -14 155z" />
    <glyph glyph-name="summation" unicode="&#xd9;" horiz-adv-x="763" 
d="M210 992h145q9 0 12 -6l73 -130q5 -8 -3 -14l-43 -25q-9 -5 -14 0l-175 146q-5 5 -5 12v7q0 10 10 10zM556 774h127q15 0 15 -15v-373q0 -184 -38 -273q-33 -67 -95.5 -91.5t-182.5 -26.5q-101 0 -159 17t-94 62t-50 116.5t-14 195.5v373q0 15 15 15h127q15 0 15 -15
v-373q0 -151 32 -203q31 -51 128 -51q96 0 127 51q32 52 32 203v373q0 15 15 15z" />
    <glyph glyph-name="product" unicode="&#xda;" horiz-adv-x="763" 
d="M388 992h145q10 0 10 -10v-7q0 -7 -5 -12l-175 -146q-5 -5 -14 0l-43 25q-8 6 -3 14l73 130q3 6 12 6zM556 774h127q15 0 15 -15v-373q0 -184 -38 -273q-33 -67 -95.5 -91.5t-182.5 -26.5q-101 0 -159 17t-94 62t-50 116.5t-14 195.5v373q0 15 15 15h127q15 0 15 -15
v-373q0 -151 32 -203q31 -51 128 -51q96 0 127 51q32 52 32 203v373q0 15 15 15z" />
    <glyph glyph-name="pi.001" unicode="&#xdb;" horiz-adv-x="763" 
d="M339 992h85q14 0 20 -8l96 -133q7 -9 -4 -17l-31 -16q-9 -6 -17 0l-106 75l-107 -75q-8 -6 -17 0l-31 16q-12 6 -4 17l96 133q5 8 20 8zM556 774h127q15 0 15 -15v-373q0 -184 -38 -273q-33 -67 -95.5 -91.5t-182.5 -26.5q-101 0 -159 17t-94 62t-50 116.5t-14 195.5v373
q0 15 15 15h127q15 0 15 -15v-373q0 -151 32 -203q31 -51 128 -51q96 0 127 51q32 52 32 203v373q0 15 15 15z" />
    <glyph glyph-name="integral" unicode="&#xdc;" horiz-adv-x="763" 
d="M271 976q77 0 77 -73q0 -74 -77 -74q-78 0 -78 74q0 73 78 73zM569 903q0 -74 -77 -74t-77 74q0 73 77 73t77 -73zM556 774h127q15 0 15 -15v-373q0 -184 -38 -273q-33 -67 -95.5 -91.5t-182.5 -26.5q-101 0 -159 17t-94 62t-50 116.5t-14 195.5v373q0 15 15 15h127
q15 0 15 -15v-373q0 -151 32 -203q31 -51 128 -51q96 0 127 51q32 52 32 203v373q0 15 15 15z" />
    <glyph glyph-name="ordfeminine" unicode="&#xdd;" horiz-adv-x="713" 
d="M379 992h146q10 0 10 -10v-7q0 -4 -5 -12l-176 -146q-5 -5 -14 0l-43 25q-8 6 -3 14l73 130q3 6 12 6zM558 774h141q23 0 11 -22l-275 -504v-232q0 -16 -15 -16h-127q-15 0 -15 16v234l-275 502q-12 22 11 22h141q17 0 27 -16l174 -352l175 352q9 16 27 16z" />
    <glyph glyph-name="ordmasculine" unicode="&#xde;" horiz-adv-x="670" 
d="M86 776h127q15 0 15 -16v-117q63 3 120 3q167 0 229 -55q64 -54 64 -202t-64 -203q-63 -54 -229 -54q-57 0 -120 3v-117q0 -16 -15 -16h-127q-15 0 -15 16v742q0 16 15 16zM332 512h-104v-246h104q89 0 120 23q30 24 30 99t-30 99q-29 25 -120 25z" />
    <glyph glyph-name="Omega.001" unicode="&#xdf;" horiz-adv-x="632" 
d="M312 780q140 0 201.5 -49t61.5 -166q0 -82 -25.5 -123t-85.5 -52v-3q71 -9 100 -51.5t29 -128.5q0 -119 -63 -166q-61 -46 -206 -46q-31 0 -61 3q-18 1 -13 17l22 104q3 13 12 13h34q65 1 91.5 22t26.5 74q0 58 -28.5 80.5t-93.5 22.5h-39q-15 0 -15 15v83q0 15 17 15h36
q56 1 81 22t25 75q0 58 -24.5 80t-82.5 22q-54 0 -75.5 -23t-21.5 -83v-522q0 -15 -15 -15h-125q-15 0 -15 15v533q0 124 54 178q56 54 198 54z" />
    <glyph glyph-name="ae" unicode="&#xe0;" horiz-adv-x="565" 
d="M118 792h145q9 0 12 -6l73 -130q5 -8 -3 -14l-43 -25q-9 -5 -14 0l-175 146q-5 5 -5 12v7q0 10 10 10zM267 565q140 0 191 -42t51 -130v-346q0 -24 -22 -31q-91 -21 -227 -21q-67 0 -102.5 5t-67.5 22q-60 33 -61 146q1 96 49 130q49 34 156 34h127v36q0 69 -94 69h-181
q-8 0 -11 3t-3 12v82q0 8 2.5 11t11.5 5q77 15 181 15zM361 125v111h-115q-39 0 -54.5 -13.5t-15.5 -46.5q0 -35 18.5 -48t66.5 -13q66 0 100 10z" />
    <glyph glyph-name="oslash" unicode="&#xe1;" horiz-adv-x="565" 
d="M274 792h145q10 0 10 -10v-7q0 -7 -5 -12l-175 -146q-6 -5 -14 0l-43 25q-8 6 -3 14l73 130q3 6 12 6zM267 565q140 0 191 -42t51 -130v-346q0 -24 -22 -31q-91 -21 -227 -21q-67 0 -102.5 5t-67.5 22q-60 33 -61 146q1 96 49 130q49 34 156 34h127v36q0 69 -94 69h-181
q-8 0 -11 3t-3 12v82q0 8 2.5 11t11.5 5q77 15 181 15zM361 125v111h-115q-39 0 -54.5 -13.5t-15.5 -46.5q0 -35 18.5 -48t66.5 -13q66 0 100 10z" />
    <glyph glyph-name="questiondown" unicode="&#xe2;" horiz-adv-x="565" 
d="M237 792h85q14 0 20 -8l96 -133q7 -9 -4 -17l-31 -16q-9 -6 -17 0l-106 75l-107 -75q-8 -6 -17 0l-31 16q-12 6 -4 17l96 133q6 8 20 8zM267 565q140 0 191 -42t51 -130v-346q0 -24 -22 -31q-91 -21 -227 -21q-67 0 -102.5 5t-67.5 22q-60 33 -61 146q1 96 49 130
q49 34 156 34h127v36q0 69 -94 69h-181q-8 0 -11 3t-3 12v82q0 8 2.5 11t11.5 5q77 15 181 15zM361 125v111h-115q-39 0 -54.5 -13.5t-15.5 -46.5q0 -35 18.5 -48t66.5 -13q66 0 100 10z" />
    <glyph glyph-name="exclamdown" unicode="&#xe3;" horiz-adv-x="565" 
d="M202 776q27 0 78 -20q50 -19 65 -19q17 0 26.5 7t18.5 26q5 14 18 10l43 -12q14 -5 10 -20q-17 -68 -39 -92t-66 -24q-30 0 -78 19q-51 20 -64 20q-17 0 -26.5 -7t-18.5 -26q-6 -14 -18 -10l-43 12q-14 5 -11 21q18 67 39 91q22 24 66 24zM267 565q140 0 191 -42t51 -130
v-346q0 -24 -22 -31q-91 -21 -227 -21q-67 0 -102.5 5t-67.5 22q-60 33 -61 146q1 96 49 130q49 34 156 34h127v36q0 69 -94 69h-181q-8 0 -11 3t-3 12v82q0 8 2.5 11t11.5 5q77 15 181 15zM361 125v111h-115q-39 0 -54.5 -13.5t-15.5 -46.5q0 -35 18.5 -48t66.5 -13
q66 0 100 10z" />
    <glyph glyph-name="logicalnot" unicode="&#xe4;" horiz-adv-x="565" 
d="M169 776q77 0 77 -73q0 -74 -77 -74q-78 0 -78 74q0 73 78 73zM467 703q0 -74 -77 -74t-77 74q0 73 77 73t77 -73zM267 565q140 0 191 -42t51 -130v-346q0 -24 -22 -31q-91 -21 -227 -21q-67 0 -102.5 5t-67.5 22q-60 33 -61 146q1 96 49 130q49 34 156 34h127v36
q0 69 -94 69h-181q-8 0 -11 3t-3 12v82q0 8 2.5 11t11.5 5q77 15 181 15zM361 125v111h-115q-39 0 -54.5 -13.5t-15.5 -46.5q0 -35 18.5 -48t66.5 -13q66 0 100 10z" />
    <glyph glyph-name="radical.001" unicode="&#xe5;" horiz-adv-x="565" 
d="M163 725q0 112 117 112t117 -112t-117 -112t-117 112zM342 725q0 62 -62 62t-62 -62t62 -62t62 62zM267 565q140 0 191 -42t51 -130v-346q0 -24 -22 -31q-91 -21 -227 -21q-67 0 -102.5 5t-67.5 22q-60 33 -61 146q1 96 49 130q49 34 156 34h127v36q0 69 -94 69h-181
q-8 0 -11 3t-3 12v82q0 8 2.5 11t11.5 5q77 15 181 15zM361 125v111h-115q-39 0 -54.5 -13.5t-15.5 -46.5q0 -35 18.5 -48t66.5 -13q66 0 100 10z" />
    <glyph glyph-name="florin.001" unicode="&#xe6;" horiz-adv-x="893" 
d="M613 565q148 0 196 -56q48 -54 50 -222v-31q0 -15 -7 -21t-25 -6h-314q2 -67 23 -86q23 -20 90 -20h177q15 0 15 -15v-83q0 -14 -14 -16q-72 -14 -191 -14q-44 0 -96 11q-49 10 -75 27q-71 -38 -182 -38q-67 0 -102.5 5t-67.5 22q-60 33 -61 146q1 96 49 130
q49 34 156 34h127v36q0 69 -94 69h-181q-8 0 -11 3t-3 12v82q0 8 2.5 11t11.5 5q77 15 181 15q118 0 175 -45q56 45 171 45zM613 437q-58 0 -79.5 -23t-21.5 -88h198q-1 65 -21.5 88t-75.5 23zM365 236h-119q-39 0 -54.5 -13.5t-15.5 -46.5q0 -36 18.5 -49t66.5 -13
q79 0 121 20q-17 42 -17 102z" />
    <glyph glyph-name="approxequal" unicode="&#xe7;" horiz-adv-x="511" 
d="M460 437h-163q-67 0 -87 -30q-19 -29 -19 -127q0 -96 19 -127q20 -30 87 -30h163q17 0 17 -15v-80q0 -16 -17 -19q-53 -12 -128 -13q17 -60 17 -95q0 -41 -25.5 -59.5t-80.5 -18.5q-58 0 -79 8q-12 5 -12 18v61q0 14 14 14h35q32 0 41.5 4t13.5 22q0 25 -4 46
q-129 8 -169 64q-40 58 -40 220q0 93 10 143.5t37 83.5q28 34 74.5 46t132.5 12q101 0 163 -13q17 -3 17 -20v-79q0 -16 -17 -16z" />
    <glyph glyph-name="increment" unicode="&#xe8;" horiz-adv-x="574" 
d="M120 792h146q9 0 12 -6l73 -130q5 -8 -3 -14l-43 -25q-9 -5 -14 0l-176 146q-5 8 -5 12v7q0 10 10 10zM294 565q148 0 196 -56q48 -54 50 -222v-31q0 -15 -7 -21t-25 -6h-314q2 -67 23 -86q23 -20 90 -20h177q15 0 15 -15v-83q0 -14 -14 -16q-70 -14 -191 -14
q-152 0 -201 57q-50 58 -50 228q0 172 50 228q49 57 201 57zM294 437q-57 0 -78.5 -23t-22.5 -88h198q-1 65 -21.5 88t-75.5 23z" />
    <glyph glyph-name="guillemotleft" unicode="&#xe9;" horiz-adv-x="574" 
d="M300 792h145q10 0 10 -10v-7q0 -4 -5 -12l-175 -146q-6 -5 -14 0l-43 25q-8 6 -3 14l73 130q3 6 12 6zM294 565q148 0 196 -56q48 -54 50 -222v-31q0 -15 -7 -21t-25 -6h-314q2 -67 23 -86q23 -20 90 -20h177q15 0 15 -15v-83q0 -14 -14 -16q-70 -14 -191 -14
q-152 0 -201 57q-50 58 -50 228q0 172 50 228q49 57 201 57zM294 437q-57 0 -78.5 -23t-22.5 -88h198q-1 65 -21.5 88t-75.5 23z" />
    <glyph glyph-name="guillemotright" unicode="&#xea;" horiz-adv-x="574" 
d="M251 792h85q14 0 20 -8l96 -133q7 -9 -4 -17l-31 -16q-11 -8 -18 0l-106 75l-106 -75q-8 -6 -17 0l-32 16q-11 6 -3 17l96 133q5 8 20 8zM294 565q148 0 196 -56q48 -54 50 -222v-31q0 -15 -7 -21t-25 -6h-314q2 -67 23 -86q23 -20 90 -20h177q15 0 15 -15v-83
q0 -14 -14 -16q-70 -14 -191 -14q-152 0 -201 57q-50 58 -50 228q0 172 50 228q49 57 201 57zM294 437q-57 0 -78.5 -23t-22.5 -88h198q-1 65 -21.5 88t-75.5 23z" />
    <glyph glyph-name="ellipsis" unicode="&#xeb;" horiz-adv-x="574" 
d="M183 776q37 0 57 -19t20 -54t-20 -54.5t-57 -19.5q-78 0 -78 74q0 73 78 73zM404 776q37 0 57 -19t20 -54t-20 -54.5t-57 -19.5q-77 0 -77 74q0 73 77 73zM294 565q148 0 196 -56q48 -54 50 -222v-31q0 -15 -7 -21t-25 -6h-314q2 -67 23 -86q23 -20 90 -20h177
q15 0 15 -15v-83q0 -14 -14 -16q-70 -14 -191 -14q-152 0 -201 57q-50 58 -50 228q0 172 50 228q49 57 201 57zM294 437q-57 0 -78.5 -23t-22.5 -88h198q-1 65 -21.5 88t-75.5 23z" />
    <glyph glyph-name="nbspace" unicode="&#xec;" horiz-adv-x="269" 
d="M-28 792h145q9 0 12 -6l73 -130q5 -8 -3 -14l-43 -25q-8 -5 -14 0l-175 146q-5 8 -5 12v7q0 10 10 10zM75 560h119q15 0 15 -15v-529q0 -16 -15 -16h-119q-15 0 -15 16v529q0 15 15 15z" />
    <glyph glyph-name="Agrave" unicode="&#xed;" horiz-adv-x="269" 
d="M156 792h145q10 0 10 -10v-7q0 -7 -5 -12l-175 -146q-5 -5 -14 0l-43 25q-8 6 -3 14l73 130q3 6 12 6zM75 560h119q15 0 15 -15v-529q0 -16 -15 -16h-119q-15 0 -15 16v529q0 15 15 15z" />
    <glyph glyph-name="Atilde" unicode="&#xee;" horiz-adv-x="268" 
d="M91 792h85q15 0 20 -8l96 -133q8 -11 -3 -17l-32 -16q-9 -6 -17 0l-106 75l-106 -75q-8 -8 -18 0l-31 16q-11 7 -3 17l96 133q5 8 19 8zM193 0h-118q-15 0 -15 16v529q0 15 15 15h118q15 0 15 -15v-529q0 -16 -15 -16z" />
    <glyph glyph-name="Otilde" unicode="&#xef;" horiz-adv-x="268" 
d="M23 776q77 0 77 -73q0 -74 -77 -74q-78 0 -78 74q0 73 78 73zM321 703q0 -74 -77 -74t-77 74q0 73 77 73t77 -73zM75 560h118q15 0 15 -15v-529q0 -16 -15 -16h-118q-15 0 -15 16v529q0 15 15 15z" />
    <glyph glyph-name="OE" unicode="&#xf0;" horiz-adv-x="589" 
d="M174 773l127 1q12 0 18 -10l24 -41l78 28q15 6 19 -9l10 -26q5 -14 -9 -19l-68 -24l148 -250q27 -43 27 -170q-3 -84 -12.5 -129.5t-39 -76t-75 -40.5t-129.5 -12q-154 0 -204 51q-50 52 -51 207q2 150 46 199q47 50 185 50q27 0 51 -3l-77 126l-84 -30q-15 -6 -19 9
l-10 26q-5 14 9 19l74 27l-48 79q-5 7 -2 12.5t12 5.5zM186 253q2 -80 20 -104q20 -26 86 -26t86 26q19 25 21 104q-2 79 -21 104q-20 26 -86 26t-86 -26q-18 -24 -20 -104z" />
    <glyph glyph-name="oe.001" unicode="&#xf1;" horiz-adv-x="611" 
d="M228 776q27 0 78 -20q50 -19 65 -19q17 0 26.5 7t17.5 26q6 14 19 10l43 -12q14 -5 10 -20q-17 -68 -39 -92t-66 -24q-29 0 -79 19q-51 20 -64 20q-17 0 -26.5 -7t-17.5 -26q-6 -14 -19 -10l-43 12q-14 5 -10 21q17 67 39 91t66 24zM313 565q79 0 121.5 -9t70.5 -35
q29 -26 39.5 -70.5t10.5 -125.5v-309q0 -16 -16 -16h-118q-15 0 -15 16v271q0 62 -3.5 87.5t-16.5 40.5q-12 15 -28.5 18.5t-58.5 3.5h-91v-421q0 -16 -15 -16h-119q-15 0 -15 16v517q0 6 2 9t4.5 4t8.5 2q79 17 239 17z" />
    <glyph glyph-name="endash.001" unicode="&#xf2;" horiz-adv-x="596" 
d="M116 792h146q9 0 12 -6l73 -130q5 -8 -3 -14l-43 -25q-9 -5 -14 0l-176 146q-5 8 -5 12v7q0 10 10 10zM298 565q83 0 129.5 -12.5t75.5 -45.5q29 -32 39.5 -83t10.5 -144q0 -171 -50 -229q-50 -56 -205 -56t-205 56q-50 58 -50 229q0 172 50 228q50 57 205 57zM298 437
q-68 0 -87 -31q-19 -29 -19 -126q0 -96 19 -127q19 -30 87 -30t87 30q20 32 20 127t-20 126q-19 31 -87 31z" />
    <glyph glyph-name="emdash.001" unicode="&#xf3;" horiz-adv-x="596" 
d="M320 792h145q10 0 10 -10v-7q0 -4 -5 -12l-175 -146q-6 -5 -14 0l-43 25q-8 6 -3 14l73 130q3 6 12 6zM298 565q83 0 129.5 -12.5t75.5 -45.5q29 -32 39.5 -83t10.5 -144q0 -171 -50 -229q-50 -56 -205 -56t-205 56q-50 58 -50 229q0 172 50 228q50 57 205 57zM298 437
q-68 0 -87 -31q-19 -29 -19 -126q0 -96 19 -127q19 -30 87 -30t87 30q20 32 20 127t-20 126q-19 31 -87 31z" />
    <glyph glyph-name="quotedblleft" unicode="&#xf4;" horiz-adv-x="596" 
d="M256 792h85q14 0 20 -8l96 -133q7 -9 -4 -17l-31 -16q-9 -6 -18 0l-105 75l-107 -75q-8 -6 -17 0l-32 16q-11 6 -3 17l96 133q5 8 20 8zM298 565q83 0 129.5 -12.5t75.5 -45.5q29 -32 39.5 -83t10.5 -144q0 -171 -50 -229q-50 -56 -205 -56t-205 56q-50 58 -50 229
q0 172 50 228q50 57 205 57zM298 437q-68 0 -87 -31q-19 -29 -19 -126q0 -96 19 -127q19 -30 87 -30t87 30q20 32 20 127t-20 126q-19 31 -87 31z" />
    <glyph glyph-name="quotedblright.001" unicode="&#xf5;" horiz-adv-x="596" 
d="M221 776q27 0 78 -20q50 -19 65 -19q17 0 26.5 7t17.5 26q6 14 19 10l43 -12q14 -5 10 -20q-17 -68 -39 -92t-66 -24q-29 0 -79 19q-51 20 -64 20q-17 0 -26 -7t-18 -26q-6 -14 -18 -10l-43 12q-14 5 -11 21q18 67 39 91q23 24 66 24zM298 565q83 0 129.5 -12.5
t75.5 -45.5q29 -32 39.5 -83t10.5 -144q0 -171 -50 -229q-50 -56 -205 -56t-205 56q-50 58 -50 229q0 172 50 228q50 57 205 57zM298 437q-68 0 -87 -31q-19 -29 -19 -126q0 -96 19 -127q19 -30 87 -30t87 30q20 32 20 127t-20 126q-19 31 -87 31z" />
    <glyph glyph-name="quoteleft" unicode="&#xf6;" horiz-adv-x="596" 
d="M188 776q77 0 77 -73q0 -74 -77 -74q-78 0 -78 74q0 73 78 73zM486 703q0 -74 -77 -74t-77 74q0 73 77 73t77 -73zM298 565q83 0 129.5 -12.5t75.5 -45.5q29 -32 39.5 -83t10.5 -144q0 -171 -50 -229q-50 -56 -205 -56t-205 56q-50 58 -50 229q0 172 50 228q50 57 205 57
zM298 437q-68 0 -87 -31q-19 -29 -19 -126q0 -96 19 -127q19 -30 87 -30t87 30q20 32 20 127t-20 126q-19 31 -87 31z" />
    <glyph glyph-name="quoteright.001" unicode="&#xf7;" horiz-adv-x="570" 
d="M286 599q41 0 63.5 -20.5t22.5 -58.5q0 -39 -22.5 -60t-63.5 -21q-42 0 -65 21t-23 60q0 38 23 58.5t65 20.5zM47 389h475q16 0 16 -15v-108q0 -15 -16 -15h-475q-15 0 -15 15v108q0 15 15 15zM286 201q41 0 63.5 -21t22.5 -59t-22.5 -59.5t-63.5 -21.5q-42 0 -65 21.5
t-23 59.5t23 59t65 21z" />
    <glyph glyph-name="divide" unicode="&#xf8;" horiz-adv-x="596" 
d="M298 565q94 0 142 -17l22 31q11 14 21 4l34 -23q12 -8 3 -21l-20 -28q29 -29 41 -82.5t12 -148.5q0 -171 -50 -229q-50 -56 -205 -56q-99 0 -147 19l-23 -33q-9 -14 -20 -3l-34 23q-11 7 -4 20l23 33q-50 56 -50 226q0 172 50 228q50 57 205 57zM298 437q-68 0 -87 -31
q-19 -29 -19 -126q0 -55 4 -79l161 228q-21 8 -59 8zM398 366l-163 -233q20 -10 63 -10q68 0 87 30q20 32 20 127q0 59 -7 86z" />
    <glyph glyph-name="lozenge" unicode="&#xf9;" horiz-adv-x="610" 
d="M135 792h146q9 0 12 -6l73 -130q5 -8 -3 -14l-43 -25q-9 -5 -14 0l-176 146q-5 8 -5 12v7q0 10 10 10zM417 560h120q14 0 14 -15v-516q0 -9 -2.5 -12t-11.5 -5q-91 -17 -240 -17q-79 0 -121 9t-71 35q-28 26 -38.5 70.5t-10.5 126.5v309q0 15 16 15h118q14 0 14 -15v-271
q0 -74 9 -105q9 -29 28 -37.5t71 -8.5h90v422q0 15 15 15z" />
    <glyph glyph-name="ydieresis" unicode="&#xfa;" horiz-adv-x="610" 
d="M306 792h146q10 0 10 -10v-7q0 -4 -5 -12l-176 -146q-5 -5 -14 0l-43 25q-8 6 -3 14l73 130q3 6 12 6zM417 560h120q14 0 14 -15v-516q0 -9 -2.5 -12t-11.5 -5q-91 -17 -240 -17q-79 0 -121 9t-71 35q-28 26 -38.5 70.5t-10.5 126.5v309q0 15 16 15h118q14 0 14 -15v-271
q0 -74 9 -105q9 -29 28 -37.5t71 -8.5h90v422q0 15 15 15z" />
    <glyph glyph-name="Ydieresis.001" unicode="&#xfb;" horiz-adv-x="610" 
d="M261 792h85q15 0 20 -8l96 -133q8 -11 -3 -17l-32 -16q-9 -6 -17 0l-106 75l-106 -75q-9 -6 -18 0l-31 16q-11 8 -4 17l96 133q6 8 20 8zM417 560h120q14 0 14 -15v-516q0 -9 -2.5 -12t-11.5 -5q-91 -17 -240 -17q-79 0 -121 9t-71 35q-28 26 -38.5 70.5t-10.5 126.5v309
q0 15 16 15h118q14 0 14 -15v-271q0 -74 9 -105q9 -29 28 -37.5t71 -8.5h90v422q0 15 15 15z" />
    <glyph glyph-name="fraction" unicode="&#xfc;" horiz-adv-x="610" 
d="M185 776q77 0 77 -73q0 -74 -77 -74q-78 0 -78 74q0 73 78 73zM483 703q0 -74 -77 -74t-77 74q0 73 77 73t77 -73zM417 560h120q14 0 14 -15v-516q0 -9 -2.5 -12t-11.5 -5q-91 -17 -240 -17q-79 0 -121 9t-71 35q-28 26 -38.5 70.5t-10.5 126.5v309q0 15 16 15h118
q14 0 14 -15v-271q0 -74 9 -105q9 -29 28 -37.5t71 -8.5h90v422q0 15 15 15z" />
    <glyph glyph-name="currency" unicode="&#xfd;" horiz-adv-x="622" 
d="M326 792h145q10 0 10 -10v-7q0 -7 -5 -12l-175 -146q-5 -5 -14 0l-43 25q-8 6 -3 14l73 130q3 6 12 6zM428 560h119q15 0 15 -15v-533q0 -95 -25 -141q-20 -41 -72.5 -59.5t-147.5 -18.5q-106 0 -188 14q-14 2 -14 16v76q0 15 14 15h175q65 0 87 17.5t22 68.5v6
q-61 -11 -122 -11q-135 0 -186 57q-50 59 -50 201v292q0 15 15 15h119q15 0 15 -15v-264q0 -98 22 -127q22 -30 98 -30q54 0 89 6v415q0 15 15 15z" />
    <glyph glyph-name="guilsinglleft.001" unicode="&#xfe;" horiz-adv-x="604" 
d="M75 774h119q15 0 15 -16v-199q55 6 123 6q135 0 182 -59t47 -227q0 -170 -51 -227t-208 -57q-54 0 -93 4v-185q0 -15 -15 -15h-119q-15 0 -15 15v944q0 16 15 16zM299 436h-90v-306q39 -7 96 -7q71 0 89 31q19 31 19 126q0 98 -20 127t-94 29z" />
    <glyph glyph-name="guilsinglright.001" unicode="&#xff;" horiz-adv-x="622" 
d="M199 776q77 0 77 -73q0 -74 -77 -74q-78 0 -78 74q0 73 78 73zM497 703q0 -74 -77 -74t-77 74q0 73 77 73t77 -73zM428 560h119q15 0 15 -15v-533q0 -95 -25 -141q-20 -41 -72.5 -59.5t-147.5 -18.5q-106 0 -188 14q-14 2 -14 16v76q0 15 14 15h175q65 0 87 17.5t22 68.5
v6q-61 -11 -122 -11q-135 0 -186 57q-50 59 -50 201v292q0 15 15 15h119q15 0 15 -15v-264q0 -98 22 -127q22 -30 98 -30q54 0 89 6v415q0 15 15 15z" />
    <glyph glyph-name="fi" unicode="&#x100;" horiz-adv-x="711" 
d="M209 939h290q15 0 15 -15v-61q0 -15 -15 -15h-290q-15 0 -15 15v61q0 15 15 15zM354 780q91 0 120 -20q27 -19 50 -100l176 -644q3 -16 -13 -16h-128q-6 0 -8.5 3t-4.5 13l-57 208h-268l-58 -208q-2 -10 -4.5 -13t-9.5 -3h-127q-16 0 -13 16l179 644q23 81 50 100
q29 20 116 20zM354 648q-12 0 -16 -5t-9 -24l-73 -265h198l-72 265q-7 24 -14 27q-4 2 -14 2z" />
    <glyph glyph-name="fl.001" unicode="&#x101;" horiz-adv-x="565" 
d="M135 739h289q15 0 15 -15v-61q0 -15 -15 -15h-289q-15 0 -15 15v61q0 15 15 15zM267 565q140 0 191 -42t51 -130v-346q0 -24 -22 -31q-91 -21 -227 -21q-67 0 -102.5 5t-67.5 22q-60 33 -61 146q1 96 49 130q49 34 156 34h127v36q0 69 -94 69h-181q-8 0 -11 3t-3 12v82
q0 8 2.5 11t11.5 5q77 15 181 15zM361 125v111h-115q-39 0 -54.5 -13.5t-15.5 -46.5q0 -35 18.5 -48t66.5 -13q66 0 100 10z" />
    <glyph glyph-name="daggerdbl.001" unicode="&#x102;" horiz-adv-x="711" 
d="M455 980h59q17 0 14 -15q-10 -76 -49 -107q-37 -30 -125 -30q-87 0 -125 29q-37 30 -48 107q-3 16 14 16h58q13 0 17 -12q12 -28 30.5 -39t53.5 -11t53.5 11t30.5 39q4 12 17 12zM354 780q91 0 120 -20q27 -19 50 -100l176 -644q3 -16 -13 -16h-128q-6 0 -8.5 3t-4.5 13
l-57 208h-268l-58 -208q-2 -10 -4.5 -13t-9.5 -3h-127q-16 0 -13 16l179 644q23 81 50 100q29 20 116 20zM354 648q-12 0 -16 -5t-9 -24l-73 -265h198l-72 265q-7 24 -14 27q-4 2 -14 2z" />
    <glyph glyph-name="middot" unicode="&#x103;" horiz-adv-x="565" 
d="M381 780h58q17 0 14 -15q-10 -76 -49 -107q-37 -30 -124 -30t-126 30q-38 30 -48 106q-3 16 14 16h58q12 0 17 -12q12 -28 30.5 -39t54.5 -11q35 0 53 11t31 39q4 12 17 12zM267 565q140 0 191 -42t51 -130v-346q0 -24 -22 -31q-91 -21 -227 -21q-67 0 -102.5 5t-67.5 22
q-60 33 -61 146q1 96 49 130q49 34 156 34h127v36q0 69 -94 69h-181q-8 0 -11 3t-3 12v82q0 8 2.5 11t11.5 5q77 15 181 15zM361 125v111h-115q-39 0 -54.5 -13.5t-15.5 -46.5q0 -35 18.5 -48t66.5 -13q66 0 100 10z" />
    <glyph glyph-name="quotesinglbase.001" unicode="&#x104;" horiz-adv-x="711" 
d="M354 780q91 0 120 -20q27 -19 50 -100l176 -644q3 -16 -13 -16h-66q-6 -33 -6 -50t11 -21.5t44 -4.5h36q14 0 14 -14v-61q0 -13 -12 -18q-21 -8 -80 -8q-54 0 -79.5 18.5t-25.5 59.5q0 52 23 112l-57 211h-268l-58 -208q-2 -10 -4.5 -13t-9.5 -3h-127q-16 0 -13 16
l179 644q23 81 50 100q29 20 116 20zM354 648q-12 0 -16 -5t-9 -24l-73 -265h198l-72 265q-7 24 -14 27q-4 2 -14 2z" />
    <glyph glyph-name="quotedblbase.001" unicode="&#x105;" horiz-adv-x="565" 
d="M462 -76h35q14 0 14 -14v-61q0 -13 -12 -18q-21 -8 -80 -8q-54 0 -79.5 18.5t-25.5 59.5t16 96q-64 -2 -70 -2q-67 0 -102.5 5t-67.5 22q-60 33 -61 146q1 96 49 130q49 34 156 34h127v36q0 69 -94 69h-181q-8 0 -11 3t-3 12v82q0 8 2.5 11t11.5 5q77 15 181 15
q140 0 191 -42t51 -130v-346q0 -24 -22 -31q-36 -8 -74 -12q-6 -28 -6 -54q0 -17 11 -21.5t44 -4.5zM176 176q0 -35 18.5 -48t66.5 -13q66 0 100 10v111h-115q-39 0 -54.5 -13.5t-15.5 -46.5z" />
    <glyph glyph-name="perthousand" unicode="&#x106;" horiz-adv-x="623" 
d="M349 992h145q10 0 10 -10v-7q0 -7 -5 -12l-175 -146q-5 -5 -14 0l-43 25q-8 6 -3 14l73 130q3 6 12 6zM369 780q115 0 197 -15q23 -6 23 -27v-80q0 -15 -15 -15h-205q-101 0 -132 -52q-30 -53 -30 -203q0 -152 30 -204q31 -52 132 -52h205q15 0 15 -15v-81q0 -20 -23 -26
q-74 -15 -197 -15q-101 0 -160 18.5t-96 64.5q-36 47 -50.5 118.5t-14.5 191.5t14.5 191.5t50.5 117.5q37 46 96 64.5t160 18.5z" />
    <glyph glyph-name="Acircumflex" unicode="&#x107;" horiz-adv-x="511" 
d="M279 792h145q10 0 10 -10v-7q0 -7 -5 -12l-175 -146q-5 -5 -14 0l-43 25q-8 6 -3 14l73 130q3 6 12 6zM297 565q101 0 163 -13q17 -3 17 -20v-79q0 -16 -17 -16h-163q-67 0 -87 -30q-19 -29 -19 -127q0 -96 19 -127q20 -30 87 -30h163q17 0 17 -15v-80q0 -16 -17 -19
q-65 -14 -163 -14q-85 0 -132 12t-75 45q-27 34 -37 84.5t-10 143.5t10 143.5t37 83.5q28 34 74.5 46t132.5 12z" />
    <glyph glyph-name="Ecircumflex" unicode="&#x108;" horiz-adv-x="623" 
d="M312 992h85q14 0 20 -8l96 -133q7 -9 -4 -17l-31 -16q-9 -6 -18 0l-105 75l-107 -75q-8 -6 -17 0l-32 16q-11 6 -3 17l96 133q5 8 20 8zM369 780q115 0 197 -15q23 -6 23 -27v-80q0 -15 -15 -15h-205q-101 0 -132 -52q-30 -53 -30 -203q0 -152 30 -204q31 -52 132 -52
h205q15 0 15 -15v-81q0 -20 -23 -26q-74 -15 -197 -15q-101 0 -160 18.5t-96 64.5q-36 47 -50.5 118.5t-14.5 191.5t14.5 191.5t50.5 117.5q37 46 96 64.5t160 18.5z" />
    <glyph glyph-name="Aacute" unicode="&#x109;" horiz-adv-x="511" 
d="M235 792h85q15 0 20 -8l96 -133q8 -11 -3 -17l-32 -16q-9 -6 -17 0l-106 75l-106 -75q-8 -8 -18 0l-31 16q-11 7 -3 17l95 133q6 8 20 8zM297 565q101 0 163 -13q17 -3 17 -20v-79q0 -16 -17 -16h-163q-67 0 -87 -30q-19 -29 -19 -127q0 -96 19 -127q20 -30 87 -30h163
q17 0 17 -15v-80q0 -16 -17 -19q-65 -14 -163 -14q-85 0 -132 12t-75 45q-27 34 -37 84.5t-10 143.5t10 143.5t37 83.5q28 34 74.5 46t132.5 12z" />
    <glyph glyph-name="Edieresis" unicode="&#x10a;" horiz-adv-x="623" 
d="M359 978q82 0 82 -75q0 -76 -82 -76q-83 0 -83 76q0 75 83 75zM369 780q115 0 197 -15q23 -6 23 -27v-80q0 -15 -15 -15h-205q-101 0 -132 -52q-30 -53 -30 -203q0 -152 30 -204q31 -52 132 -52h205q15 0 15 -15v-81q0 -20 -23 -26q-74 -15 -197 -15q-101 0 -160 18.5
t-96 64.5q-36 47 -50.5 118.5t-14.5 191.5t14.5 191.5t50.5 117.5q37 46 96 64.5t160 18.5z" />
    <glyph glyph-name="Egrave" unicode="&#x10b;" horiz-adv-x="511" 
d="M275 778q82 0 82 -75q0 -76 -82 -76q-83 0 -83 76q0 75 83 75zM297 565q101 0 163 -13q17 -3 17 -20v-79q0 -16 -17 -16h-163q-67 0 -87 -30q-19 -29 -19 -127q0 -96 19 -127q20 -30 87 -30h163q17 0 17 -15v-80q0 -16 -17 -19q-65 -14 -163 -14q-85 0 -132 12t-75 45
q-27 34 -37 84.5t-10 143.5t10 143.5t37 83.5q28 34 74.5 46t132.5 12z" />
    <glyph glyph-name="Iacute" unicode="&#x10c;" horiz-adv-x="623" 
d="M449 989l31 -16q11 -8 4 -17l-96 -133q-6 -8 -20 -8h-85q-15 0 -20 8l-96 133q-8 11 4 17l31 16q9 6 17 0l107 -75l106 75q8 6 17 0zM369 780q115 0 197 -15q23 -6 23 -27v-80q0 -15 -15 -15h-205q-101 0 -132 -52q-30 -53 -30 -203q0 -152 30 -204q31 -52 132 -52h205
q15 0 15 -15v-81q0 -20 -23 -26q-74 -15 -197 -15q-101 0 -160 18.5t-96 64.5q-36 47 -50.5 118.5t-14.5 191.5t14.5 191.5t50.5 117.5q37 46 96 64.5t160 18.5z" />
    <glyph glyph-name="Icircumflex" unicode="&#x10d;" horiz-adv-x="511" 
d="M405 789l31 -16q12 -6 4 -17l-96 -133q-6 -8 -20 -8h-85q-14 0 -20 8l-96 133q-7 9 4 17l31 16q9 6 17 0l107 -75l106 75q8 6 17 0zM297 565q101 0 163 -13q17 -3 17 -20v-79q0 -16 -17 -16h-163q-67 0 -87 -30q-19 -29 -19 -127q0 -96 19 -127q20 -30 87 -30h163
q17 0 17 -15v-80q0 -16 -17 -19q-65 -14 -163 -14q-85 0 -132 12t-75 45q-27 34 -37 84.5t-10 143.5t10 143.5t37 83.5q28 34 74.5 46t132.5 12z" />
    <glyph glyph-name="Idieresis" unicode="&#x10e;" horiz-adv-x="745" 
d="M466 989l32 -16q11 -6 3 -17l-96 -133q-5 -8 -20 -8h-85q-14 0 -20 8l-96 133q-7 9 4 17l31 16q11 7 18 0l106 -75l106 75q8 6 17 0zM376 780q175 0 249 -92q75 -92 75 -301q0 -210 -75 -301q-73 -91 -249 -91q-170 0 -290 10q-15 1 -15 13v737q0 8 3 10.5t12 3.5
q127 11 290 11zM368 643h-140v-511h148q89 0 127 59t38 196q0 136 -40 196t-133 60z" />
    <glyph glyph-name="Igrave" unicode="&#x10f;" horiz-adv-x="633" 
d="M639 777h132q10 0 10 -10v-7q0 -4 -5 -12l-129 -146q-5 -8 -14 0l-32 24q-8 5 -5 15l29 127q1 9 14 9zM410 774h118q15 0 15 -16v-719q0 -22 -21 -25q-117 -19 -220 -19q-157 0 -208 57t-51 227q0 169 46 227q47 59 183 59q68 0 123 -6v199q0 16 15 16zM395 130v306h-90
q-74 0 -94 -29t-20 -127q0 -94 18 -126q19 -31 90 -31q57 0 96 7z" />
    <glyph glyph-name="Oacute" unicode="&#x110;" horiz-adv-x="756" 
d="M388 780q175 0 249 -92q75 -92 75 -301q0 -210 -75 -301q-73 -91 -249 -91q-169 0 -290 10q-15 1 -15 13v317h-67q-15 0 -15 15v61q0 15 15 15h67v329q0 8 3 10.5t12 3.5q127 11 290 11zM240 335v-203h148q89 0 127 59t38 196t-39.5 196.5t-132.5 59.5h-141v-217h129
q15 0 15 -15v-61q0 -15 -15 -15h-129z" />
    <glyph glyph-name="Ocircumflex" unicode="&#x111;" horiz-adv-x="602" 
d="M543 758v-52h60q15 0 15 -15v-35q0 -15 -15 -15h-60v-602q0 -22 -21 -25q-117 -19 -220 -19q-157 0 -208 57t-51 227q0 169 46 227q47 59 183 59q68 0 123 -6v82h-119q-15 0 -15 15v35q0 15 15 15h119v52q0 16 15 16h118q15 0 15 -16zM395 130v306h-90q-74 0 -94 -29
t-20 -127q0 -94 18 -126q19 -31 90 -31q57 0 96 7z" />
    <glyph glyph-name="apple" unicode="&#x112;" horiz-adv-x="648" 
d="M181 939h290q15 0 15 -15v-61q0 -15 -15 -15h-290q-15 0 -15 15v61q0 15 15 15zM86 774h501q15 0 15 -15v-107q0 -15 -15 -15h-359v-189h328q16 0 16 -15v-102q0 -15 -16 -15h-328v-179h359q15 0 15 -15v-107q0 -15 -15 -15h-501q-15 0 -15 16v743q0 15 15 15z" />
    <glyph glyph-name="Ograve" unicode="&#x113;" horiz-adv-x="574" 
d="M148 739h290q15 0 15 -15v-61q0 -15 -15 -15h-290q-15 0 -15 15v61q0 15 15 15zM294 565q148 0 196 -56q48 -54 50 -222v-31q0 -15 -7 -21t-25 -6h-314q2 -67 23 -86q23 -20 90 -20h177q15 0 15 -15v-83q0 -14 -14 -16q-70 -14 -191 -14q-152 0 -201 57q-50 58 -50 228
q0 172 50 228q49 57 201 57zM294 437q-57 0 -78.5 -23t-22.5 -88h198q-1 65 -21.5 88t-75.5 23z" />
    <glyph glyph-name="Uacute" unicode="&#x114;" horiz-adv-x="648" 
d="M441 980h59q17 0 14 -15q-10 -76 -49 -107q-37 -30 -125 -30q-87 0 -125 29q-37 30 -48 107q-3 16 14 16h58q13 0 17 -12q12 -28 30.5 -39t53.5 -11t53.5 11t30.5 39q4 12 17 12zM86 774h501q15 0 15 -15v-107q0 -15 -15 -15h-359v-189h328q16 0 16 -15v-102
q0 -15 -16 -15h-328v-179h359q15 0 15 -15v-107q0 -15 -15 -15h-501q-15 0 -15 16v743q0 15 15 15z" />
    <glyph glyph-name="Ucircumflex" unicode="&#x115;" horiz-adv-x="574" 
d="M395 780h58q17 0 14 -15q-10 -76 -49 -107q-38 -30 -125 -30q-86 0 -125 30q-38 30 -48 106q-3 16 14 16h58q12 0 17 -12q12 -28 30.5 -39t53.5 -11t53.5 11t31.5 39q4 12 17 12zM294 565q148 0 196 -56q48 -54 50 -222v-31q0 -15 -7 -21t-25 -6h-314q2 -67 23 -86
q23 -20 90 -20h177q15 0 15 -15v-83q0 -14 -14 -16q-70 -14 -191 -14q-152 0 -201 57q-50 58 -50 228q0 172 50 228q49 57 201 57zM294 437q-57 0 -78.5 -23t-22.5 -88h198q-1 65 -21.5 88t-75.5 23z" />
    <glyph glyph-name="Ugrave" unicode="&#x116;" horiz-adv-x="648" 
d="M326 978q82 0 82 -75q0 -76 -82 -76q-83 0 -83 76q0 75 83 75zM86 774h501q15 0 15 -15v-107q0 -15 -15 -15h-359v-189h328q16 0 16 -15v-102q0 -15 -16 -15h-328v-179h359q15 0 15 -15v-107q0 -15 -15 -15h-501q-15 0 -15 16v743q0 15 15 15z" />
    <glyph glyph-name="dotlessi" unicode="&#x117;" horiz-adv-x="574" 
d="M376 703q0 -76 -83 -76t-83 76q0 75 83 75t83 -75zM294 565q148 0 196 -56q48 -54 50 -222v-31q0 -15 -7 -21t-25 -6h-314q2 -67 23 -86q23 -20 90 -20h177q15 0 15 -15v-83q0 -14 -14 -16q-70 -14 -191 -14q-152 0 -201 57q-50 58 -50 228q0 172 50 228q49 57 201 57z
M294 437q-57 0 -78.5 -23t-22.5 -88h198q-1 65 -21.5 88t-75.5 23z" />
    <glyph glyph-name="circumflex" unicode="&#x118;" horiz-adv-x="648" 
d="M86 774h501q15 0 15 -15v-107q0 -15 -15 -15h-359v-189h328q16 0 16 -15v-102q0 -15 -16 -15h-328v-179h359q15 0 15 -15v-107q0 -15 -15 -15h-94q-6 -33 -6 -50t11 -21.5t44 -4.5h36q14 0 14 -14v-61q0 -13 -12 -18q-21 -8 -80 -8q-54 0 -79.5 18.5t-25.5 59.5
q0 36 17 99h-326q-15 0 -15 16v743q0 15 15 15z" />
    <glyph glyph-name="tilde.001" unicode="&#x119;" horiz-adv-x="574" 
d="M294 565q148 0 196 -56q48 -54 50 -222v-31q0 -15 -7 -21t-25 -6h-314q2 -67 23 -86q23 -20 90 -20h177q15 0 15 -15v-83q0 -14 -14 -16q-26 -7 -73 -10q-5 -28 -5 -49q0 -17 11 -21.5t44 -4.5h35q14 0 14 -14v-61q0 -13 -12 -18q-21 -8 -80 -8q-79 -3 -98 43.5t10 128.5
h-37q-152 0 -201 57q-50 58 -50 228q0 172 50 228q49 57 201 57zM294 437q-57 0 -78.5 -23t-22.5 -88h198q-1 65 -21.5 88t-75.5 23z" />
    <glyph glyph-name="overscore" unicode="&#x11a;" horiz-adv-x="648" 
d="M449 989l32 -16q11 -6 3 -17l-96 -133q-5 -8 -20 -8h-85q-14 0 -20 8l-95 133q-8 10 3 17l31 16q10 7 18 0l106 -75l106 75q8 6 17 0zM86 774h501q15 0 15 -15v-107q0 -15 -15 -15h-359v-189h328q16 0 16 -15v-102q0 -15 -16 -15h-328v-179h359q15 0 15 -15v-107
q0 -15 -15 -15h-501q-15 0 -15 16v743q0 15 15 15z" />
    <glyph glyph-name="breve" unicode="&#x11b;" horiz-adv-x="574" 
d="M417 789l31 -16q11 -8 4 -17l-96 -133q-6 -8 -20 -8h-85q-15 0 -20 8l-96 133q-8 11 3 17l32 16q9 6 17 0l106 -75l106 75q7 7 18 0zM294 565q148 0 196 -56q48 -54 50 -222v-31q0 -15 -7 -21t-25 -6h-314q2 -67 23 -86q23 -20 90 -20h177q15 0 15 -15v-83q0 -14 -14 -16
q-70 -14 -191 -14q-152 0 -201 57q-50 58 -50 228q0 172 50 228q49 57 201 57zM294 437q-57 0 -78.5 -23t-22.5 -88h198q-1 65 -21.5 88t-75.5 23z" />
    <glyph glyph-name="dotaccent" unicode="&#x11c;" horiz-adv-x="686" 
d="M315 992h85q14 0 20 -8l96 -133q7 -9 -4 -17l-31 -16q-11 -8 -18 0l-106 75l-106 -75q-8 -6 -17 0l-32 16q-11 6 -3 17l96 133q5 8 20 8zM369 780q141 0 214 -15q23 -6 23 -27v-80q0 -15 -15 -15h-222q-101 0 -132 -52q-30 -53 -30 -204t30 -203q31 -52 132 -52h125v233
q0 16 15 16h117q15 0 15 -16v-284q0 -18 -4 -25q-16 -28 -94 -45q-74 -16 -174 -16q-98 0 -158 18t-98 65q-36 46 -50.5 117.5t-14.5 191.5q0 229 65 311q66 82 256 82z" />
    <glyph glyph-name="ring.001" unicode="&#x11d;" horiz-adv-x="604" 
d="M259 792h85q15 0 20 -8l96 -133q8 -11 -3 -17l-32 -16q-9 -6 -17 0l-106 75l-106 -75q-9 -6 -18 0l-31 16q-11 8 -4 17l96 133q6 8 20 8zM304 565q119 0 220 -19q21 -3 21 -25v-509q0 -95 -25 -141q-20 -41 -72.5 -59.5t-147.5 -18.5q-101 0 -185 14q-14 2 -14 16v76
q0 15 14 15h172q65 0 87 17.5t22 68.5v6q-61 -11 -122 -11q-136 0 -184 60q-47 61 -47 233q0 166 52 221q53 56 209 56zM396 130v307h-99q-69 0 -88 -31q-18 -32 -18 -125q0 -97 20 -128q21 -29 96 -29q54 0 89 6z" />
    <glyph glyph-name="cedilla" unicode="&#x11e;" horiz-adv-x="686" 
d="M446 980h58q17 0 14 -15q-10 -77 -48 -107t-125 -30t-125 30t-48 106q-3 16 14 16h57q12 0 17 -12q13 -28 31.5 -39t53.5 -11t53.5 11t30.5 39q5 12 17 12zM369 780q141 0 214 -15q23 -6 23 -27v-80q0 -15 -15 -15h-222q-101 0 -132 -52q-30 -53 -30 -204t30 -203
q31 -52 132 -52h125v233q0 16 15 16h117q15 0 15 -16v-284q0 -18 -4 -25q-16 -28 -94 -45q-74 -16 -174 -16q-98 0 -158 18t-98 65q-36 46 -50.5 117.5t-14.5 191.5q0 229 65 311q66 82 256 82z" />
    <glyph glyph-name="hungarumlaut" unicode="&#x11f;" horiz-adv-x="604" 
d="M403 780h59q17 0 14 -15q-10 -76 -49 -107q-37 -30 -125 -30q-87 0 -125 29q-37 30 -48 107q-3 16 14 16h57q12 0 17 -12q13 -28 31.5 -39t53.5 -11t53.5 11t30.5 39q4 12 17 12zM304 565q119 0 220 -19q21 -3 21 -25v-509q0 -95 -25 -141q-20 -41 -72.5 -59.5
t-147.5 -18.5q-101 0 -185 14q-14 2 -14 16v76q0 15 14 15h172q65 0 87 17.5t22 68.5v6q-61 -11 -122 -11q-136 0 -184 60q-47 61 -47 233q0 166 52 221q53 56 209 56zM396 130v307h-99q-69 0 -88 -31q-18 -32 -18 -125q0 -97 20 -128q21 -29 96 -29q54 0 89 6z" />
    <glyph glyph-name="ogonek.001" unicode="&#x120;" horiz-adv-x="686" 
d="M428 903q0 -76 -83 -76t-83 76q0 75 83 75t83 -75zM369 780q141 0 214 -15q23 -6 23 -27v-80q0 -15 -15 -15h-222q-101 0 -132 -52q-30 -53 -30 -204t30 -203q31 -52 132 -52h125v233q0 16 15 16h117q15 0 15 -16v-284q0 -18 -4 -25q-16 -28 -94 -45q-74 -16 -174 -16
q-98 0 -158 18t-98 65q-36 46 -50.5 117.5t-14.5 191.5q0 229 65 311q66 82 256 82z" />
    <glyph glyph-name="caron" unicode="&#x121;" horiz-adv-x="604" 
d="M302 778q82 0 82 -75q0 -76 -82 -76q-83 0 -83 76q0 75 83 75zM304 565q119 0 220 -19q21 -3 21 -25v-509q0 -95 -25 -141q-20 -41 -72.5 -59.5t-147.5 -18.5q-101 0 -185 14q-14 2 -14 16v76q0 15 14 15h172q65 0 87 17.5t22 68.5v6q-61 -11 -122 -11q-136 0 -184 60
q-47 61 -47 233q0 166 52 221q53 56 209 56zM396 130v307h-99q-69 0 -88 -31q-18 -32 -18 -125q0 -97 20 -128q21 -29 96 -29q54 0 89 6z" />
    <glyph glyph-name="Lslash" unicode="&#x122;" horiz-adv-x="686" 
d="M369 780q141 0 214 -15q23 -6 23 -27v-80q0 -15 -15 -15h-222q-101 0 -132 -52q-30 -53 -30 -204t30 -203q31 -52 132 -52h125v233q0 16 15 16h117q15 0 15 -16v-284q0 -18 -4 -25q-16 -28 -94 -45q-74 -16 -174 -16q-98 0 -158 18t-98 65q-36 46 -50.5 117.5
t-14.5 191.5q0 229 65 311q66 82 256 82zM303 -40h125q10 0 10 -10v-7q0 -4 -5 -12l-156 -129q-5 -5 -14 0l-35 21q-8 6 -3 14l66 117q3 6 12 6z" />
    <glyph glyph-name="lslash" unicode="&#x123;" horiz-adv-x="604" 
d="M406 779l36 -21q8 -5 3 -14l-66 -117q-3 -6 -12 -6h-125q-10 0 -10 10v7q0 7 5 12l155 129q7 6 14 0zM304 565q119 0 220 -19q21 -3 21 -25v-509q0 -95 -25 -141q-20 -41 -72.5 -59.5t-147.5 -18.5q-101 0 -185 14q-14 2 -14 16v76q0 15 14 15h172q65 0 87 17.5t22 68.5
v6q-61 -11 -122 -11q-136 0 -184 60q-47 61 -47 233q0 166 52 221q53 56 209 56zM396 130v307h-99q-69 0 -88 -31q-18 -32 -18 -125q0 -97 20 -128q21 -29 96 -29q54 0 89 6z" />
    <glyph glyph-name="Scaron.001" unicode="&#x124;" horiz-adv-x="787" 
d="M356 992h84q15 0 20 -8l96 -133q8 -11 -3 -17l-31 -16q-10 -6 -18 0l-106 75l-106 -75q-8 -6 -18 0l-31 16q-11 6 -3 17l96 133q5 8 20 8zM574 774h127q15 0 15 -16v-742q0 -16 -15 -16h-127q-15 0 -15 16v302h-331v-302q0 -16 -15 -16h-127q-15 0 -15 16v742q0 16 15 16
h127q15 0 15 -16v-301h331v301q0 16 15 16z" />
    <glyph glyph-name="scaron.001" unicode="&#x125;" horiz-adv-x="611" 
d="M88 984h85q15 0 20 -9l96 -133q7 -10 -4 -16l-31 -17q-8 -6 -17 0l-106 76l-107 -76q-8 -6 -17 0l-31 17q-11 7 -4 16l96 133q8 9 20 9zM74 774h118q15 0 15 -16v-198q52 5 106 5q79 0 121 -9t70 -35q29 -26 39.5 -70.5t10.5 -125.5v-309q0 -16 -15 -16h-119
q-14 0 -14 16v271q0 73 -9 103t-28 38.5t-71 8.5h-90v-421q0 -16 -15 -16h-120q-14 0 -14 16v742q0 16 15 16z" />
    <glyph glyph-name="Zcaron" unicode="&#x126;" horiz-adv-x="807" 
d="M727 758v-84h49q15 0 15 -15v-39q0 -15 -15 -15h-49v-589q0 -16 -15 -16h-128q-15 0 -15 16v302h-330v-302q0 -16 -15 -16h-128q-15 0 -15 16v589h-50q-15 0 -15 15v39q0 15 15 15h50v84q0 16 15 16h128q15 0 15 -16v-84h330v84q0 16 15 16h128q15 0 15 -16zM239 457h330
v148h-330v-148z" />
    <glyph glyph-name="zcaron" unicode="&#x127;" horiz-adv-x="611" 
d="M314 565q79 0 121 -9t70 -35q29 -26 39.5 -70.5t10.5 -125.5v-309q0 -16 -15 -16h-119q-14 0 -14 16v271q0 73 -9 103t-28 38.5t-71 8.5h-90v-421q0 -16 -15 -16h-120q-14 0 -14 16v625h-58q-15 0 -15 15v35q0 15 15 15h58v52q0 16 15 16h118q15 0 15 -16v-52h122
q15 0 15 -15v-35q0 -15 -15 -15h-122v-81q52 5 106 5z" />
    <glyph glyph-name="brokenbar" unicode="&#x128;" horiz-adv-x="299" 
d="M71 976q28 0 79 -20q48 -19 64 -19q17 0 26.5 7t18.5 26q5 14 18 10l43 -12q14 -5 11 -20q-18 -68 -39.5 -92t-65.5 -24q-29 0 -79 19q-51 20 -64 20q-17 0 -26.5 -7t-18.5 -26q-6 -14 -18 -10l-43 12q-14 5 -11 21q18 67 39 91q23 24 66 24zM86 774h127q15 0 15 -16
v-742q0 -16 -15 -16h-127q-15 0 -15 16v742q0 16 15 16z" />
    <glyph glyph-name="Eth" unicode="&#x129;" horiz-adv-x="268" 
d="M57 776q27 0 78 -20q50 -19 65 -19q17 0 26.5 7t17.5 26q6 14 19 10l43 -12q14 -5 10 -20q-17 -68 -39 -92t-66 -24q-29 0 -79 19q-51 20 -64 20q-17 0 -26.5 -7t-17.5 -26q-6 -14 -19 -10l-43 12q-14 5 -10 21q17 67 39 91t66 24zM75 560h118q15 0 15 -15v-529
q0 -16 -15 -16h-118q-15 0 -15 16v529q0 15 15 15z" />
    <glyph glyph-name="eth" unicode="&#x12a;" horiz-adv-x="299" 
d="M4 939h289q15 0 15 -15v-61q0 -15 -15 -15h-289q-15 0 -15 15v61q0 15 15 15zM86 774h127q15 0 15 -16v-742q0 -16 -15 -16h-127q-15 0 -15 16v742q0 16 15 16z" />
    <glyph glyph-name="Yacute" unicode="&#x12b;" horiz-adv-x="269" 
d="M-10 739h289q15 0 15 -15v-61q0 -15 -15 -15h-289q-15 0 -15 15v61q0 15 15 15zM75 560h119q15 0 15 -15v-529q0 -16 -15 -16h-119q-15 0 -15 16v529q0 15 15 15z" />
    <glyph glyph-name="yacute" unicode="&#x12e;" horiz-adv-x="299" 
d="M86 774h127q15 0 15 -16v-742q0 -16 -15 -16h-64q-6 -33 -6 -50t11 -21.5t44 -4.5h36q14 0 14 -14v-61q0 -13 -12 -18q-21 -8 -80 -8q-54 0 -79.5 18.5t-25.5 59.5q0 37 20 109v748q0 16 15 16z" />
    <glyph glyph-name="Thorn" unicode="&#x12f;" horiz-adv-x="268" 
d="M135 778q82 0 82 -75q0 -76 -82 -76q-83 0 -83 76q0 75 83 75zM75 560h118q15 0 15 -15v-529q0 -16 -15 -16h-55q-6 -33 -6 -50t11 -21.5t44 -4.5h35q14 0 14 -14v-61q0 -13 -12 -18q-21 -8 -79 -8q-55 0 -80.5 18.5t-25.5 59.5q0 43 21 108v536q0 15 15 15z" />
    <glyph glyph-name="thorn" unicode="&#x130;" horiz-adv-x="299" 
d="M149 978q82 0 82 -75q0 -76 -82 -76q-83 0 -83 76q0 75 83 75zM86 774h127q15 0 15 -16v-742q0 -16 -15 -16h-127q-15 0 -15 16v742q0 16 15 16z" />
    <glyph glyph-name="minus.001" unicode="&#x131;" horiz-adv-x="268" 
d="M75 560h118q15 0 15 -15v-529q0 -16 -15 -16h-118q-15 0 -15 16v529q0 15 15 15z" />
    <glyph glyph-name="multiply" unicode="&#x132;" horiz-adv-x="888" 
d="M86 774h127q15 0 15 -16v-742q0 -16 -15 -16h-127q-15 0 -15 16v742q0 16 15 16zM460 774h348q15 0 15 -15v-382q1 -221 -67 -302q-68 -80 -260 -80q-86 0 -159 15q-23 5 -23 25v82q0 15 15 15h167q104 0 137 49q35 50 33 196v260h-205q-16 0 -16 15v107q0 15 15 15z" />
    <glyph glyph-name="onesuperior" unicode="&#x133;" horiz-adv-x="542" 
d="M135 796q41 0 63.5 -21t22.5 -59t-22.5 -59.5t-63.5 -21.5q-42 0 -65 21.5t-23 59.5t23 59t65 21zM75 560h118q15 0 15 -15v-529q0 -16 -15 -16h-118q-15 0 -15 16v529q0 15 15 15zM408 796q42 0 64.5 -21t22.5 -59t-22.5 -59.5t-64.5 -21.5q-41 0 -64 21.5t-23 59.5
t23 59t64 21zM348 560h119q15 0 15 -15v-626q0 -77 -35 -101q-34 -25 -106 -25q-48 0 -82 8q-17 6 -17 20v85q0 16 18 16h24q32 0 40.5 7.5t8.5 37.5v578q0 15 15 15z" />
    <glyph glyph-name="twosuperior" unicode="&#x134;" horiz-adv-x="582" 
d="M282 992h85q14 0 20 -8l96 -133q7 -9 -4 -17l-31 -16q-9 -6 -17 0l-106 75l-107 -75q-8 -6 -17 0l-31 16q-12 6 -4 17l96 133q6 8 20 8zM154 774h348q15 0 15 -15v-382q1 -221 -67 -302q-68 -80 -260 -80q-86 0 -159 15q-23 5 -23 25v82q0 15 15 15h167q104 0 137 49
q35 50 33 196v260h-205q-16 0 -16 15v107q0 15 15 15z" />
    <glyph glyph-name="threesuperior" unicode="&#x135;" horiz-adv-x="273" 
d="M94 792h85q14 0 20 -8l96 -133q7 -9 -4 -17l-31 -16q-9 -6 -17 0l-106 75l-107 -75q-8 -6 -17 0l-31 16q-12 6 -4 17l96 133q6 8 20 8zM80 560h118q15 0 15 -15v-626q0 -77 -35 -101q-34 -25 -106 -25q-48 0 -82 8q-16 6 -16 20v85q0 16 17 16h25q32 0 40.5 7.5t8.5 37.5
v578q0 15 15 15z" />
    <glyph glyph-name="onehalf" unicode="&#x136;" horiz-adv-x="678" 
d="M500 774h141q22 0 9 -19l-260 -337l287 -391q19 -27 -17 -27h-140q-16 0 -22 11l-270 371v-366q0 -16 -15 -16h-127q-15 0 -15 16v743q0 15 15 15h127q15 0 15 -15v-318l251 323q7 10 21 10zM292 -40h125q10 0 10 -10v-7q0 -4 -5 -12l-155 -129q-6 -5 -14 0l-36 21
q-8 6 -3 14l66 117q3 6 12 6z" />
    <glyph glyph-name="onequarter" unicode="&#x137;" horiz-adv-x="558" 
d="M75 774h119q15 0 15 -16v-390l143 182q7 10 21 10h135q25 0 9 -19l-161 -202l204 -312q16 -27 -17 -27h-125q-16 0 -22 11l-187 295v-290q0 -16 -15 -16h-119q-15 0 -15 16v742q0 16 15 16zM240 -40h125q10 0 10 -10v-7q0 -7 -5 -12l-155 -129q-6 -5 -14 0l-36 21
q-8 6 -3 14l66 117q3 6 12 6z" />
    <glyph glyph-name="threequarters" unicode="&#x138;" horiz-adv-x="591" 
d="M420 560h141q21 0 8 -19l-191 -254l202 -265q17 -23 -13 -23h-147q-14 0 -21 10l-183 239v-232q0 -16 -15 -16h-127q-15 0 -15 16v529q0 15 15 15h127q15 0 15 -15v-238l183 243q7 10 21 10z" />
    <glyph glyph-name="franc" unicode="&#x139;" horiz-adv-x="587" 
d="M167 992h145q10 0 10 -10v-7q0 -4 -5 -12l-175 -146q-6 -5 -14 0l-43 25q-8 6 -3 14l73 130q3 6 12 6zM86 774h127q15 0 15 -15v-622h328q15 0 15 -15v-107q0 -15 -15 -15h-470q-15 0 -15 16v743q0 15 15 15z" />
    <glyph glyph-name="Gbreve" unicode="&#x13a;" horiz-adv-x="268" 
d="M152 988h145q10 0 10 -10v-7q0 -7 -5 -12l-175 -146q-5 -5 -14 0l-43 25q-8 6 -3 14l73 130q3 6 12 6zM75 774h118q15 0 15 -15v-743q0 -16 -15 -16h-118q-15 0 -15 16v743q0 15 15 15z" />
    <glyph glyph-name="gbreve" unicode="&#x13b;" horiz-adv-x="587" 
d="M86 774h127q15 0 15 -15v-622h328q15 0 15 -15v-107q0 -15 -15 -15h-470q-15 0 -15 16v743q0 15 15 15zM270 -40h125q10 0 10 -10v-7q0 -4 -5 -12l-156 -129q-5 -5 -14 0l-35 21q-8 6 -3 14l66 117q3 6 12 6z" />
    <glyph glyph-name="Idot" unicode="&#x13c;" horiz-adv-x="268" 
d="M75 774h118q15 0 15 -15v-743q0 -16 -15 -16h-118q-15 0 -15 16v743q0 15 15 15zM69 -40h125q10 0 10 -10v-7q0 -4 -5 -12l-155 -129q-6 -5 -14 0l-36 21q-8 6 -3 14l66 117q3 6 12 6z" />
    <glyph glyph-name="Scedilla.001" unicode="&#x13d;" horiz-adv-x="580" 
d="M355 777h132q10 0 10 -10v-7q0 -4 -5 -12l-129 -146q-5 -8 -14 0l-33 24q-7 4 -4 15l29 127q1 9 14 9zM86 774h127q15 0 15 -15v-622h328q15 0 15 -15v-107q0 -15 -15 -15h-470q-15 0 -15 16v743q0 15 15 15z" />
    <glyph glyph-name="scedilla.001" unicode="&#x13e;" horiz-adv-x="298" 
d="M300 777h132q10 0 10 -10v-7q0 -4 -5 -12l-129 -146q-5 -8 -14 0l-33 24q-7 4 -4 15l29 127q2 9 14 9zM75 774h118q15 0 15 -15v-743q0 -16 -15 -16h-118q-15 0 -15 16v743q0 15 15 15z" />
    <glyph glyph-name="Cacute" unicode="&#x13f;" horiz-adv-x="587" 
d="M86 774h127q15 0 15 -15v-622h328q15 0 15 -15v-107q0 -15 -15 -15h-470q-15 0 -15 16v743q0 15 15 15zM415 448q82 0 82 -75q0 -77 -82 -77q-84 0 -84 77q0 75 84 75z" />
    <glyph glyph-name="cacute" unicode="&#x140;" horiz-adv-x="431" 
d="M75 774h118q15 0 15 -15v-743q0 -16 -15 -16h-118q-15 0 -15 16v743q0 15 15 15zM350 448q82 0 82 -75q0 -77 -82 -77q-83 0 -83 77q0 75 83 75z" />
    <glyph glyph-name="Ccaron" unicode="&#x141;" horiz-adv-x="609" 
d="M250 388v-251h328q15 0 15 -15v-107q0 -15 -15 -15h-470q-15 0 -15 16v281l-63 -36q-14 -10 -19 6l-19 33q-8 13 5 20l96 55v384q0 15 15 15h127q15 0 15 -15v-294l110 63q15 8 21 -5l18 -32q8 -12 -6 -20z" />
    <glyph glyph-name="ccaron" unicode="&#x142;" horiz-adv-x="326" 
d="M92 774h118q15 0 15 -15v-299l53 30q15 8 21 -5l19 -33q8 -12 -6 -20l-87 -49v-367q0 -16 -15 -16h-118q-15 0 -15 16v281l-38 -22q-14 -10 -19 6l-18 33q-8 13 5 20l70 40v385q0 15 15 15z" />
    <glyph glyph-name="dslash" unicode="&#x143;" horiz-adv-x="785" 
d="M387 992h145q10 0 10 -10v-7q0 -4 -5 -12l-175 -146q-6 -5 -14 0l-43 25q-8 6 -3 14l73 130q3 6 12 6zM572 774h127q15 0 15 -16v-742q0 -16 -15 -16h-93q-32 0 -50 25l-328 481v-490q0 -16 -15 -16h-127q-15 0 -15 16v742q0 16 15 16h99q30 -3 38 -7.5t24 -25.5
l310 -453v470q0 16 15 16z" />
    <glyph glyph-name="nacute" unicode="&#x144;" horiz-adv-x="611" 
d="M299 792h146q10 0 10 -10v-7q0 -4 -5 -12l-176 -146q-5 -5 -14 0l-43 25q-8 6 -3 14l73 130q3 6 12 6zM313 565q79 0 121.5 -9t70.5 -35q29 -26 39.5 -70.5t10.5 -125.5v-309q0 -16 -16 -16h-118q-15 0 -15 16v271q0 62 -3.5 87.5t-16.5 40.5q-12 15 -28.5 18.5
t-58.5 3.5h-91v-421q0 -16 -15 -16h-119q-15 0 -15 16v517q0 6 2 9t4.5 4t8.5 2q79 17 239 17z" />
    <glyph glyph-name="uni0145" unicode="&#x145;" horiz-adv-x="785" 
d="M572 774h127q15 0 15 -16v-742q0 -16 -15 -16h-93q-32 0 -50 25l-328 481v-490q0 -16 -15 -16h-127q-15 0 -15 16v742q0 16 15 16h99q30 -3 38 -7.5t24 -25.5l310 -453v470q0 16 15 16zM341 -40h125q10 0 10 -10v-7q0 -4 -5 -12l-156 -129q-5 -5 -14 0l-35 21q-8 6 -3 14
l66 117q3 6 12 6z" />
    <glyph glyph-name="uni0146" unicode="&#x146;" horiz-adv-x="611" 
d="M313 565q79 0 121.5 -9t70.5 -35q29 -26 39.5 -70.5t10.5 -125.5v-309q0 -16 -16 -16h-118q-15 0 -15 16v271q0 62 -3.5 87.5t-16.5 40.5q-12 15 -28.5 18.5t-58.5 3.5h-91v-421q0 -16 -15 -16h-119q-15 0 -15 16v517q0 6 2 9t4.5 4t8.5 2q79 17 239 17zM241 -40h125
q10 0 10 -10v-7q0 -4 -5 -12l-155 -129q-6 -5 -14 0l-36 21q-8 6 -3 14l66 117q3 6 12 6z" />
    <glyph glyph-name="Ncaron" unicode="&#x147;" horiz-adv-x="785" 
d="M516 989l31 -16q11 -8 4 -17l-96 -133q-6 -8 -20 -8h-85q-15 0 -20 8l-96 133q-8 11 3 17l32 16q9 6 17 0l106 -75l106 75q8 7 18 0zM572 774h127q15 0 15 -16v-742q0 -16 -15 -16h-93q-32 0 -50 25l-328 481v-490q0 -16 -15 -16h-127q-15 0 -15 16v742q0 16 15 16h99
q30 -3 38 -7.5t24 -25.5l310 -453v470q0 16 15 16z" />
    <glyph glyph-name="ncaron" unicode="&#x148;" horiz-adv-x="611" 
d="M429 789l31 -16q11 -6 3 -17l-96 -133q-5 -8 -20 -8h-85q-14 0 -19 8l-96 133q-8 10 3 17l31 16q11 6 18 0l106 -75l106 75q7 6 18 0zM313 565q79 0 121.5 -9t70.5 -35q29 -26 39.5 -70.5t10.5 -125.5v-309q0 -16 -16 -16h-118q-15 0 -15 16v271q0 62 -3.5 87.5
t-16.5 40.5q-12 15 -28.5 18.5t-58.5 3.5h-91v-421q0 -16 -15 -16h-119q-15 0 -15 16v517q0 6 2 9t4.5 4t8.5 2q79 17 239 17z" />
    <glyph glyph-name="napostrophe" unicode="&#x149;" horiz-adv-x="611" 
d="M7 777h132q10 0 10 -10v-7q0 -4 -5 -12l-129 -146q-5 -8 -14 0l-32 24q-8 5 -5 15l29 127q1 9 14 9zM313 565q79 0 121.5 -9t70.5 -35q29 -26 39.5 -70.5t10.5 -125.5v-309q0 -16 -16 -16h-118q-15 0 -15 16v271q0 62 -3.5 87.5t-16.5 40.5q-12 15 -28.5 18.5t-58.5 3.5
h-91v-421q0 -16 -15 -16h-119q-15 0 -15 16v517q0 6 2 9t4.5 4t8.5 2q79 17 239 17z" />
    <glyph glyph-name="Eng" unicode="&#x14a;" horiz-adv-x="784" 
d="M572 774h127q15 0 15 -16v-580q1 -220 -58 -301q-58 -81 -221 -81q-43 0 -104 11q-22 4 -22 25v87q0 15 15 15h83q77 0 111 27.5t33 92.5l-323 452v-490q0 -16 -15 -16h-127q-15 0 -15 16v742q0 16 15 16h99q30 -3 38 -7.5t24 -25.5l310 -453v470q0 16 15 16z" />
    <glyph glyph-name="eng" unicode="&#x14b;" horiz-adv-x="611" 
d="M313 565q79 0 121.5 -9t70.5 -35q29 -26 39.5 -70.5t10.5 -125.5v-406q0 -77 -35 -101q-34 -25 -107 -25q-45 0 -82 8q-16 6 -16 20v85q0 16 17 16h25q32 0 40.5 7.5t8.5 37.5v320q0 62 -3.5 87.5t-16.5 40.5q-12 15 -28.5 18.5t-58.5 3.5h-91v-421q0 -16 -15 -16h-119
q-15 0 -15 16v517q0 6 2 9t4.5 4t8.5 2q79 17 239 17z" />
    <glyph glyph-name="Omacron" unicode="&#x14c;" horiz-adv-x="742" 
d="M226 939h289q15 0 15 -15v-61q0 -15 -15 -15h-289q-15 0 -15 15v61q0 15 15 15zM695 386q0 -228 -67 -310q-68 -81 -257 -81t-257 81q-67 82 -67 310q0 121 15 192.5t52 117.5q37 47 96.5 65.5t160.5 18.5t160.5 -18.5t96.5 -65.5q37 -46 52 -117.5t15 -192.5zM206 386
q0 -149 32 -202q31 -52 133 -52t133 52q32 53 32 202q0 151 -32 204t-133 53t-133 -53t-32 -204z" />
    <glyph glyph-name="omacron" unicode="&#x14d;" horiz-adv-x="596" 
d="M153 739h290q15 0 15 -15v-61q0 -15 -15 -15h-290q-15 0 -15 15v61q0 15 15 15zM298 565q83 0 129.5 -12.5t75.5 -45.5q29 -32 39.5 -83t10.5 -144q0 -171 -50 -229q-50 -56 -205 -56t-205 56q-50 58 -50 229q0 172 50 228q50 57 205 57zM298 437q-68 0 -87 -31
q-19 -29 -19 -126q0 -96 19 -127q19 -30 87 -30t87 30q20 32 20 127t-20 126q-19 31 -87 31z" />
    <glyph glyph-name="Obreve" unicode="&#x14e;" horiz-adv-x="742" 
d="M472 980h58q17 0 14 -15q-10 -76 -49 -107q-37 -30 -124 -30t-126 30q-38 30 -48 106q-3 16 14 16h58q13 0 17 -12q13 -28 31.5 -39t53.5 -11t53.5 11t30.5 39q5 12 17 12zM695 386q0 -228 -67 -310q-68 -81 -257 -81t-257 81q-67 82 -67 310q0 121 15 192.5t52 117.5
q37 47 96.5 65.5t160.5 18.5t160.5 -18.5t96.5 -65.5q37 -46 52 -117.5t15 -192.5zM206 386q0 -149 32 -202q31 -52 133 -52t133 52q32 53 32 202q0 151 -32 204t-133 53t-133 -53t-32 -204z" />
    <glyph glyph-name="obreve" unicode="&#x14f;" horiz-adv-x="596" 
d="M400 780h58q17 0 14 -15q-11 -77 -49 -107t-124 -30q-87 0 -126 30q-38 30 -48 106q-3 16 14 16h58q13 0 17 -12q12 -28 30.5 -39t54.5 -11q35 0 53 11t31 39q5 12 17 12zM298 565q83 0 129.5 -12.5t75.5 -45.5q29 -32 39.5 -83t10.5 -144q0 -171 -50 -229
q-50 -56 -205 -56t-205 56q-50 58 -50 229q0 172 50 228q50 57 205 57zM298 437q-68 0 -87 -31q-19 -29 -19 -126q0 -96 19 -127q19 -30 87 -30t87 30q20 32 20 127t-20 126q-19 31 -87 31z" />
    <glyph glyph-name="Ohungarumlaut" unicode="&#x150;" horiz-adv-x="742" 
d="M326 992h96q10 0 10 -10v-7q0 -7 -5 -12l-147 -138q-6 -6 -14 0l-22 17q-8 6 -3 14l73 130q3 6 12 6zM512 992h97q10 0 10 -10v-7q0 -7 -5 -12l-147 -138q-6 -6 -14 0l-23 17q-8 6 -3 14l73 130q3 6 12 6zM695 386q0 -228 -67 -310q-68 -81 -257 -81t-257 81
q-67 82 -67 310q0 121 15 192.5t52 117.5q37 47 96.5 65.5t160.5 18.5t160.5 -18.5t96.5 -65.5q37 -46 52 -117.5t15 -192.5zM206 386q0 -149 32 -202q31 -52 133 -52t133 52q32 53 32 202q0 151 -32 204t-133 53t-133 -53t-32 -204z" />
    <glyph glyph-name="ohungarumlaut" unicode="&#x151;" horiz-adv-x="596" 
d="M249 792h97q10 0 10 -10v-7q0 -7 -5 -12l-147 -138q-6 -6 -14 0l-23 17q-8 6 -3 14l73 130q3 6 12 6zM436 792h97q10 0 10 -10v-7q0 -7 -5 -12l-147 -138q-6 -6 -14 0l-23 17q-8 6 -3 14l73 130q3 6 12 6zM298 565q83 0 129.5 -12.5t75.5 -45.5q29 -32 39.5 -83
t10.5 -144q0 -171 -50 -229q-50 -56 -205 -56t-205 56q-50 58 -50 229q0 172 50 228q50 57 205 57zM298 437q-68 0 -87 -31q-19 -29 -19 -126q0 -96 19 -127q19 -30 87 -30t87 30q20 32 20 127t-20 126q-19 31 -87 31z" />
    <glyph glyph-name="OE.001" unicode="&#x152;" horiz-adv-x="1068" 
d="M371 780l350 -6h286q15 0 15 -15v-107q0 -15 -15 -15h-351v-189h320q16 0 16 -15v-102q0 -15 -16 -15h-320v-179h351q15 0 15 -15v-107q0 -15 -15 -15l-636 -5q-130 -2 -198 34q-69 36 -98 119q-28 81 -28 238q0 231 67 313q68 83 257 81zM498 132v511h-127
q-101 0 -133 -53t-32 -204q0 -149 32 -202q31 -52 133 -52h127z" />
    <glyph glyph-name="oe" unicode="&#x153;" horiz-adv-x="937" 
d="M657 565q148 0 196 -55q48 -54 50 -223v-31q0 -15 -7 -21t-25 -6h-314q2 -67 24 -86q23 -20 90 -20h177q15 0 15 -15v-83q0 -14 -14 -16q-72 -14 -192 -14q-125 0 -177 49q-52 -49 -182 -49q-155 0 -205 56q-50 58 -50 229q0 172 50 228q50 57 205 57q128 0 182 -48
q52 48 177 48zM298 437q-68 0 -87 -31q-19 -29 -19 -126q0 -96 19 -127q19 -30 87 -30t87 30q20 32 20 127t-20 126q-19 31 -87 31zM657 437q-57 0 -78.5 -23t-22.5 -88h198q0 65 -20.5 88t-76.5 23z" />
    <glyph glyph-name="Racute" unicode="&#x154;" horiz-adv-x="692" 
d="M346 992h145q10 0 10 -10v-7q0 -4 -5 -12l-175 -146q-6 -5 -14 0l-43 25q-8 6 -3 14l73 130q3 6 12 6zM352 780q167 0 229 -55q64 -54 64 -202q0 -113 -34 -165q-35 -52 -119 -68l170 -270q6 -8 2.5 -14t-14.5 -6h-126q-25 0 -40 22l-164 258h-92v-264q0 -10 -3 -13
t-12 -3h-127q-9 0 -12 3t-3 13v739q0 8 3 10.5t12 3.5q127 11 266 11zM336 643h-108v-242h108q92 0 121 21q29 23 29 97q0 75 -30 99q-29 25 -120 25z" />
    <glyph glyph-name="racute" unicode="&#x155;" horiz-adv-x="401" 
d="M232 792h145q10 0 10 -10v-7q0 -7 -5 -12l-175 -146q-6 -5 -14 0l-43 25q-8 6 -3 14l73 130q3 6 12 6zM239 565q83 0 133 -11q16 -4 16 -20v-82q0 -15 -17 -15h-94q-42 0 -56 -10t-14 -41v-370q0 -16 -15 -16h-119q-15 0 -15 16v408q0 69 37 104q44 37 144 37z" />
    <glyph glyph-name="uni0156" unicode="&#x156;" horiz-adv-x="692" 
d="M352 780q167 0 229 -55q64 -54 64 -202q0 -113 -34 -165q-35 -52 -119 -68l170 -270q6 -8 2.5 -14t-14.5 -6h-126q-25 0 -40 22l-164 258h-92v-264q0 -10 -3 -13t-12 -3h-127q-9 0 -12 3t-3 13v739q0 8 3 10.5t12 3.5q127 11 266 11zM336 643h-108v-242h108q92 0 121 21
q29 23 29 97q0 75 -30 99q-29 25 -120 25zM305 -40h125q10 0 10 -10v-7q0 -4 -5 -12l-155 -129q-6 -5 -14 0l-36 21q-8 6 -3 14l66 117q3 6 12 6z" />
    <glyph glyph-name="uni0157" unicode="&#x157;" horiz-adv-x="401" 
d="M239 565q83 0 133 -11q16 -4 16 -20v-82q0 -15 -17 -15h-94q-42 0 -56 -10t-14 -41v-370q0 -16 -15 -16h-119q-15 0 -15 16v408q0 69 37 104q44 37 144 37zM68 -40h125q10 0 10 -10v-7q0 -4 -5 -12l-155 -129q-6 -5 -14 0l-36 21q-8 6 -3 14l66 117q3 6 12 6z" />
    <glyph glyph-name="Rcaron" unicode="&#x158;" horiz-adv-x="692" 
d="M467 989l31 -16q11 -8 4 -17l-96 -133q-6 -8 -20 -8h-85q-15 0 -20 8l-96 133q-8 11 4 17l31 16q9 6 17 0l107 -75l106 75q8 6 17 0zM352 780q167 0 229 -55q64 -54 64 -202q0 -113 -34 -165q-35 -52 -119 -68l170 -270q6 -8 2.5 -14t-14.5 -6h-126q-25 0 -40 22
l-164 258h-92v-264q0 -10 -3 -13t-12 -3h-127q-9 0 -12 3t-3 13v739q0 8 3 10.5t12 3.5q127 11 266 11zM336 643h-108v-242h108q92 0 121 21q29 23 29 97q0 75 -30 99q-29 25 -120 25z" />
    <glyph glyph-name="rcaron" unicode="&#x159;" horiz-adv-x="401" 
d="M326 789l31 -16q11 -8 4 -17l-96 -133q-6 -8 -20 -8h-85q-15 0 -20 8l-96 133q-8 11 3 17l32 16q9 6 17 0l106 -75l106 75q9 6 18 0zM239 565q83 0 133 -11q16 -4 16 -20v-82q0 -15 -17 -15h-94q-42 0 -56 -10t-14 -41v-370q0 -16 -15 -16h-119q-15 0 -15 16v408
q0 69 37 104q44 37 144 37z" />
    <glyph glyph-name="Sacute" unicode="&#x15a;" horiz-adv-x="625" 
d="M322 992h145q10 0 10 -10v-7q0 -7 -5 -12l-175 -146q-5 -5 -14 0l-43 25q-8 6 -3 14l73 130q3 6 12 6zM328 780q95 0 209 -20q18 -6 18 -18v-81q0 -18 -19 -18h-237q-92 0 -92 -65v-14q0 -52 59 -75l187 -73q75 -30 107 -74t32 -127v-28q0 -102 -71.5 -147t-216.5 -45
q-115 0 -247 21q-17 5 -17 22v76q0 18 19 18h284q91 0 91 62v13q0 32 -16 50t-56 33l-195 73q-63 24 -91 71t-28 133v22q0 103 67.5 147t212.5 44z" />
    <glyph glyph-name="sacute" unicode="&#x15b;" horiz-adv-x="506" 
d="M273 792h145q10 0 10 -10v-7q0 -7 -5 -12l-175 -146q-6 -5 -14 0l-43 25q-8 6 -3 14l73 130q3 6 12 6zM274 565q86 0 158 -13q16 -4 16 -16v-76q0 -16 -17 -16h-180q-59 0 -59 -36v-10q0 -30 48 -46l128 -45q58 -20 81.5 -55.5t23.5 -94.5v-16q0 -79 -52.5 -112.5
t-160.5 -33.5q-116 0 -207 10q-17 0 -17 15v81q0 15 17 15h205q40 0 54.5 7t14.5 27v9q0 15 -11.5 25.5t-43.5 21.5l-123 44q-102 34 -102 152v19q0 76 56 110t171 34z" />
    <glyph glyph-name="Scircumflex" unicode="&#x15c;" horiz-adv-x="625" 
d="M270 992h85q14 0 20 -8l95 -133q8 -10 -3 -17l-31 -16q-10 -8 -18 0l-106 75l-106 -75q-8 -6 -17 0l-32 16q-11 6 -3 17l96 133q5 8 20 8zM328 780q95 0 209 -20q18 -6 18 -18v-81q0 -18 -19 -18h-237q-92 0 -92 -65v-14q0 -52 59 -75l187 -73q75 -30 107 -74t32 -127
v-28q0 -102 -71.5 -147t-216.5 -45q-115 0 -247 21q-17 5 -17 22v76q0 18 19 18h284q91 0 91 62v13q0 32 -16 50t-56 33l-195 73q-63 24 -91 71t-28 133v22q0 103 67.5 147t212.5 44z" />
    <glyph glyph-name="scircumflex" unicode="&#x15d;" horiz-adv-x="506" 
d="M218 792h84q15 0 20 -8l96 -133q8 -11 -3 -17l-31 -16q-10 -6 -18 0l-106 75l-106 -75q-8 -6 -18 0l-31 16q-11 6 -3 17l96 133q5 8 20 8zM274 565q86 0 158 -13q16 -4 16 -16v-76q0 -16 -17 -16h-180q-59 0 -59 -36v-10q0 -30 48 -46l128 -45q58 -20 81.5 -55.5
t23.5 -94.5v-16q0 -79 -52.5 -112.5t-160.5 -33.5q-116 0 -207 10q-17 0 -17 15v81q0 15 17 15h205q40 0 54.5 7t14.5 27v9q0 15 -11.5 25.5t-43.5 21.5l-123 44q-102 34 -102 152v19q0 76 56 110t171 34z" />
    <glyph glyph-name="Scedilla" unicode="&#x15e;" horiz-adv-x="625" 
d="M328 780q86 0 209 -20q18 -6 18 -18v-81q0 -18 -19 -18h-237q-92 0 -92 -65v-14q0 -52 59 -75l187 -73q75 -30 107 -74t32 -127v-28q0 -85 -49.5 -130t-147.5 -57q17 -56 17 -99q0 -41 -25.5 -59.5t-79.5 -18.5q-59 0 -80 8q-12 5 -12 18v61q0 14 14 14h36q32 0 42 4
t13 22q0 10 -5 45h-11q-115 0 -247 21q-17 5 -17 22v76q0 18 19 18h284q91 0 91 62v13q0 32 -16 50t-56 33l-195 73q-63 24 -91 71t-28 133v22q0 103 67.5 147t212.5 44z" />
    <glyph glyph-name="scedilla" unicode="&#x15f;" horiz-adv-x="506" 
d="M240 352l128 -45q58 -20 81.5 -55.5t23.5 -94.5v-16q0 -120 -131 -140q18 -58 18 -100q0 -41 -25.5 -59.5t-79.5 -18.5q-59 0 -80 8q-12 5 -12 18v61q0 14 14 14h36q32 0 42 4t13 22q0 12 -5 45h-3q-116 0 -207 10q-17 0 -17 15v81q0 15 17 15h205q40 0 54.5 7t14.5 27v9
q0 15 -11.5 25.5t-43.5 21.5l-123 44q-102 34 -102 152v19q0 76 56 110t171 34q86 0 158 -13q16 -4 16 -16v-76q0 -16 -17 -16h-180q-59 0 -59 -36v-10q0 -30 48 -46z" />
    <glyph glyph-name="Scaron" unicode="&#x160;" horiz-adv-x="625" 
d="M436 989l31 -16q11 -7 3 -17l-95 -133q-6 -8 -20 -8h-85q-15 0 -20 8l-96 133q-8 11 3 17l32 16q9 6 17 0l106 -75l106 75q8 7 18 0zM328 780q95 0 209 -20q18 -6 18 -18v-81q0 -18 -19 -18h-237q-92 0 -92 -65v-14q0 -52 59 -75l187 -73q75 -30 107 -74t32 -127v-28
q0 -102 -71.5 -147t-216.5 -45q-115 0 -247 21q-17 5 -17 22v76q0 18 19 18h284q91 0 91 62v13q0 32 -16 50t-56 33l-195 73q-63 24 -91 71t-28 133v22q0 103 67.5 147t212.5 44z" />
    <glyph glyph-name="scaron" unicode="&#x161;" horiz-adv-x="506" 
d="M384 789l31 -16q11 -6 3 -17l-96 -133q-5 -8 -20 -8h-84q-15 0 -20 8l-96 133q-8 11 3 17l31 16q10 6 18 0l106 -75l106 75q8 6 18 0zM274 565q86 0 158 -13q16 -4 16 -16v-76q0 -16 -17 -16h-180q-59 0 -59 -36v-10q0 -30 48 -46l128 -45q58 -20 81.5 -55.5t23.5 -94.5
v-16q0 -79 -52.5 -112.5t-160.5 -33.5q-116 0 -207 10q-17 0 -17 15v81q0 15 17 15h205q40 0 54.5 7t14.5 27v9q0 15 -11.5 25.5t-43.5 21.5l-123 44q-102 34 -102 152v19q0 76 56 110t171 34z" />
    <glyph glyph-name="uni0162" unicode="&#x162;" horiz-adv-x="638" 
d="M31 774h575q16 0 16 -15v-107q0 -15 -16 -15h-209v-621q20 -75 20 -115q0 -41 -25.5 -59.5t-79.5 -18.5q-58 0 -79 8q-12 5 -12 18v61q0 14 14 14h35q32 0 41.5 4t13.5 22q0 17 -6 50h-64q-15 0 -15 16v621h-209q-15 0 -15 15v107q0 15 15 15z" />
    <glyph glyph-name="uni0163" unicode="&#x163;" horiz-adv-x="380" 
d="M302 123h41q17 0 17 -15v-85q0 -16 -16 -19q-39 -8 -67 -9q17 -59 17 -94q0 -41 -25.5 -59.5t-80.5 -18.5q-58 0 -79 8q-12 5 -12 18v61q0 14 14 14h35q32 0 41.5 4t13.5 22q0 13 -5 48q-51 6 -76 34.5t-25 91.5v323h-59q-16 0 -16 15v80q0 15 16 15h59v111q0 13 14 16
l118 31q16 4 16 -15v-143h92q17 0 17 -15v-80q0 -15 -17 -15h-92v-273q0 -30 12.5 -40.5t46.5 -10.5z" />
    <glyph glyph-name="Tcaron" unicode="&#x164;" horiz-adv-x="638" 
d="M442 989l31 -16q11 -8 4 -17l-96 -133q-6 -8 -20 -8h-85q-15 0 -20 8l-96 133q-8 11 4 17l31 16q9 6 17 0l107 -75l106 75q8 6 17 0zM31 774h575q16 0 16 -15v-107q0 -15 -16 -15h-209v-621q0 -16 -15 -16h-127q-15 0 -15 16v621h-209q-15 0 -15 15v107q0 15 15 15z" />
    <glyph glyph-name="tcaron" unicode="&#x165;" horiz-adv-x="402" 
d="M359 777h132q10 0 10 -10v-7q0 -7 -5 -12l-128 -137q-7 -7 -15 -1l-32 16q-7 4 -5 15l29 127q1 9 14 9zM109 684l118 31q16 4 16 -15v-143h92q17 0 17 -15v-80q0 -15 -17 -15h-92v-273q0 -30 12.5 -40.5t46.5 -10.5h41q17 0 17 -15v-85q0 -16 -16 -19q-45 -9 -85 -9
q-61 0 -94 9q-35 10 -51 36.5t-19 83.5v323h-59q-16 0 -16 15v80q0 15 16 15h59v111q0 13 14 16z" />
    <glyph glyph-name="Tbar" unicode="&#x166;" horiz-adv-x="656" 
d="M40 774h575q16 0 16 -15v-107q0 -15 -16 -15h-209v-210h146q15 0 15 -15v-58q0 -15 -15 -15h-146v-323q0 -16 -15 -16h-127q-15 0 -15 16v323h-145q-15 0 -15 15v58q0 15 15 15h145v210h-209q-15 0 -15 15v107q0 15 15 15z" />
    <glyph glyph-name="tbar" unicode="&#x167;" horiz-adv-x="380" 
d="M302 123h41q17 0 17 -15v-85q0 -16 -16 -19q-45 -9 -85 -9q-61 0 -94 9q-35 10 -51 36.5t-19 83.5v138h-35q-15 0 -15 15v51q0 15 15 15h35v104h-59q-16 0 -16 15v80q0 15 16 15h59v111q0 13 14 16l118 31q16 4 16 -15v-143h92q17 0 17 -15v-80q0 -15 -17 -15h-92v-104
h68q15 0 15 -15v-51q0 -15 -15 -15h-68v-88q0 -30 12.5 -40.5t46.5 -10.5z" />
    <glyph glyph-name="Utilde" unicode="&#x168;" horiz-adv-x="763" 
d="M304 976q27 0 78 -20q50 -19 65 -19q17 0 26.5 7t17.5 26q6 14 19 10l43 -12q14 -5 10 -20q-17 -68 -39 -92t-66 -24q-29 0 -79 19q-51 20 -64 20q-17 0 -26 -7t-18 -26q-6 -14 -18 -10l-43 12q-14 5 -11 21q18 67 39 91q22 24 66 24zM556 774h127q15 0 15 -15v-373
q0 -184 -38 -273q-33 -67 -95.5 -91.5t-182.5 -26.5q-101 0 -159 17t-94 62t-50 116.5t-14 195.5v373q0 15 15 15h127q15 0 15 -15v-373q0 -151 32 -203q31 -51 128 -51q96 0 127 51q32 52 32 203v373q0 15 15 15z" />
    <glyph glyph-name="utilde" unicode="&#x169;" horiz-adv-x="610" 
d="M218 776q27 0 78 -20q50 -19 65 -19q17 0 26.5 7t18.5 26q5 14 18 10l43 -12q14 -5 10 -20q-17 -68 -39 -92t-66 -24q-30 0 -78 19q-51 20 -64 20q-17 0 -26.5 -7t-18.5 -26q-6 -14 -18 -10l-43 12q-14 5 -11 21q18 67 39 91q22 24 66 24zM417 560h120q14 0 14 -15v-516
q0 -9 -2.5 -12t-11.5 -5q-91 -17 -240 -17q-79 0 -121 9t-71 35q-28 26 -38.5 70.5t-10.5 126.5v309q0 15 16 15h118q14 0 14 -15v-271q0 -74 9 -105q9 -29 28 -37.5t71 -8.5h90v422q0 15 15 15z" />
    <glyph glyph-name="Umacron" unicode="&#x16a;" horiz-adv-x="763" 
d="M237 939h289q15 0 15 -15v-61q0 -15 -15 -15h-289q-15 0 -15 15v61q0 15 15 15zM556 774h127q15 0 15 -15v-373q0 -184 -38 -273q-33 -67 -95.5 -91.5t-182.5 -26.5q-101 0 -159 17t-94 62t-50 116.5t-14 195.5v373q0 15 15 15h127q15 0 15 -15v-373q0 -151 32 -203
q31 -51 128 -51q96 0 127 51q32 52 32 203v373q0 15 15 15z" />
    <glyph glyph-name="umacron" unicode="&#x16b;" horiz-adv-x="610" 
d="M151 739h289q15 0 15 -15v-61q0 -15 -15 -15h-289q-15 0 -15 15v61q0 15 15 15zM417 560h120q14 0 14 -15v-516q0 -9 -2.5 -12t-11.5 -5q-91 -17 -240 -17q-79 0 -121 9t-71 35q-28 26 -38.5 70.5t-10.5 126.5v309q0 15 16 15h118q14 0 14 -15v-271q0 -74 9 -105
q9 -29 28 -37.5t71 -8.5h90v422q0 15 15 15z" />
    <glyph glyph-name="Ubreve" unicode="&#x16c;" horiz-adv-x="763" 
d="M483 980h58q17 0 14 -15q-10 -76 -49 -107q-38 -30 -124 -30q-87 0 -126 30q-38 30 -48 106q-3 16 14 16h58q12 0 17 -12q12 -28 30.5 -39t54.5 -11q35 0 53 11t31 39q4 12 17 12zM556 774h127q15 0 15 -15v-373q0 -184 -38 -273q-33 -67 -95.5 -91.5t-182.5 -26.5
q-101 0 -159 17t-94 62t-50 116.5t-14 195.5v373q0 15 15 15h127q15 0 15 -15v-373q0 -151 32 -203q31 -51 128 -51q96 0 127 51q32 52 32 203v373q0 15 15 15z" />
    <glyph glyph-name="ubreve" unicode="&#x16d;" horiz-adv-x="610" 
d="M397 780h58q17 0 14 -15q-10 -76 -49 -107q-38 -30 -124 -30q-87 0 -126 30q-38 30 -48 106q-3 16 14 16h58q12 0 17 -12q12 -28 30.5 -39t54.5 -11q35 0 53 11t31 39q4 12 17 12zM417 560h120q14 0 14 -15v-516q0 -9 -2.5 -12t-11.5 -5q-91 -17 -240 -17q-79 0 -121 9
t-71 35q-28 26 -38.5 70.5t-10.5 126.5v309q0 15 16 15h118q14 0 14 -15v-271q0 -74 9 -105q9 -29 28 -37.5t71 -8.5h90v422q0 15 15 15z" />
    <glyph glyph-name="Uring" unicode="&#x16e;" horiz-adv-x="763" 
d="M382 1037q116 0 116 -112t-116 -112q-117 0 -117 112t117 112zM444 925q0 62 -62 62t-62 -62t62 -62t62 62zM556 774h127q15 0 15 -15v-373q0 -184 -38 -273q-33 -67 -95.5 -91.5t-182.5 -26.5q-101 0 -159 17t-94 62t-50 116.5t-14 195.5v373q0 15 15 15h127
q15 0 15 -15v-373q0 -151 32 -203q31 -51 128 -51q96 0 127 51q32 52 32 203v373q0 15 15 15z" />
    <glyph glyph-name="uring" unicode="&#x16f;" horiz-adv-x="610" 
d="M179 725q0 112 117 112t117 -112t-117 -112t-117 112zM358 725q0 62 -62 62t-62 -62t62 -62t62 62zM417 560h120q14 0 14 -15v-516q0 -9 -2.5 -12t-11.5 -5q-91 -17 -240 -17q-79 0 -121 9t-71 35q-28 26 -38.5 70.5t-10.5 126.5v309q0 15 16 15h118q14 0 14 -15v-271
q0 -74 9 -105q9 -29 28 -37.5t71 -8.5h90v422q0 15 15 15z" />
    <glyph glyph-name="Uhungarumlaut" unicode="&#x170;" horiz-adv-x="763" 
d="M308 992h97q10 0 10 -10v-7q0 -7 -5 -12l-147 -138q-6 -6 -14 0l-23 17q-8 6 -3 14l73 130q3 6 12 6zM495 992h97q10 0 10 -10v-7q0 -7 -5 -12l-147 -138q-6 -6 -14 0l-23 17q-8 6 -3 14l73 130q3 6 12 6zM556 774h127q15 0 15 -15v-373q0 -184 -38 -273
q-33 -67 -95.5 -91.5t-182.5 -26.5q-101 0 -159 17t-94 62t-50 116.5t-14 195.5v373q0 15 15 15h127q15 0 15 -15v-373q0 -151 32 -203q31 -51 128 -51q96 0 127 51q32 52 32 203v373q0 15 15 15z" />
    <glyph glyph-name="uhungarumlaut" unicode="&#x171;" horiz-adv-x="610" 
d="M238 792h96q10 0 10 -10v-7q0 -7 -5 -12l-146 -138q-6 -6 -14 0l-23 17q-8 6 -3 14l73 130q3 6 12 6zM425 792h97q10 0 10 -10v-7q0 -4 -5 -12l-148 -138q-6 -6 -14 0l-22 17q-8 6 -3 14l73 130q3 6 12 6zM417 560h120q14 0 14 -15v-516q0 -9 -2.5 -12t-11.5 -5
q-91 -17 -240 -17q-79 0 -121 9t-71 35q-28 26 -38.5 70.5t-10.5 126.5v309q0 15 16 15h118q14 0 14 -15v-271q0 -74 9 -105q9 -29 28 -37.5t71 -8.5h90v422q0 15 15 15z" />
    <glyph glyph-name="Uogonek" unicode="&#x172;" horiz-adv-x="763" 
d="M556 774h127q15 0 15 -15v-373q0 -221 -55 -301q-54 -80 -212 -88q-5 -28 -5 -47q0 -17 11 -21.5t44 -4.5h35q14 0 14 -14v-61q0 -13 -12 -18q-21 -8 -80 -8q-54 0 -79.5 18.5t-25.5 59.5q0 40 16 95q-168 4 -227 84q-57 81 -57 306v373q0 15 15 15h127q15 0 15 -15v-373
q0 -151 32 -203q31 -51 128 -51q96 0 127 51q32 52 32 203v373q0 15 15 15z" />
    <glyph glyph-name="uogonek" unicode="&#x173;" horiz-adv-x="610" 
d="M417 560h120q14 0 14 -15v-516q0 -9 -2.5 -12t-11.5 -5q-37 -7 -76 -10q-7 -25 -7 -52q0 -17 11 -21.5t44 -4.5h36q13 0 13 -14v-61q0 -13 -12 -18q-21 -8 -79 -8q-54 0 -79.5 18.5t-25.5 59.5q0 47 16 95q-19 -1 -81 -1q-79 0 -121 9t-71 35q-28 26 -38.5 70.5
t-10.5 126.5v309q0 15 16 15h118q14 0 14 -15v-271q0 -74 9 -105q9 -29 28 -37.5t71 -8.5h90v422q0 15 15 15z" />
    <glyph glyph-name="Wcircumflex" unicode="&#x174;" horiz-adv-x="1101" 
d="M508 992h85q14 0 20 -8l96 -133q7 -9 -4 -17l-31 -16q-9 -6 -17 0l-106 75l-107 -75q-8 -6 -17 0l-31 16q-12 6 -4 17l96 133q6 8 20 8zM932 774h132q17 0 14 -16l-125 -644q-15 -79 -41 -99t-108 -20q-94 0 -119 19q-26 20 -45 100l-89 378l-90 -378q-9 -34 -13 -48
t-14.5 -31t-16 -21t-26.5 -10t-37.5 -6.5t-55.5 -2.5q-83 0 -109 20q-24 19 -41 99l-124 644q-3 16 13 16h133q11 0 14 -16l107 -573q4 -18 8.5 -24t14.5 -6q12 0 16.5 5.5t9.5 24.5l131 546q4 16 21 16h118q16 0 20 -16l132 -546q6 -20 9.5 -25t15.5 -5q10 0 14.5 6t8.5 24
l107 573q2 10 5 13t10 3z" />
    <glyph glyph-name="wcircumflex" unicode="&#x175;" horiz-adv-x="884" 
d="M400 792h84q15 0 20 -8l96 -133q8 -11 -3 -17l-31 -16q-10 -6 -18 0l-106 75l-106 -75q-8 -6 -18 0l-31 16q-11 6 -3 17l96 133q5 8 20 8zM722 560h127q14 0 12 -14l-86 -451q-12 -65 -39 -83q-26 -17 -98 -17q-86 0 -109 16q-23 17 -38 84l-49 222l-49 -222
q-13 -67 -38 -84q-22 -16 -108 -16q-71 0 -99 17q-25 18 -39 83l-85 451q-3 14 12 14h127q8 0 11 -14l69 -408q3 -12 6 -15.5t10 -3.5q8 0 11 3t5 16l93 391q5 14 16 14h117q12 0 15 -14l93 -391q3 -13 5.5 -16t10.5 -3q7 0 10.5 3.5t6.5 15.5l69 408q3 14 11 14z" />
    <glyph glyph-name="Ycircumflex" unicode="&#x176;" horiz-adv-x="713" 
d="M314 992h85q14 0 20 -8l96 -133q8 -11 -4 -17l-31 -16q-9 -6 -17 0l-106 75l-107 -75q-8 -6 -17 0l-31 16q-11 8 -4 17l96 133q6 8 20 8zM558 774h141q23 0 11 -22l-275 -504v-232q0 -16 -15 -16h-127q-15 0 -15 16v234l-275 502q-12 22 11 22h141q17 0 27 -16l174 -352
l175 352q9 16 27 16z" />
    <glyph glyph-name="ycircumflex" unicode="&#x177;" horiz-adv-x="622" 
d="M267 792h85q14 0 20 -8l96 -133q7 -9 -4 -17l-31 -16q-9 -6 -18 0l-105 75l-107 -75q-8 -6 -17 0l-32 16q-11 6 -3 17l96 133q5 8 20 8zM428 560h119q15 0 15 -15v-533q0 -95 -25 -141q-20 -41 -72.5 -59.5t-147.5 -18.5q-106 0 -188 14q-14 2 -14 16v76q0 15 14 15h175
q65 0 87 17.5t22 68.5v6q-61 -11 -122 -11q-135 0 -186 57q-50 59 -50 201v292q0 15 15 15h119q15 0 15 -15v-264q0 -98 22 -127q22 -30 98 -30q54 0 89 6v415q0 15 15 15z" />
    <glyph glyph-name="Ydieresis" unicode="&#x178;" horiz-adv-x="713" 
d="M247 976q76 0 76 -73q0 -74 -76 -74q-78 0 -78 74q0 73 78 73zM468 976q37 0 57 -19t20 -54t-20 -54.5t-57 -19.5q-78 0 -78 74q0 73 78 73zM558 774h141q23 0 11 -22l-275 -504v-232q0 -16 -15 -16h-127q-15 0 -15 16v234l-275 502q-12 22 11 22h141q17 0 27 -16
l174 -352l175 352q9 16 27 16z" />
    <glyph glyph-name="Zacute" unicode="&#x179;" horiz-adv-x="688" 
d="M338 992h145q10 0 10 -10v-7q0 -7 -5 -12l-175 -146q-6 -5 -14 0l-43 25q-8 6 -3 14l73 130q3 6 12 6zM57 774h575q15 0 15 -15v-97q0 -13 -7 -20l-402 -505h402q16 0 16 -15v-106q0 -16 -16 -16h-594q-15 0 -15 16l-1 95q0 12 7 20l402 506h-381q-16 0 -16 15l-1 107
q0 15 16 15z" />
    <glyph glyph-name="zacute" unicode="&#x17a;" horiz-adv-x="542" 
d="M266 792h145q10 0 10 -10v-7q0 -4 -5 -12l-175 -146q-6 -5 -14 0l-43 25q-8 6 -3 14l73 130q3 6 12 6zM59 560h422q17 0 17 -15v-68q0 -9 -7 -19l-246 -330h249q17 0 17 -15v-97q0 -16 -17 -16h-446q-18 0 -18 16v65q0 9 7 19l254 335h-232q-17 0 -17 15v95q0 15 17 15z
" />
    <glyph glyph-name="Zdotaccent" unicode="&#x17b;" horiz-adv-x="688" 
d="M344 978q82 0 82 -75q0 -76 -82 -76q-84 0 -84 76q0 75 84 75zM57 774h575q15 0 15 -15v-97q0 -13 -7 -20l-402 -505h402q16 0 16 -15v-106q0 -16 -16 -16h-594q-15 0 -15 16l-1 95q0 12 7 20l402 506h-381q-16 0 -16 15l-1 107q0 15 16 15z" />
    <glyph glyph-name="zdotaccent" unicode="&#x17c;" horiz-adv-x="542" 
d="M272 778q82 0 82 -75q0 -76 -82 -76q-84 0 -84 76q0 75 84 75zM59 560h422q17 0 17 -15v-68q0 -9 -7 -19l-246 -330h249q17 0 17 -15v-97q0 -16 -17 -16h-446q-18 0 -18 16v65q0 9 7 19l254 335h-232q-17 0 -17 15v95q0 15 17 15z" />
    <glyph glyph-name="Zcaron.001" unicode="&#x17d;" horiz-adv-x="688" 
d="M467 989l31 -16q11 -8 4 -17l-96 -133q-6 -8 -20 -8h-85q-14 0 -20 8l-96 133q-8 11 4 17l31 16q9 6 17 0l107 -75l106 75q8 6 17 0zM57 774h575q15 0 15 -15v-97q0 -13 -7 -20l-402 -505h402q16 0 16 -15v-106q0 -16 -16 -16h-594q-15 0 -15 16l-1 95q0 12 7 20l402 506
h-381q-16 0 -16 15l-1 107q0 15 16 15z" />
    <glyph glyph-name="zcaron.001" unicode="&#x17e;" horiz-adv-x="542" 
d="M395 789l31 -16q11 -8 4 -17l-96 -133q-6 -8 -20 -8h-85q-15 0 -20 8l-96 133q-8 11 3 17l32 16q9 6 17 0l107 -75l105 75q9 6 18 0zM59 560h422q17 0 17 -15v-68q0 -9 -7 -19l-246 -330h249q17 0 17 -15v-97q0 -16 -17 -16h-446q-18 0 -18 16v65q0 9 7 19l254 335h-232
q-17 0 -17 15v95q0 15 17 15z" />
    <glyph glyph-name="florin" unicode="&#x192;" horiz-adv-x="605" 
d="M469 779q57 0 106 -12q22 -1 19 -22l-11 -80q-3 -14 -18 -14h-75q-33 0 -48 -9.5t-19 -33.5l-15 -114h110q15 0 15 -15v-85q0 -15 -15 -15h-126l-35 -247q-10 -71 -49 -103q-18 -15 -42 -22q-36 -12 -98 -12q-56 0 -106 12q-22 1 -20 22l12 83q1 11 14 11h79q61 0 66 44
l30 212h-61q-17 0 -17 20v81q0 14 15 14h79l21 148q12 90 69 116q48 21 120 21z" />
    <glyph glyph-name="uni01CD" unicode="&#x1cd;" horiz-adv-x="711" 
d="M478 989l31 -16q11 -6 3 -17l-96 -133q-5 -8 -20 -8h-84q-15 0 -20 8l-96 133q-8 11 3 17l31 16q10 6 18 0l106 -75l106 75q8 6 18 0zM354 780q91 0 120 -20q27 -19 50 -100l176 -644q3 -16 -13 -16h-128q-6 0 -8.5 3t-4.5 13l-57 208h-268l-58 -208q-2 -10 -4.5 -13
t-9.5 -3h-127q-16 0 -13 16l179 644q23 81 50 100q29 20 116 20zM353 648q-11 0 -15 -4.5t-10 -24.5l-72 -265h197l-71 265q-5 19 -9.5 24t-19.5 5z" />
    <glyph glyph-name="uni01CE" unicode="&#x1ce;" horiz-adv-x="565" 
d="M403 789l31 -16q11 -8 4 -17l-96 -133q-6 -8 -20 -8h-85q-14 0 -20 8l-96 133q-8 11 4 17l31 16q9 6 17 0l107 -75l106 75q8 6 17 0zM267 565q140 0 191 -42t51 -130v-346q0 -24 -22 -31q-91 -21 -227 -21q-67 0 -102.5 5t-67.5 22q-60 33 -61 146q1 96 49 130
q49 34 156 34h127v36q0 69 -94 69h-181q-8 0 -11 3t-3 12v82q0 8 2.5 11t11.5 5q77 15 181 15zM361 125v111h-115q-39 0 -54.5 -13.5t-15.5 -46.5q0 -35 18.5 -48t66.5 -13q66 0 100 10z" />
    <glyph glyph-name="uni01CF" unicode="&#x1cf;" horiz-adv-x="299" 
d="M272 989l31 -16q11 -8 4 -17l-96 -133q-6 -8 -20 -8h-85q-14 0 -20 8l-96 133q-8 11 4 17l31 16q9 6 17 0l107 -75l106 75q8 6 17 0zM86 774h127q15 0 15 -16v-742q0 -16 -15 -16h-127q-15 0 -15 16v742q0 16 15 16z" />
    <glyph glyph-name="uni01D0" unicode="&#x1d0;" horiz-adv-x="268" 
d="M258 789l31 -16q11 -6 3 -17l-96 -133q-5 -8 -20 -8h-84q-15 0 -20 8l-96 133q-8 11 3 17l31 16q10 6 18 0l106 -75l106 75q8 6 18 0zM75 560h118q15 0 15 -15v-529q0 -16 -15 -16h-118q-15 0 -15 16v529q0 15 15 15z" />
    <glyph glyph-name="uni01D1" unicode="&#x1d1;" horiz-adv-x="742" 
d="M494 989l31 -16q12 -6 4 -17l-96 -133q-6 -8 -20 -8h-85q-14 0 -20 8l-96 133q-7 9 4 17l31 16q9 6 17 0l107 -75l106 75q8 6 17 0zM695 386q0 -228 -67 -310q-68 -81 -257 -81t-257 81q-67 82 -67 310q0 121 15 192.5t52 117.5q37 47 96.5 65.5t160.5 18.5t160.5 -18.5
t96.5 -65.5q37 -46 52 -117.5t15 -192.5zM206 386q0 -149 32 -202q31 -52 133 -52t133 52q32 53 32 202q0 151 -32 204t-133 53t-133 -53t-32 -204z" />
    <glyph glyph-name="uni01D2" unicode="&#x1d2;" horiz-adv-x="596" 
d="M422 789l31 -16q11 -8 4 -17l-96 -133q-6 -8 -20 -8h-85q-15 0 -20 8l-96 133q-8 11 3 17l32 16q9 6 17 0l107 -75l105 75q9 6 18 0zM298 565q83 0 129.5 -12.5t75.5 -45.5q29 -32 39.5 -83t10.5 -144q0 -171 -50 -229q-50 -56 -205 -56t-205 56q-50 58 -50 229
q0 172 50 228q50 57 205 57zM298 437q-68 0 -87 -31q-19 -29 -19 -126q0 -96 19 -127q19 -30 87 -30t87 30q20 32 20 127t-20 126q-19 31 -87 31z" />
    <glyph glyph-name="uni01D3" unicode="&#x1d3;" horiz-adv-x="763" 
d="M505 989l31 -16q11 -8 4 -17l-96 -133q-6 -8 -20 -8h-85q-15 0 -20 8l-96 133q-8 11 4 17l31 16q9 6 17 0l107 -75l106 75q8 6 17 0zM556 774h127q15 0 15 -15v-373q0 -184 -38 -273q-33 -67 -95.5 -91.5t-182.5 -26.5q-101 0 -159 17t-94 62t-50 116.5t-14 195.5v373
q0 15 15 15h127q15 0 15 -15v-373q0 -151 32 -203q31 -51 128 -51q96 0 127 51q32 52 32 203v373q0 15 15 15z" />
    <glyph glyph-name="uni01D4" unicode="&#x1d4;" horiz-adv-x="610" 
d="M419 789l31 -16q11 -8 4 -17l-96 -133q-6 -8 -20 -8h-85q-14 0 -20 8l-96 133q-8 11 4 17l31 16q9 6 17 0l107 -75l106 75q8 6 17 0zM417 560h120q14 0 14 -15v-516q0 -9 -2.5 -12t-11.5 -5q-91 -17 -240 -17q-79 0 -121 9t-71 35q-28 26 -38.5 70.5t-10.5 126.5v309
q0 15 16 15h118q14 0 14 -15v-271q0 -74 9 -105q9 -29 28 -37.5t71 -8.5h90v422q0 15 15 15z" />
    <glyph glyph-name="uni01D5" unicode="&#x1d5;" horiz-adv-x="763" 
d="M237 1130h289q15 0 15 -15v-61q0 -15 -15 -15h-289q-15 0 -15 15v61q0 15 15 15zM271 976q77 0 77 -73q0 -74 -77 -74q-78 0 -78 74q0 73 78 73zM569 903q0 -74 -77 -74t-77 74q0 73 77 73t77 -73zM556 774h127q15 0 15 -15v-373q0 -184 -38 -273q-33 -67 -95.5 -91.5
t-182.5 -26.5q-101 0 -159 17t-94 62t-50 116.5t-14 195.5v373q0 15 15 15h127q15 0 15 -15v-373q0 -151 32 -203q31 -51 128 -51q96 0 127 51q32 52 32 203v373q0 15 15 15z" />
    <glyph glyph-name="uni01D6" unicode="&#x1d6;" horiz-adv-x="610" 
d="M151 916h289q15 0 15 -15v-61q0 -15 -15 -15h-289q-15 0 -15 15v61q0 15 15 15zM185 776q77 0 77 -73q0 -74 -77 -74q-78 0 -78 74q0 73 78 73zM483 703q0 -74 -77 -74t-77 74q0 73 77 73t77 -73zM417 560h120q14 0 14 -15v-516q0 -9 -2.5 -12t-11.5 -5q-91 -17 -240 -17
q-79 0 -121 9t-71 35q-28 26 -38.5 70.5t-10.5 126.5v309q0 15 16 15h118q14 0 14 -15v-271q0 -74 9 -105q9 -29 28 -37.5t71 -8.5h90v422q0 15 15 15z" />
    <glyph glyph-name="uni01D7" unicode="&#x1d7;" horiz-adv-x="763" 
d="M425 1167h145q10 0 10 -10v-7q0 -7 -5 -12l-175 -147q-6 -5 -14 0l-43 25q-8 6 -3 14l73 131q3 6 12 6zM271 976q77 0 77 -73q0 -74 -77 -74q-78 0 -78 74q0 73 78 73zM569 903q0 -74 -77 -74t-77 74q0 73 77 73t77 -73zM556 774h127q15 0 15 -15v-373q0 -184 -38 -273
q-33 -67 -95.5 -91.5t-182.5 -26.5q-101 0 -159 17t-94 62t-50 116.5t-14 195.5v373q0 15 15 15h127q15 0 15 -15v-373q0 -151 32 -203q31 -51 128 -51q96 0 127 51q32 52 32 203v373q0 15 15 15z" />
    <glyph glyph-name="uni01D8" unicode="&#x1d8;" horiz-adv-x="610" 
d="M338 972h145q10 0 10 -10v-7q0 -9 -5 -12l-175 -146q-7 -6 -14 0l-43 25q-8 5 -3 14l73 130q3 6 12 6zM185 776q77 0 77 -73q0 -74 -77 -74q-78 0 -78 74q0 73 78 73zM483 703q0 -74 -77 -74t-77 74q0 73 77 73t77 -73zM417 560h120q14 0 14 -15v-516q0 -9 -2.5 -12
t-11.5 -5q-91 -17 -240 -17q-79 0 -121 9t-71 35q-28 26 -38.5 70.5t-10.5 126.5v309q0 15 16 15h118q14 0 14 -15v-271q0 -74 9 -105q9 -29 28 -37.5t71 -8.5h90v422q0 15 15 15z" />
    <glyph glyph-name="uni01D9" unicode="&#x1d9;" horiz-adv-x="763" 
d="M505 1172l31 -16q11 -7 4 -17l-96 -133q-6 -8 -20 -8h-85q-15 0 -20 8l-96 133q-9 11 4 17l31 16q9 6 17 0l107 -75l106 75q8 6 17 0zM271 976q77 0 77 -73q0 -74 -77 -74q-78 0 -78 74q0 73 78 73zM569 903q0 -74 -77 -74t-77 74q0 73 77 73t77 -73zM556 774h127
q15 0 15 -15v-373q0 -184 -38 -273q-33 -67 -95.5 -91.5t-182.5 -26.5q-101 0 -159 17t-94 62t-50 116.5t-14 195.5v373q0 15 15 15h127q15 0 15 -15v-373q0 -151 32 -203q31 -51 128 -51q96 0 127 51q32 52 32 203v373q0 15 15 15z" />
    <glyph glyph-name="uni01DA" unicode="&#x1da;" horiz-adv-x="610" 
d="M419 973l31 -17q11 -7 4 -16l-96 -133q-8 -9 -20 -9h-85q-13 0 -20 9l-96 133q-7 10 4 16l31 17q9 6 17 0l107 -76l106 76q9 6 17 0zM185 776q77 0 77 -73q0 -74 -77 -74q-78 0 -78 74q0 73 78 73zM483 703q0 -74 -77 -74t-77 74q0 73 77 73t77 -73zM417 560h120
q14 0 14 -15v-516q0 -9 -2.5 -12t-11.5 -5q-91 -17 -240 -17q-79 0 -121 9t-71 35q-28 26 -38.5 70.5t-10.5 126.5v309q0 15 16 15h118q14 0 14 -15v-271q0 -74 9 -105q9 -29 28 -37.5t71 -8.5h90v422q0 15 15 15z" />
    <glyph glyph-name="uni01DB" unicode="&#x1db;" horiz-adv-x="763" 
d="M205 1167h145q9 0 12 -6l73 -131q5 -8 -3 -14l-43 -25q-9 -5 -14 0l-175 147q-5 3 -5 12v7q0 10 10 10zM271 976q77 0 77 -73q0 -74 -77 -74q-78 0 -78 74q0 73 78 73zM569 903q0 -74 -77 -74t-77 74q0 73 77 73t77 -73zM556 774h127q15 0 15 -15v-373q0 -184 -38 -273
q-33 -67 -95.5 -91.5t-182.5 -26.5q-101 0 -159 17t-94 62t-50 116.5t-14 195.5v373q0 15 15 15h127q15 0 15 -15v-373q0 -151 32 -203q31 -51 128 -51q96 0 127 51q32 52 32 203v373q0 15 15 15z" />
    <glyph glyph-name="uni01DC" unicode="&#x1dc;" horiz-adv-x="610" 
d="M105 972h145q9 0 12 -6l73 -130q5 -9 -3 -14l-43 -25q-7 -6 -14 0l-175 146q-5 5 -5 12v7q0 10 10 10zM185 776q77 0 77 -73q0 -74 -77 -74q-78 0 -78 74q0 73 78 73zM483 703q0 -74 -77 -74t-77 74q0 73 77 73t77 -73zM417 560h120q14 0 14 -15v-516q0 -9 -2.5 -12
t-11.5 -5q-91 -17 -240 -17q-79 0 -121 9t-71 35q-28 26 -38.5 70.5t-10.5 126.5v309q0 15 16 15h118q14 0 14 -15v-271q0 -74 9 -105q9 -29 28 -37.5t71 -8.5h90v422q0 15 15 15z" />
    <glyph glyph-name="Aringacute" unicode="&#x1fa;" horiz-adv-x="711" 
d="M375 1139h145q10 0 10 -10v-7q0 -9 -5 -12l-120 -81q66 -21 66 -104q0 -112 -117 -112t-117 112q0 84 69 105l57 103q3 6 12 6zM416 925q0 62 -62 62t-62 -62t62 -62t62 62zM354 780q91 0 120 -20q27 -19 50 -100l176 -644q3 -16 -13 -16h-128q-6 0 -8.5 3t-4.5 13
l-57 208h-268l-58 -208q-2 -10 -4.5 -13t-9.5 -3h-127q-16 0 -13 16l179 644q23 81 50 100q29 20 116 20zM354 648q-12 0 -16 -5t-9 -24l-73 -265h198l-72 265q-7 24 -14 27q-4 2 -14 2z" />
    <glyph glyph-name="aringacute" unicode="&#x1fb;" horiz-adv-x="565" 
d="M300 939h145q10 0 10 -10v-7q0 -9 -5 -12l-119 -80q66 -22 66 -105q0 -112 -117 -112t-117 112q0 85 68 105l57 103q3 6 12 6zM342 725q0 62 -62 62t-62 -62t62 -62t62 62zM267 565q140 0 191 -42t51 -130v-346q0 -24 -22 -31q-91 -21 -227 -21q-67 0 -102.5 5t-67.5 22
q-60 33 -61 146q1 96 49 130q49 34 156 34h127v36q0 69 -94 69h-181q-8 0 -11 3t-3 12v82q0 8 2.5 11t11.5 5q77 15 181 15zM361 125v111h-115q-39 0 -54.5 -13.5t-15.5 -46.5q0 -35 18.5 -48t66.5 -13q66 0 100 10z" />
    <glyph glyph-name="AEacute" unicode="&#x1fc;" horiz-adv-x="1023" 
d="M590 992h145q10 0 10 -10v-7q0 -4 -5 -12l-175 -146q-6 -5 -14 0l-43 25q-8 6 -3 14l73 130q3 6 12 6zM354 780l273 -6h335q15 0 15 -15v-107q0 -15 -15 -15h-333v-189h302q16 0 16 -15v-102q0 -15 -16 -15h-302v-179h333q15 0 15 -15v-107q0 -15 -15 -15h-476
q-15 0 -15 16v208h-251l-57 -208q-4 -16 -14 -16h-128q-15 0 -12 16l178 644q23 81 50 100q29 20 117 20zM471 354v294h-101q-22 0 -30.5 -8t-15.5 -35l-68 -251h215z" />
    <glyph glyph-name="aeacute" unicode="&#x1fd;" horiz-adv-x="893" 
d="M470 792h145q10 0 10 -10v-7q0 -4 -5 -12l-175 -146q-6 -5 -14 0l-43 25q-8 6 -3 14l73 130q3 6 12 6zM613 565q148 0 196 -56q48 -54 50 -222v-31q0 -15 -7 -21t-25 -6h-314q2 -67 23 -86q23 -20 90 -20h177q15 0 15 -15v-83q0 -14 -14 -16q-72 -14 -191 -14
q-44 0 -96 11q-49 10 -75 27q-71 -38 -182 -38q-67 0 -102.5 5t-67.5 22q-60 33 -61 146q1 96 49 130q49 34 156 34h127v36q0 69 -94 69h-181q-8 0 -11 3t-3 12v82q0 8 2.5 11t11.5 5q77 15 181 15q118 0 175 -45q56 45 171 45zM613 437q-58 0 -79.5 -23t-21.5 -88h198
q-1 65 -21.5 88t-75.5 23zM365 236h-119q-39 0 -54.5 -13.5t-15.5 -46.5q0 -36 18.5 -49t66.5 -13q79 0 121 20q-17 42 -17 102z" />
    <glyph glyph-name="Oslashacute" unicode="&#x1fe;" horiz-adv-x="742" 
d="M402 992h145q10 0 10 -10v-7q0 -4 -5 -12l-175 -146q-6 -5 -14 0l-43 25q-8 6 -3 14l73 130q3 6 12 6zM695 386q0 -228 -67 -310q-68 -81 -257 -81q-135 0 -205 38l-30 -43q-9 -14 -20 -3l-34 23q-11 7 -4 20l34 49q-65 82 -65 307q0 121 15 192.5t52 117.5
q37 47 96.5 65.5t160.5 18.5q136 0 205 -39l29 40q11 14 21 4l34 -23q12 -8 3 -21l-33 -47q65 -82 65 -308zM371 643q-101 0 -133 -53t-32 -204q0 -106 14 -154l265 380q-34 31 -114 31zM536 386q0 107 -14 155l-265 -378q34 -31 114 -31q102 0 133 52q32 53 32 202z" />
    <glyph glyph-name="oslashacute" unicode="&#x1ff;" horiz-adv-x="596" 
d="M327 792h145q10 0 10 -10v-7q0 -4 -5 -12l-175 -146q-6 -5 -14 0l-43 25q-8 6 -3 14l73 130q3 6 12 6zM553 280q0 -171 -50 -229q-50 -56 -205 -56q-99 0 -147 19l-23 -33q-9 -14 -20 -3l-34 23q-11 7 -4 20l23 33q-50 56 -50 226q0 172 50 228q50 57 205 57
q94 0 142 -17l22 31q11 14 21 4l34 -23q12 -8 3 -21l-20 -28q29 -29 41 -82.5t12 -148.5zM298 437q-68 0 -87 -31q-19 -29 -19 -126q0 -55 4 -79l161 228q-21 8 -59 8zM398 366l-163 -233q20 -10 63 -10q68 0 87 30q20 32 20 127q0 59 -7 86z" />
    <glyph glyph-name="uni0218" unicode="&#x218;" horiz-adv-x="625" 
d="M328 780q95 0 209 -20q18 -6 18 -18v-81q0 -18 -19 -18h-237q-92 0 -92 -65v-14q0 -52 59 -75l187 -73q75 -30 107 -74t32 -127v-28q0 -102 -71.5 -147t-216.5 -45q-115 0 -247 21q-17 5 -17 22v76q0 18 19 18h284q91 0 91 62v13q0 32 -16 50t-56 33l-195 73
q-63 24 -91 71t-28 133v22q0 103 67.5 147t212.5 44zM243 -40h125q10 0 10 -10v-7q0 -4 -5 -12l-156 -129q-5 -5 -14 0l-35 21q-8 6 -3 14l66 117q3 6 12 6z" />
    <glyph glyph-name="uni0219" unicode="&#x219;" horiz-adv-x="506" 
d="M274 565q86 0 158 -13q16 -4 16 -16v-76q0 -16 -17 -16h-180q-59 0 -59 -36v-10q0 -30 48 -46l128 -45q58 -20 81.5 -55.5t23.5 -94.5v-16q0 -79 -52.5 -112.5t-160.5 -33.5q-116 0 -207 10q-17 0 -17 15v81q0 15 17 15h205q40 0 54.5 7t14.5 27v9q0 15 -11.5 25.5
t-43.5 21.5l-123 44q-102 34 -102 152v19q0 76 56 110t171 34zM190 -40h125q10 0 10 -10v-7q0 -4 -5 -12l-155 -129q-6 -5 -14 0l-36 21q-8 6 -3 14l66 117q3 6 12 6z" />
    <glyph glyph-name="uni021A" unicode="&#x21a;" horiz-adv-x="638" 
d="M31 774h575q16 0 16 -15v-107q0 -15 -16 -15h-209v-621q0 -16 -15 -16h-127q-15 0 -15 16v621h-209q-15 0 -15 15v107q0 15 15 15zM256 -40h124q10 0 10 -10v-7q0 -7 -5 -12l-155 -129q-5 -5 -14 0l-36 21q-8 6 -3 14l67 117q3 6 12 6z" />
    <glyph glyph-name="uni021B" unicode="&#x21b;" horiz-adv-x="380" 
d="M109 684l118 31q16 4 16 -15v-143h92q17 0 17 -15v-80q0 -15 -17 -15h-92v-273q0 -30 12.5 -40.5t46.5 -10.5h41q17 0 17 -15v-85q0 -16 -16 -19q-45 -9 -85 -9q-61 0 -94 9q-35 10 -51 36.5t-19 83.5v323h-59q-16 0 -16 15v80q0 15 16 15h59v111q0 13 14 16zM160 -40
h125q10 0 10 -10v-7q0 -4 -5 -12l-156 -129q-5 -5 -14 0l-35 21q-8 6 -3 14l66 117q3 6 12 6z" />
    <glyph glyph-name="circumflex.001" unicode="&#x2c6;" horiz-adv-x="563" 
d="M239 792h85q14 0 20 -8l96 -133q8 -11 -4 -17l-31 -16q-9 -6 -17 0l-106 75l-107 -75q-8 -6 -17 0l-31 16q-12 6 -4 17l96 133q6 8 20 8z" />
    <glyph glyph-name="caron.001" unicode="&#x2c7;" horiz-adv-x="563" 
d="M405 789l31 -16q12 -6 4 -17l-96 -133q-6 -8 -20 -8h-85q-14 0 -20 8l-96 133q-8 11 4 17l31 16q9 6 17 0l107 -75l106 75q8 6 17 0z" />
    <glyph glyph-name="breve.001" unicode="&#x2d8;" horiz-adv-x="588" 
d="M396 780h58q17 0 14 -15q-10 -76 -49 -107q-37 -30 -125 -30q-86 0 -125 30q-38 30 -48 106q-3 16 14 16h58q13 0 17 -12q12 -28 30.5 -39t53.5 -11t53.5 11t31.5 39q5 12 17 12z" />
    <glyph glyph-name="dotaccent.001" unicode="&#x2d9;" horiz-adv-x="405" 
d="M203 778q82 0 82 -75q0 -76 -82 -76q-83 0 -83 76q0 75 83 75z" />
    <glyph glyph-name="ring" unicode="&#x2da;" horiz-adv-x="474" 
d="M120 725q0 112 117 112t117 -112t-117 -112t-117 112zM299 725q0 62 -62 62t-62 -62t62 -62t62 62z" />
    <glyph glyph-name="ogonek" unicode="&#x2db;" horiz-adv-x="424" 
d="M158 22h48q18 0 13 -17q-7 -36 -7 -55q0 -17 11 -21.5t44 -4.5h36q14 0 14 -14v-61q0 -13 -12 -18q-21 -8 -80 -8q-54 0 -79.5 18.5t-25.5 59.5q0 49 21 108q4 13 17 13z" />
    <glyph glyph-name="tilde" unicode="&#x2dc;" horiz-adv-x="606" 
d="M226 776q27 0 78 -20q50 -19 65 -19q17 0 26.5 7t17.5 26q6 14 19 10l43 -12q14 -5 10 -20q-17 -68 -39 -92t-66 -24q-29 0 -79 19q-51 20 -64 20q-17 0 -26.5 -7t-17.5 -26q-8 -14 -18 -10l-44 12q-13 4 -10 21q17 67 39 91t66 24z" />
    <glyph glyph-name="hungarumlaut.001" unicode="&#x2dd;" horiz-adv-x="621" 
d="M207 792h97q10 0 10 -10v-7q0 -7 -5 -12l-147 -138q-6 -6 -14 0l-23 17q-8 6 -3 14l73 130q3 6 12 6zM394 792h97q10 0 10 -10v-7q0 -4 -5 -12l-147 -138q-6 -6 -14 0l-23 17q-8 6 -3 14l73 130q3 6 12 6z" />
    <glyph glyph-name="uni0326" unicode="&#x326;" horiz-adv-x="0" 
d="M193 -40h125q10 0 10 -10v-7q0 -4 -5 -12l-155 -129q-6 -5 -14 0l-36 21q-8 6 -3 14l66 117q3 6 12 6z" />
    <glyph glyph-name="pi" unicode="&#x3c0;" horiz-adv-x="689" 
d="M36 561h619q15 0 15 -15v-105q0 -15 -15 -15h-85v-411q0 -15 -15 -15h-112q-15 0 -15 15v411h-160q0 -204 -33 -411q-3 -15 -15 -15h-112q-18 0 -15 15q33 207 33 411h-90q-15 0 -15 15v105q0 15 15 15z" />
    <glyph glyph-name="uni0401" unicode="&#x401;" horiz-adv-x="648" 
d="M216 976q76 0 76 -73q0 -74 -76 -74q-78 0 -78 74q0 73 78 73zM437 976q37 0 57 -19t20 -54t-20 -54.5t-57 -19.5q-78 0 -78 74q0 73 78 73zM86 774h501q15 0 15 -15v-107q0 -15 -15 -15h-359v-189h328q16 0 16 -15v-102q0 -15 -16 -15h-328v-179h359q15 0 15 -15v-107
q0 -15 -15 -15h-501q-15 0 -15 16v743q0 15 15 15z" />
    <glyph glyph-name="uni0410" unicode="&#x410;" horiz-adv-x="711" 
d="M354 780q91 0 120 -20q27 -19 50 -100l176 -644q3 -16 -13 -16h-128q-6 0 -8.5 3t-4.5 13l-57 208h-268l-58 -208q-2 -10 -4.5 -13t-9.5 -3h-127q-16 0 -13 16l179 644q23 81 50 100q29 20 116 20zM354 648q-12 0 -16 -5t-9 -24l-73 -265h198l-72 265q-7 24 -14 27
q-4 2 -14 2z" />
    <glyph glyph-name="uni0411" unicode="&#x411;" horiz-adv-x="696" 
d="M228 637v-161h161q143 0 207 -47q63 -47 63 -167v-55q0 -119 -63 -166q-62 -46 -207 -46q-183 0 -303 10q-15 1 -15 14v740q0 15 15 15h519q16 0 16 -15v-107q0 -15 -16 -15h-377zM500 228v16q0 56 -28 77.5t-93 21.5h-151v-211h150q68 0 95 21t27 75z" />
    <glyph glyph-name="uni0412" unicode="&#x412;" horiz-adv-x="700" 
d="M365 780q147 0 212 -48t65 -167q0 -82 -26 -123t-87 -52v-3q71 -9 100.5 -51.5t29.5 -128.5q0 -119 -63 -166q-62 -46 -207 -46q-183 0 -303 10q-15 1 -15 14v736q0 8 3 10.5t12 3.5q127 11 279 11zM349 643h-121v-199h102q90 0 121 18q32 20 32 79q0 58 -30 80t-104 22z
M379 331h-151v-199h150q68 0 95 21t27 75q0 58 -28 80.5t-93 22.5z" />
    <glyph glyph-name="uni0413" unicode="&#x413;" horiz-adv-x="561" 
d="M213 0h-127q-15 0 -15 16v743q0 15 15 15h447q16 0 16 -15v-107q0 -15 -16 -15h-305v-621q0 -16 -15 -16z" />
    <glyph glyph-name="uni0414" unicode="&#x414;" horiz-adv-x="733" 
d="M213 774h404q15 0 15 -15v-622h49q16 0 16 -15v-255q0 -16 -15 -16h-121q-15 0 -15 16v133h-371v-133q0 -16 -15 -16h-120q-15 0 -15 16v258q0 12 15 12h41q55 19 67 142l50 479q1 16 15 16zM474 137v500h-132l-43 -405q-4 -50 -19 -95h194z" />
    <glyph glyph-name="uni0415" unicode="&#x415;" horiz-adv-x="648" 
d="M86 774h501q15 0 15 -15v-107q0 -15 -15 -15h-359v-189h328q16 0 16 -15v-102q0 -15 -16 -15h-328v-179h359q15 0 15 -15v-107q0 -15 -15 -15h-501q-15 0 -15 16v743q0 15 15 15z" />
    <glyph glyph-name="uni0416" unicode="&#x416;" horiz-adv-x="1022" 
d="M994 755l-252 -337l279 -391q19 -27 -17 -27h-141q-16 0 -22 11l-251 371v-366q0 -16 -15 -16h-128q-15 0 -15 16v366l-251 -371q-6 -11 -22 -11h-141q-33 0 -17 27l279 391l-252 337q-13 19 9 19h141q14 0 21 -10l233 -323v318q0 15 15 15h128q15 0 15 -15v-318l233 323
q7 10 21 10h141q22 0 9 -19z" />
    <glyph glyph-name="uni0417" unicode="&#x417;" horiz-adv-x="632" 
d="M273 780q162 0 233 -40q72 -39 72 -155v-45q0 -130 -99 -152q99 -23 99 -151v-44q0 -117 -72 -157q-73 -41 -233 -41q-139 0 -212 15q-13 3 -17.5 7.5t-4.5 13.5v89q0 12 15 12h207q98 0 129 17q31 18 31 73v9q-2 55 -25 74q-25 20 -98 20h-198q-13 0 -13 14v97
q0 14 13 14h198q73 0 98 20q25 21 25 75v13q0 52 -32 69q-31 16 -132 16h-203q-15 0 -15 12v87q0 18 22 23q83 15 212 15z" />
    <glyph glyph-name="uni0418" unicode="&#x418;" horiz-adv-x="785" 
d="M86 774h127q15 0 15 -16v-470l310 453q16 21 24 25.5t38 7.5h99q15 0 15 -16v-742q0 -16 -15 -16h-127q-15 0 -15 16v490l-328 -481q-18 -25 -50 -25h-93q-15 0 -15 16v742q0 16 15 16z" />
    <glyph glyph-name="uni0419" unicode="&#x419;" horiz-adv-x="785" 
d="M489 980h58q17 0 14 -15q-10 -77 -48 -107t-125 -30q-88 0 -125 30q-38 30 -48 106q-3 16 14 16h57q12 0 17 -12q13 -28 31.5 -39t53.5 -11t53.5 11t30.5 39q4 12 17 12zM86 774h127q15 0 15 -16v-470l310 453q16 21 24 25.5t38 7.5h99q15 0 15 -16v-742q0 -16 -15 -16
h-127q-15 0 -15 16v490l-328 -481q-18 -25 -50 -25h-93q-15 0 -15 16v742q0 16 15 16z" />
    <glyph glyph-name="uni041A" unicode="&#x41a;" horiz-adv-x="678" 
d="M500 774h141q22 0 9 -19l-260 -337l287 -391q19 -27 -17 -27h-140q-16 0 -22 11l-270 371v-366q0 -16 -15 -16h-127q-15 0 -15 16v743q0 15 15 15h127q15 0 15 -15v-318l251 323q7 10 21 10z" />
    <glyph glyph-name="uni041B" unicode="&#x41b;" horiz-adv-x="715" 
d="M226 774h403q15 0 15 -15v-743q0 -16 -15 -16h-127q-15 0 -15 16v621h-132l-45 -430q-12 -111 -59 -161.5t-135 -50.5q-42 0 -73 9q-22 7 -22 27v86q0 15 15 15h23q52 0 72.5 26t26.5 96l53 504q1 16 15 16z" />
    <glyph glyph-name="uni041C" unicode="&#x41c;" horiz-adv-x="982" 
d="M734 775h121q12 0 13 -16l72 -743q1 -16 -15 -16h-127q-14 0 -15 16l-44 480l-180 -457q-6 -15 -21 -15h-95q-13 0 -21 15l-179 457l-44 -480q-1 -16 -15 -16h-127q-16 0 -15 16l72 742q1 16 13 16h121q24 0 35.5 -8t21.5 -31l186 -487l186 487q9 24 21 32t36 8z" />
    <glyph glyph-name="uni041D" unicode="&#x41d;" horiz-adv-x="787" 
d="M574 774h127q15 0 15 -16v-742q0 -16 -15 -16h-127q-15 0 -15 16v302h-331v-302q0 -16 -15 -16h-127q-15 0 -15 16v742q0 16 15 16h127q15 0 15 -16v-301h331v301q0 16 15 16z" />
    <glyph glyph-name="uni041E" unicode="&#x41e;" horiz-adv-x="742" 
d="M695 386q0 -228 -67 -310q-68 -81 -257 -81t-257 81q-67 82 -67 310q0 121 15 192.5t52 117.5q37 47 96.5 65.5t160.5 18.5t160.5 -18.5t96.5 -65.5q37 -46 52 -117.5t15 -192.5zM206 386q0 -149 32 -202q31 -52 133 -52t133 52q32 53 32 202q0 151 -32 204t-133 53
t-133 -53t-32 -204z" />
    <glyph glyph-name="uni041F" unicode="&#x41f;" horiz-adv-x="705" 
d="M86 774h533q15 0 15 -15v-743q0 -16 -15 -16h-127q-15 0 -15 16v621h-249v-621q0 -16 -15 -16h-127q-15 0 -15 16v743q0 15 15 15z" />
    <glyph glyph-name="uni0420" unicode="&#x420;" horiz-adv-x="674" 
d="M352 780q167 0 229 -55q64 -54 64 -202q0 -79 -14.5 -125t-50.5 -72t-87 -36t-141 -10h-124v-264q0 -10 -3 -13t-12 -3h-127q-9 0 -12 3t-3 13v739q0 8 3 10.5t12 3.5q127 11 266 11zM336 643h-108v-242h108q92 0 121 21q29 23 29 97q0 75 -30 99q-29 25 -120 25z" />
    <glyph glyph-name="uni0421" unicode="&#x421;" horiz-adv-x="623" 
d="M369 780q115 0 197 -15q23 -6 23 -27v-80q0 -15 -15 -15h-205q-101 0 -132 -52q-30 -53 -30 -203q0 -152 30 -204q31 -52 132 -52h205q15 0 15 -15v-81q0 -20 -23 -26q-74 -15 -197 -15q-101 0 -160 18.5t-96 64.5q-36 47 -50.5 118.5t-14.5 191.5t14.5 191.5t50.5 117.5
q37 46 96 64.5t160 18.5z" />
    <glyph glyph-name="uni0422" unicode="&#x422;" horiz-adv-x="638" 
d="M31 774h575q16 0 16 -15v-107q0 -15 -16 -15h-209v-621q0 -16 -15 -16h-127q-15 0 -15 16v621h-209q-15 0 -15 15v107q0 15 15 15z" />
    <glyph glyph-name="uni0423" unicode="&#x423;" horiz-adv-x="616" 
d="M472 774h136q20 0 12 -17l-203 -564q-40 -109 -93 -154q-53 -44 -136 -44q-49 0 -94 13q-23 8 -23 27v82q0 15 15 15h69q38 0 59 16.5t39 58.5l-254 549q-7 18 12 18h141q12 0 17 -11l160 -347l126 346q5 12 17 12z" />
    <glyph glyph-name="uni0424" unicode="&#x424;" horiz-adv-x="847" 
d="M363 782h122q15 0 15 -17v-71q97 -4 154 -19t94 -50q38 -35 53 -89t15 -145t-15 -145.5t-53 -89.5q-37 -34 -94 -49t-154 -19v-72q0 -16 -15 -16h-122q-15 0 -15 16v72q-97 4 -154.5 19t-94.5 49q-38 35 -53 89.5t-15 145.5t15 145t53 89q37 35 94.5 50t154.5 19v71
q0 17 15 17zM348 228v326q-97 -8 -128 -40t-31 -123t31 -123t128 -40zM500 554v-326q95 8 126 40q32 34 32 123t-32 123q-31 32 -126 40z" />
    <glyph glyph-name="uni0425" unicode="&#x425;" horiz-adv-x="702" 
d="M525 774h141q24 0 11 -22l-234 -349l257 -383q15 -22 -11 -22h-141q-17 0 -27 16l-169 266l-169 -264q-10 -16 -27 -16h-141q-26 0 -11 22l256 381l-235 349q-13 22 11 22h141q17 0 27 -16l148 -233l146 233q10 16 27 16z" />
    <glyph glyph-name="uni0426" unicode="&#x426;" horiz-adv-x="743" 
d="M639 759v-622h65q16 0 16 -15v-255q0 -16 -15 -16h-120q-15 0 -15 16v133h-484q-15 0 -15 16v743q0 15 15 15h127q15 0 15 -15v-622h254v622q0 15 15 15h127q15 0 15 -15z" />
    <glyph glyph-name="uni0427" unicode="&#x427;" horiz-adv-x="679" 
d="M467 774h127q15 0 15 -16v-742q0 -16 -15 -16h-127q-15 0 -15 16v253h-111q-90 0 -141 9.5t-87 35.5t-50.5 72.5t-14.5 125.5v247q0 15 15 15h129q15 0 15 -15v-235q0 -74 29 -97q28 -21 121 -21h95v352q0 16 15 16z" />
    <glyph glyph-name="uni0428" unicode="&#x428;" horiz-adv-x="987" 
d="M774 774h127q15 0 15 -15v-743q0 -16 -15 -16h-815q-15 0 -15 16v743q0 15 15 15h128q15 0 15 -15v-622h186v622q0 15 15 15h127q15 0 15 -15v-622h187v622q0 15 15 15z" />
    <glyph glyph-name="uni0429" unicode="&#x429;" horiz-adv-x="1020" 
d="M916 759v-622h65q15 0 15 -15v-255q0 -16 -15 -16h-120q-15 0 -15 16v133h-760q-15 0 -15 16v743q0 15 15 15h128q15 0 15 -15v-622h186v622q0 15 15 15h127q15 0 15 -15v-622h187v622q0 15 15 15h127q15 0 15 -15z" />
    <glyph glyph-name="uni042A" unicode="&#x42a;" horiz-adv-x="751" 
d="M290 759v-283h161q143 0 207 -47q63 -47 63 -167v-55q0 -119 -63 -166q-62 -46 -207 -46q-182 0 -303 10q-15 1 -15 14v618h-101q-16 0 -16 15v107q0 15 16 15h243q15 0 15 -15zM563 228v16q0 56 -28 77.5t-94 21.5h-151v-211h150q68 0 95.5 21t27.5 75z" />
    <glyph glyph-name="uni042B" unicode="&#x42b;" horiz-adv-x="971" 
d="M228 759v-283h161q143 0 207 -47q64 -46 64 -167v-55q0 -119 -63 -166q-62 -46 -208 -46q-182 0 -303 10q-15 1 -15 14v740q0 15 15 15h127q15 0 15 -15zM758 774h127q15 0 15 -16v-742q0 -16 -15 -16h-127q-15 0 -15 16v742q0 16 15 16zM501 228v16q0 56 -28 77.5
t-94 21.5h-151v-211h150q68 0 95.5 21t27.5 75z" />
    <glyph glyph-name="uni042C" unicode="&#x42c;" horiz-adv-x="689" 
d="M228 759v-283h161q143 0 207 -47q63 -47 63 -167v-55q0 -119 -63 -166q-62 -46 -207 -46q-183 0 -303 10q-15 1 -15 14v740q0 15 15 15h127q15 0 15 -15zM500 228v16q0 56 -28 77.5t-93 21.5h-151v-211h150q68 0 95 21t27 75z" />
    <glyph glyph-name="uni042D" unicode="&#x42d;" horiz-adv-x="646" 
d="M277 780q190 0 256 -82q66 -81 66 -310t-66 -311t-256 -82q-149 0 -222 15q-22 6 -22 26v81q0 15 15 15h229q90 0 123 40q34 41 38 152h-276q-15 0 -15 15v98q0 15 15 15h276q-4 109 -38 150q-33 41 -123 41h-229q-15 0 -15 15v80q0 21 22 27q83 15 222 15z" />
    <glyph glyph-name="uni042E" unicode="&#x42e;" horiz-adv-x="1028" 
d="M657 780q189 0 257 -83q67 -82 67 -311q0 -227 -67 -309t-257 -82q-175 0 -245 68q-69 69 -78 255h-106v-302q0 -16 -15 -16h-127q-15 0 -15 16v742q0 16 15 16h127q15 0 15 -16v-301h107q7 185 77 254q69 69 245 69zM492 386q0 -149 32 -202q31 -52 133 -52t133 52
q32 53 32 202q0 151 -32 204t-133 53t-133 -53t-32 -204z" />
    <glyph glyph-name="uni042F" unicode="&#x42f;" horiz-adv-x="692" 
d="M339 780q140 0 267 -11q9 -1 12 -3.5t3 -10.5v-739q0 -10 -3 -13t-12 -3h-128q-9 0 -12 3t-3 13v264h-93l-163 -258q-15 -22 -40 -22h-125q-11 0 -14.5 6t2.5 14l169 270q-84 16 -119 68q-34 52 -34 165q0 148 63 202q64 55 230 55zM463 401v242h-108q-89 0 -120 -25
q-30 -26 -30 -99q0 -74 29 -97q30 -21 121 -21h108z" />
    <glyph glyph-name="uni0430" unicode="&#x430;" horiz-adv-x="566" 
d="M267 565q140 0 191 -42q52 -42 52 -130v-346q0 -23 -23 -31q-91 -21 -227 -21q-94 0 -145 15q-44 13 -63 45.5t-22 96.5v22q2 92 49 125q49 33 155 33h128v36q0 69 -95 69h-180q-8 0 -11 3t-3 12v82q0 13 13 16q77 15 181 15zM362 126v110h-114q-45 0 -58 -11t-13 -44
v-10q0 -33 17 -44t63 -11q69 0 105 10z" />
    <glyph glyph-name="uni0431" unicode="&#x431;" horiz-adv-x="605" 
d="M472 780h45q17 0 17 -36q0 -61 -29.5 -87.5t-97.5 -35.5l-65 -9q-26 -4 -50 -10q-28 -6 -43 -14q-56 -31 -59 -94q39 43 141 43q133 0 183 -54q49 -53 49 -203q0 -171 -50 -229q-50 -56 -205 -56t-205 56q-50 58 -50 229v93q0 108 15.5 173.5t53.5 105.5q38 41 90 61.5
t144 33.5q62 9 84 17q3 2 7.5 7t9.5 7t15 2zM308 416q-67 0 -86 -28q-20 -28 -20 -108q0 -96 19 -127q19 -30 87 -30t87 30q20 32 20 127q0 80 -20 108q-19 28 -87 28z" />
    <glyph glyph-name="uni0432" unicode="&#x432;" horiz-adv-x="568" 
d="M295 565q119 0 170 -35.5t51 -120.5q0 -63 -21.5 -92t-73.5 -36v-2q60 -4 84 -32.5t24 -95.5q0 -85 -50 -120.5t-168 -35.5q-156 0 -240 9q-12 2 -12 14v525q0 11 12 13q98 9 224 9zM281 443h-72v-113h63q58 0 80.5 12t22.5 44q0 31 -22 44t-72 13zM300 232h-91v-112
l91 -1q48 1 68 13t20 42q0 32 -20 45t-68 13z" />
    <glyph glyph-name="uni0433" unicode="&#x433;" horiz-adv-x="468" 
d="M74 560h361q14 0 14 -13v-111q0 -13 -14 -13h-218v-410q0 -13 -13 -13h-130q-14 0 -14 13v534q0 13 14 13z" />
    <glyph glyph-name="uni0434" unicode="&#x434;" horiz-adv-x="597" 
d="M164 560h332q14 0 14 -13v-420h42q14 0 14 -14v-199q0 -13 -14 -13h-110q-13 0 -13 13v86h-271v-86q0 -13 -14 -13h-109q-14 0 -14 13v200q0 13 14 13h29q41 15 52 108l34 313q2 12 14 12zM365 127v307h-81l-27 -241q-3 -33 -13 -66h121z" />
    <glyph glyph-name="uni0435" unicode="&#x435;" horiz-adv-x="574" 
d="M294 565q148 0 196 -56q48 -54 50 -222v-31q0 -15 -7 -21t-25 -6h-314q2 -67 23 -86q23 -20 90 -20h178q15 0 15 -15v-83q0 -14 -14 -16q-72 -14 -192 -14q-152 0 -201 57q-50 58 -50 228q0 172 50 228q49 57 201 57zM294 437q-57 0 -78.5 -23t-22.5 -88h198
q-1 65 -21 88t-76 23z" />
    <glyph glyph-name="uni0436" unicode="&#x436;" horiz-adv-x="888" 
d="M858 545l-179 -241l205 -286q11 -18 -10 -18h-152q-12 0 -17 8l-186 261v-254q0 -15 -15 -15h-122q-15 0 -15 15v254l-185 -261q-5 -8 -18 -8h-151q-22 0 -11 18l205 286l-179 241q-5 6 -1.5 10.5t13.5 4.5h141q13 0 16 -7l170 -231v223q0 15 15 15h122q15 0 15 -15v-223
l170 231q4 7 17 7h141q9 0 12.5 -4.5t-1.5 -10.5z" />
    <glyph glyph-name="uni0437" unicode="&#x437;" horiz-adv-x="523" 
d="M242 565q119 0 176 -30t57 -105v-53q0 -83 -84 -97q84 -14 84 -99v-51q0 -75 -57 -105t-176 -30q-118 0 -183 16q-21 6 -21 26v76q0 14 14 14h177q56 0 74.5 9t18.5 36v8q0 27 -14 36.5t-55 9.5h-159q-14 0 -14 15v77q0 15 14 15h158q41 0 55.5 10t14.5 36v11
q0 26 -19 34.5t-76 8.5h-175q-14 0 -14 15v76q0 20 21 26q65 15 183 15z" />
    <glyph glyph-name="uni0438" unicode="&#x438;" horiz-adv-x="638" 
d="M477 560h89q12 0 12 -12v-536q0 -12 -12 -12h-124q-12 0 -12 12v301l-226 -292q-16 -21 -47 -21h-85q-12 0 -12 12v536q0 12 12 12h124q12 0 12 -12v-298l218 284q18 26 51 26z" />
    <glyph glyph-name="uni0439" unicode="&#x439;" horiz-adv-x="638" 
d="M420 780h58q17 0 14 -15q-10 -76 -49 -107q-37 -30 -124 -30t-126 30q-38 30 -48 106q-3 16 14 16h58q13 0 17 -12q13 -28 31.5 -39t53.5 -11t53.5 11t30.5 39q4 12 17 12zM477 560h89q12 0 12 -12v-536q0 -12 -12 -12h-124q-12 0 -12 12v301l-226 -292q-16 -21 -47 -21
h-85q-12 0 -12 12v536q0 12 12 12h124q12 0 12 -12v-298l218 284q18 26 51 26z" />
    <glyph glyph-name="uni043A" unicode="&#x43a;" horiz-adv-x="579" 
d="M404 560h141q9 0 12.5 -4.5t-1.5 -10.5l-179 -241l205 -286q11 -18 -10 -18h-152q-12 0 -17 8l-186 261v-254q0 -15 -15 -15h-127q-15 0 -15 15v530q0 15 15 15h127q15 0 15 -15v-223l170 231q6 7 17 7z" />
    <glyph glyph-name="uni043B" unicode="&#x43b;" horiz-adv-x="585" 
d="M166 560h347q12 0 12 -11v-537q0 -12 -12 -12h-125q-11 0 -11 12v419h-87l-28 -267q-18 -169 -164 -169q-29 0 -63 8q-13 5 -17 9.5t-4 15.5v87q0 10 12 10h21q37 0 52 18t20 64l36 341q1 12 11 12z" />
    <glyph glyph-name="uni043C" unicode="&#x43c;" horiz-adv-x="807" 
d="M588 560h110q10 0 12 -11l60 -537q2 -12 -12 -12h-128q-10 0 -12 12l-32 318l-122 -301q-6 -12 -17 -12h-87q-12 0 -17 12l-121 301l-33 -318q-1 -12 -12 -12h-128q-13 0 -12 12l60 536q1 12 14 12h108q42 0 53 -29l131 -317l132 318q7 17 18 22.5t35 5.5z" />
    <glyph glyph-name="uni043D" unicode="&#x43d;" horiz-adv-x="645" 
d="M443 560h127q15 0 15 -15v-530q0 -15 -15 -15h-127q-15 0 -15 15v191h-211v-191q0 -15 -15 -15h-127q-15 0 -15 15v530q0 15 15 15h127q15 0 15 -15v-200h211v200q0 15 15 15z" />
    <glyph glyph-name="uni043E" unicode="&#x43e;" horiz-adv-x="596" 
d="M298 565q83 0 129.5 -12.5t75.5 -45.5q29 -32 39.5 -83t10.5 -144q0 -171 -50 -229q-50 -56 -205 -56t-205 56q-50 58 -50 229q0 172 50 228q50 57 205 57zM384 406q-19 31 -86 31q-68 0 -87 -31q-19 -29 -19 -126q0 -96 19 -127q19 -30 87 -30q66 0 86 30q20 32 20 127
t-20 126z" />
    <glyph glyph-name="uni043F" unicode="&#x43f;" horiz-adv-x="585" 
d="M75 560h435q15 0 15 -15v-530q0 -15 -15 -15h-127q-15 0 -15 15v408h-151v-408q0 -15 -15 -15h-127q-15 0 -15 15v530q0 15 15 15z" />
    <glyph glyph-name="uni0440" unicode="&#x440;" horiz-adv-x="603" 
d="M300 565q156 0 209 -57q52 -55 52 -220q0 -173 -48 -233q-47 -60 -183 -60q-70 0 -123 6v-187q0 -15 -15 -15h-118q-15 0 -15 15v707q0 21 21 25q117 19 220 19zM307 437h-100v-307q43 -6 90 -6q75 0 95 29q21 28 21 127q0 94 -18 126q-18 31 -88 31z" />
    <glyph glyph-name="uni0441" unicode="&#x441;" horiz-adv-x="510" 
d="M297 565q102 0 164 -13q16 -3 16 -20v-79q0 -16 -17 -16h-163q-68 0 -87 -31q-19 -29 -19 -126q0 -96 19 -127q20 -30 87 -30h163q17 0 17 -15v-80q0 -16 -16 -19q-67 -14 -164 -14q-85 0 -132 12t-75 45q-27 34 -37 84.5t-10 143.5t10 143.5t37 83.5q28 34 74.5 46
t132.5 12z" />
    <glyph glyph-name="uni0442" unicode="&#x442;" horiz-adv-x="526" 
d="M35 560h456q15 0 15 -15v-107q0 -15 -15 -15h-150v-408q0 -15 -15 -15h-127q-15 0 -15 15v408h-149q-15 0 -15 15v107q0 15 15 15z" />
    <glyph glyph-name="uni0443" unicode="&#x443;" horiz-adv-x="621" 
d="M428 560h118q15 0 15 -15v-533q0 -94 -24 -141q-20 -41 -72.5 -59.5t-147.5 -18.5q-105 0 -189 14q-13 1 -13 16v76q0 15 14 15h175q65 0 87 17.5t22 68.5v6q-61 -11 -123 -11q-134 0 -185 57q-50 59 -50 201v292q0 15 15 15h118q15 0 15 -15v-264q0 -98 22 -127
q23 -30 98 -30q55 0 90 6v415q0 15 15 15z" />
    <glyph glyph-name="uni0444" unicode="&#x444;" horiz-adv-x="811" 
d="M578 565q97 0 144.5 -68.5t47.5 -216.5q0 -149 -47.5 -217t-144.5 -68q-73 0 -98 23v-204q0 -15 -15 -15h-119q-15 0 -15 15v204q-25 -23 -98 -23q-97 0 -144.5 68t-47.5 217q0 148 47.5 216.5t144.5 68.5q60 0 98 -23v217q0 15 15 15h119q15 0 15 -15v-217q38 23 98 23z
M331 139v282q-19 15 -59 15q-49 0 -65.5 -33.5t-16.5 -122.5q0 -90 16 -123t66 -33q40 0 59 15zM539 124q50 0 66 33t16 123q0 89 -16.5 122.5t-65.5 33.5q-40 0 -59 -15v-282q19 -15 59 -15z" />
    <glyph glyph-name="uni0445" unicode="&#x445;" horiz-adv-x="578" 
d="M401 560h143q21 0 8 -18l-172 -249l190 -274q5 -7 2.5 -13t-11.5 -6h-143q-9 0 -16 10l-113 168l-114 -168q-7 -10 -16 -10h-143q-9 0 -11 6t3 13l190 274l-173 249q-13 18 8 18h143q10 0 18 -9l95 -142l95 142q6 9 17 9z" />
    <glyph glyph-name="uni0446" unicode="&#x446;" horiz-adv-x="614" 
d="M525 545v-408h48q15 0 15 -15v-205q0 -15 -15 -15h-121q-15 0 -15 15v83h-362q-15 0 -15 15v530q0 15 15 15h127q15 0 15 -15v-408h151v408q0 15 15 15h127q15 0 15 -15z" />
    <glyph glyph-name="uni0447" unicode="&#x447;" horiz-adv-x="573" 
d="M371 560h127q15 0 15 -16v-528q0 -16 -15 -16h-127q-15 0 -15 16v155h-38q-90 0 -139.5 10t-82.5 36q-33 27 -45.5 72t-12.5 125v131q0 15 15 15h128q15 0 15 -15v-119q0 -76 24 -97q25 -20 114 -20h22v235q0 16 15 16z" />
    <glyph glyph-name="uni0448" unicode="&#x448;" horiz-adv-x="812" 
d="M610 560h127q15 0 15 -15v-530q0 -15 -15 -15h-662q-15 0 -15 15v530q0 15 15 15h127q15 0 15 -15v-413h116v413q0 15 15 15h116q15 0 15 -15v-413h116v413q0 15 15 15z" />
    <glyph glyph-name="uni0449" unicode="&#x449;" horiz-adv-x="834" 
d="M745 545v-408h47q15 0 15 -15v-206q0 -15 -15 -15h-121q-15 0 -15 15v84h-581q-15 0 -15 15v530q0 15 15 15h128q15 0 15 -15v-408h106v408q0 15 15 15h127q15 0 15 -15v-408h107v408q0 15 15 15h127q15 0 15 -15z" />
    <glyph glyph-name="uni044A" unicode="&#x44a;" horiz-adv-x="636" 
d="M284 549v-196h107q120 0 169.5 -35t49.5 -119v-49q0 -84 -49.5 -119.5t-169.5 -35.5q-153 0 -246 10q-11 2 -11 10v411h-103q-13 0 -13 11v112q0 11 13 11h241q12 0 12 -11zM461 171v16q0 27 -16.5 38.5t-53.5 11.5h-107v-114h93q49 0 66.5 10t17.5 38z" />
    <glyph glyph-name="uni044B" unicode="&#x44b;" 
d="M210 549v-196h107q120 0 169.5 -35t49.5 -119v-49q0 -84 -49.5 -119.5t-169.5 -35.5q-154 0 -245 10q-12 1 -12 10v534q0 11 12 11h126q12 0 12 -11zM607 560h118q15 0 15 -15v-529q0 -16 -15 -16h-118q-15 0 -15 16v529q0 15 15 15zM387 171v16q0 27 -16.5 38.5
t-53.5 11.5h-107v-114h93q49 0 66.5 10t17.5 38z" />
    <glyph glyph-name="uni044C" unicode="&#x44c;" horiz-adv-x="562" 
d="M210 547v-194h107q120 0 169.5 -35t49.5 -119v-49q0 -84 -49.5 -119.5t-169.5 -35.5q-154 0 -245 10q-12 1 -12 12v531q0 12 13 12h124q13 0 13 -13zM387 171v16q0 27 -16.5 38.5t-53.5 11.5h-107v-114h93q49 0 66.5 10t17.5 38z" />
    <glyph glyph-name="uni044D" unicode="&#x44d;" horiz-adv-x="535" 
d="M235 565q153 0 205 -60q53 -59 53 -224q0 -164 -53 -226q-52 -60 -205 -60q-107 0 -177 15q-21 4 -21 24v77q0 11 12 11h186q57 0 80.5 23t28.5 81h-210q-13 0 -13 10v89q0 10 13 10h210q-5 58 -28.5 81t-80.5 23h-186q-12 0 -12 11v77q0 18 21 24q61 14 177 14z" />
    <glyph glyph-name="uni044E" unicode="&#x44e;" horiz-adv-x="841" 
d="M544 565q156 0 205 -57q50 -56 50 -228q0 -171 -50 -229q-50 -56 -205 -56q-139 0 -191 43q-51 43 -62 168h-74v-191q0 -15 -15 -15h-127q-15 0 -15 15v530q0 15 15 15h127q15 0 15 -15v-200h74q8 131 59 175q52 45 194 45zM544 123q66 0 86 30q20 32 20 127t-20 126
q-19 31 -86 31q-69 0 -88 -31q-19 -29 -19 -126q0 -96 19 -127q20 -30 88 -30z" />
    <glyph glyph-name="uni044F" unicode="&#x44f;" horiz-adv-x="571" 
d="M284 565q126 0 214 -9q12 -2 12 -9v-535q0 -8 -2 -10t-10 -2h-127q-11 0 -11 12v184h-50l-127 -181q-11 -15 -31 -15h-123q-20 0 -9 14l132 191q-63 15 -88.5 53t-25.5 114q0 106 55 149q56 44 191 44zM360 301v132h-80q-51 0 -69.5 -14.5t-18.5 -53.5t18 -51.5t70 -12.5
h80z" />
    <glyph glyph-name="uni0451" unicode="&#x451;" horiz-adv-x="574" 
d="M183 776q77 0 77 -73q0 -74 -77 -74q-37 0 -57.5 19.5t-20.5 54.5t20.5 54t57.5 19zM404 776q77 0 77 -73q0 -74 -77 -74q-37 0 -57 19.5t-20 54.5t20 54t57 19zM294 565q148 0 196 -56q48 -54 50 -222v-31q0 -15 -7 -21t-25 -6h-314q2 -67 23 -86q23 -20 90 -20h178
q15 0 15 -15v-83q0 -14 -14 -16q-72 -14 -192 -14q-152 0 -201 57q-50 58 -50 228q0 172 50 228q49 57 201 57zM294 437q-57 0 -78.5 -23t-22.5 -88h198q-1 65 -21 88t-76 23z" />
    <glyph glyph-name="Wgrave" unicode="&#x1e80;" horiz-adv-x="1101" 
d="M370 992h146q9 0 12 -6l73 -130q5 -8 -3 -14l-43 -25q-9 -5 -14 0l-176 146q-5 8 -5 12v7q0 10 10 10zM932 774h132q17 0 14 -16l-125 -644q-15 -79 -41 -99t-108 -20q-94 0 -119 19q-26 20 -45 100l-89 378l-90 -378q-9 -34 -13 -48t-14.5 -31t-16 -21t-26.5 -10
t-37.5 -6.5t-55.5 -2.5q-83 0 -109 20q-24 19 -41 99l-124 644q-3 16 13 16h133q11 0 14 -16l107 -573q4 -18 8.5 -24t14.5 -6q12 0 16.5 5.5t9.5 24.5l131 546q4 16 21 16h118q16 0 20 -16l132 -546q6 -20 9.5 -25t15.5 -5q10 0 14.5 6t8.5 24l107 573q2 10 5 13t10 3z" />
    <glyph glyph-name="wgrave" unicode="&#x1e81;" horiz-adv-x="884" 
d="M259 792h145q9 0 12 -6l73 -130q5 -8 -3 -14l-43 -25q-9 -5 -14 0l-175 146q-5 5 -5 12v7q0 10 10 10zM722 560h127q14 0 12 -14l-86 -451q-12 -65 -39 -83q-26 -17 -98 -17q-86 0 -109 16q-23 17 -38 84l-49 222l-49 -222q-13 -67 -38 -84q-22 -16 -108 -16
q-71 0 -99 17q-25 18 -39 83l-85 451q-3 14 12 14h127q8 0 11 -14l69 -408q3 -12 6 -15.5t10 -3.5q8 0 11 3t5 16l93 391q5 14 16 14h117q12 0 15 -14l93 -391q3 -13 5.5 -16t10.5 -3q7 0 10.5 3.5t6.5 15.5l69 408q3 14 11 14z" />
    <glyph glyph-name="Wacute" unicode="&#x1e82;" horiz-adv-x="1101" 
d="M574 992h145q10 0 10 -10v-7q0 -7 -5 -12l-175 -146q-6 -5 -14 0l-43 25q-8 6 -3 14l73 130q3 6 12 6zM932 774h132q17 0 14 -16l-125 -644q-15 -79 -41 -99t-108 -20q-94 0 -119 19q-26 20 -45 100l-89 378l-90 -378q-9 -34 -13 -48t-14.5 -31t-16 -21t-26.5 -10
t-37.5 -6.5t-55.5 -2.5q-83 0 -109 20q-24 19 -41 99l-124 644q-3 16 13 16h133q11 0 14 -16l107 -573q4 -18 8.5 -24t14.5 -6q12 0 16.5 5.5t9.5 24.5l131 546q4 16 21 16h118q16 0 20 -16l132 -546q6 -20 9.5 -25t15.5 -5q10 0 14.5 6t8.5 24l107 573q2 10 5 13t10 3z" />
    <glyph glyph-name="wacute" unicode="&#x1e83;" horiz-adv-x="884" 
d="M464 792h146q10 0 10 -10v-7q0 -4 -5 -12l-176 -146q-5 -5 -14 0l-43 25q-8 6 -3 14l73 130q3 6 12 6zM722 560h127q14 0 12 -14l-86 -451q-12 -65 -39 -83q-26 -17 -98 -17q-86 0 -109 16q-23 17 -38 84l-49 222l-49 -222q-13 -67 -38 -84q-22 -16 -108 -16
q-71 0 -99 17q-25 18 -39 83l-85 451q-3 14 12 14h127q8 0 11 -14l69 -408q3 -12 6 -15.5t10 -3.5q8 0 11 3t5 16l93 391q5 14 16 14h117q12 0 15 -14l93 -391q3 -13 5.5 -16t10.5 -3q7 0 10.5 3.5t6.5 15.5l69 408q3 14 11 14z" />
    <glyph glyph-name="Wdieresis" unicode="&#x1e84;" horiz-adv-x="1101" 
d="M440 976q77 0 77 -73q0 -74 -77 -74q-37 0 -57.5 19.5t-20.5 54.5t20.5 54t57.5 19zM661 976q77 0 77 -73q0 -74 -77 -74q-37 0 -57 19.5t-20 54.5t20 54t57 19zM932 774h132q17 0 14 -16l-125 -644q-15 -79 -41 -99t-108 -20q-94 0 -119 19q-26 20 -45 100l-89 378
l-90 -378q-9 -34 -13 -48t-14.5 -31t-16 -21t-26.5 -10t-37.5 -6.5t-55.5 -2.5q-83 0 -109 20q-24 19 -41 99l-124 644q-3 16 13 16h133q11 0 14 -16l107 -573q4 -18 8.5 -24t14.5 -6q12 0 16.5 5.5t9.5 24.5l131 546q4 16 21 16h118q16 0 20 -16l132 -546q6 -20 9.5 -25
t15.5 -5q10 0 14.5 6t8.5 24l107 573q2 10 5 13t10 3z" />
    <glyph glyph-name="wdieresis" unicode="&#x1e85;" horiz-adv-x="884" 
d="M332 776q37 0 57 -19t20 -54t-20 -54.5t-57 -19.5q-78 0 -78 74q0 73 78 73zM553 776q37 0 57 -19t20 -54t-20 -54.5t-57 -19.5q-78 0 -78 74q0 73 78 73zM722 560h127q14 0 12 -14l-86 -451q-12 -65 -39 -83q-26 -17 -98 -17q-86 0 -109 16q-23 17 -38 84l-49 222
l-49 -222q-13 -67 -38 -84q-22 -16 -108 -16q-71 0 -99 17q-25 18 -39 83l-85 451q-3 14 12 14h127q8 0 11 -14l69 -408q3 -12 6 -15.5t10 -3.5q8 0 11 3t5 16l93 391q5 14 16 14h117q12 0 15 -14l93 -391q3 -13 5.5 -16t10.5 -3q7 0 10.5 3.5t6.5 15.5l69 408q3 14 11 14z
" />
    <glyph glyph-name="Ygrave" unicode="&#x1ef2;" horiz-adv-x="713" 
d="M167 992h146q9 0 12 -6l73 -130q5 -8 -3 -14l-43 -25q-9 -5 -14 0l-176 146q-5 8 -5 12v7q0 10 10 10zM558 774h141q23 0 11 -22l-275 -504v-232q0 -16 -15 -16h-127q-15 0 -15 16v234l-275 502q-12 22 11 22h141q17 0 27 -16l174 -352l175 352q9 16 27 16z" />
    <glyph glyph-name="ygrave" unicode="&#x1ef3;" horiz-adv-x="622" 
d="M142 792h145q9 0 12 -6l73 -130q5 -8 -3 -14l-43 -25q-8 -5 -14 0l-175 146q-5 8 -5 12v7q0 10 10 10zM428 560h119q15 0 15 -15v-533q0 -95 -25 -141q-20 -41 -72.5 -59.5t-147.5 -18.5q-106 0 -188 14q-14 2 -14 16v76q0 15 14 15h175q65 0 87 17.5t22 68.5v6
q-61 -11 -122 -11q-135 0 -186 57q-50 59 -50 201v292q0 15 15 15h119q15 0 15 -15v-264q0 -98 22 -127q22 -30 98 -30q54 0 89 6v415q0 15 15 15z" />
    <glyph glyph-name="uni1EF8" unicode="&#x1ef8;" horiz-adv-x="713" 
d="M279 976q28 0 79 -20q48 -19 64 -19q17 0 26.5 7t18.5 26q6 14 18 10l43 -12q14 -5 11 -20q-18 -68 -39.5 -92t-65.5 -24q-29 0 -79 19q-52 20 -64 20q-17 0 -26.5 -7t-18.5 -26q-5 -14 -18 -10l-43 12q-14 5 -11 21q18 67 39 91q23 24 66 24zM558 774h141q23 0 11 -22
l-275 -504v-232q0 -16 -15 -16h-127q-15 0 -15 16v234l-275 502q-12 22 11 22h141q17 0 27 -16l174 -352l175 352q9 16 27 16z" />
    <glyph glyph-name="uni1EF9" unicode="&#x1ef9;" horiz-adv-x="622" 
d="M232 776q27 0 78 -20q50 -19 65 -19q17 0 26.5 7t17.5 26q6 14 19 10l43 -12q14 -5 10 -20q-17 -68 -39 -92t-66 -24q-29 0 -79 19q-51 20 -64 20q-17 0 -26 -7t-18 -26q-6 -14 -18 -10l-43 12q-14 5 -11 21q18 67 39 91q22 24 66 24zM428 560h119q15 0 15 -15v-533
q0 -95 -25 -141q-20 -41 -72.5 -59.5t-147.5 -18.5q-106 0 -188 14q-14 2 -14 16v76q0 15 14 15h175q65 0 87 17.5t22 68.5v6q-61 -11 -122 -11q-135 0 -186 57q-50 59 -50 201v292q0 15 15 15h119q15 0 15 -15v-264q0 -98 22 -127q22 -30 98 -30q54 0 89 6v415q0 15 15 15z
" />
    <glyph glyph-name="endash" unicode="&#x2013;" horiz-adv-x="616" 
d="M71 365h473q16 0 16 -15v-107q0 -15 -16 -15h-473q-15 0 -15 15v107q0 15 15 15z" />
    <glyph glyph-name="emdash" unicode="&#x2014;" horiz-adv-x="948" 
d="M71 365h806q15 0 15 -15v-107q0 -15 -15 -15h-806q-15 0 -15 15v107q0 15 15 15z" />
    <glyph glyph-name="quoteleft.001" unicode="&#x2018;" horiz-adv-x="297" 
d="M224 773l45 -25q6 -4 3 -14l-74 -256q-3 -8 -12 -8h-151q-10 0 -10 10v22q0 6 5 14l180 253q7 8 14 4z" />
    <glyph glyph-name="quoteright" unicode="&#x2019;" horiz-adv-x="289" 
d="M117 774h151q10 0 10 -10v-22q0 -6 -5 -14l-180 -253q-5 -8 -14 -4l-45 25q-6 4 -3 14l74 256q3 8 12 8z" />
    <glyph glyph-name="quotesinglbase" unicode="&#x201a;" horiz-adv-x="283" 
d="M80 126h151q10 0 10 -10v-23q0 -6 -5 -14l-180 -252q-7 -8 -14 -4l-45 24q-7 4 -3 14l74 256q3 9 12 9z" />
    <glyph glyph-name="quotedblleft.001" unicode="&#x201c;" horiz-adv-x="547" 
d="M225 773l45 -25q6 -4 3 -14l-75 -256q-3 -8 -11 -8h-151q-10 0 -10 10v22q0 6 5 14l179 253q8 8 15 4zM475 773l44 -25q6 -4 3 -14l-74 -256q-3 -8 -12 -8h-151q-10 0 -10 10v22q0 6 5 14l180 253q8 8 15 4z" />
    <glyph glyph-name="quotedblright" unicode="&#x201d;" horiz-adv-x="545" 
d="M117 774h151q10 0 10 -10v-22q0 -6 -5 -14l-180 -253q-5 -8 -14 -4l-45 25q-6 4 -3 14l74 256q3 8 12 8zM373 774h151q10 0 10 -10v-22q0 -6 -5 -14l-180 -253q-5 -8 -14 -4l-45 25q-6 4 -3 14l74 256q3 8 12 8z" />
    <glyph glyph-name="quotedblbase" unicode="&#x201e;" horiz-adv-x="532" 
d="M80 126h150q10 0 10 -10v-23q0 -6 -5 -14l-179 -252q-8 -8 -15 -4l-44 24q-7 4 -3 14l74 256q3 9 12 9zM329 126h151q10 0 10 -10v-23q0 -6 -5 -14l-180 -252q-8 -8 -15 -4l-44 24q-7 4 -3 14l74 256q3 9 12 9z" />
    <glyph glyph-name="dagger.001" unicode="&#x2020;" horiz-adv-x="509" 
d="M451 470h-122v-454q0 -16 -15 -16h-119q-15 0 -15 16v454h-122q-16 0 -16 15v95q0 15 16 15h122v164q0 15 15 15h119q15 0 15 -15v-164h122q16 0 16 -15v-95q0 -15 -16 -15z" />
    <glyph glyph-name="daggerdbl" unicode="&#x2021;" horiz-adv-x="509" 
d="M195 774h119q15 0 15 -15v-164h122q16 0 16 -15v-95q0 -15 -16 -15h-122v-161h122q16 0 16 -15v-95q0 -15 -16 -15h-122v-168q0 -16 -15 -16h-119q-15 0 -15 16v168h-122q-16 0 -16 15v95q0 15 16 15h122v161h-122q-16 0 -16 15v95q0 15 16 15h122v164q0 15 15 15z" />
    <glyph glyph-name="bullet" unicode="&#x2022;" horiz-adv-x="560" 
d="M281 448q83 0 129.5 -42t46.5 -116q0 -75 -46.5 -117t-129.5 -42q-84 0 -131 42t-47 117q0 74 47 116t131 42z" />
    <glyph glyph-name="ellipsis.001" unicode="&#x2026;" horiz-adv-x="747" 
d="M126 156q41 0 63.5 -21t22.5 -59t-22.5 -59.5t-63.5 -21.5q-42 0 -65 21.5t-23 59.5t23 59t65 21zM372 156q41 0 63.5 -21t22.5 -59t-22.5 -59.5t-63.5 -21.5q-42 0 -65 21.5t-23 59.5t23 59t65 21zM623 156q41 0 63.5 -21t22.5 -59t-22.5 -59.5t-63.5 -21.5
q-42 0 -65 21.5t-23 59.5t23 59t65 21z" />
    <glyph glyph-name="perthousand.001" unicode="&#x2030;" horiz-adv-x="1372" 
d="M215 779q111 0 149 -42q39 -42 39 -164q0 -121 -39 -163q-38 -42 -149 -42q-112 0 -151 42q-38 43 -38 163q0 121 38 164q39 42 151 42zM643 775h54q13 0 6 -15l-391 -745q-8 -15 -23 -15h-54q-15 0 -7 15l391 745q7 15 24 15zM143 573q0 -61 15 -82.5t57 -21.5
t56.5 21.5t14.5 82.5q0 62 -14.5 84t-56.5 22t-57 -22t-15 -84zM718 406q112 0 149 -42q39 -42 39 -164q0 -121 -39 -163q-37 -42 -149 -42t-151 42q-38 43 -38 163q0 121 38 164q39 42 151 42zM1156 406q112 0 150 -42q39 -42 39 -164q0 -121 -39 -163q-38 -42 -150 -42
q-111 0 -150 42q-38 43 -38 163q0 121 38 164q39 42 150 42zM789 200q0 62 -14.5 83.5t-56.5 21.5t-57 -22t-15 -83t15 -82.5t57 -21.5t56.5 21.5t14.5 82.5zM1156 305q-41 0 -56 -22t-15 -83t15 -82.5t56 -21.5q42 0 57 21.5t15 82.5t-15 83t-57 22z" />
    <glyph glyph-name="guilsinglleft" unicode="&#x2039;" horiz-adv-x="344" 
d="M168 480h118q15 0 15 -15v-7q0 -11 -7 -18l-131 -163l131 -163q7 -7 7 -18v-7q0 -15 -15 -15h-118q-10 0 -18 9l-108 142q-9 10 -9 26v53q0 14 9 25l108 142q8 9 18 9z" />
    <glyph glyph-name="guilsinglright" unicode="&#x203a;" horiz-adv-x="343" 
d="M58 480h117q11 0 18 -9l109 -142q9 -12 9 -25v-53q0 -14 -9 -26l-109 -142q-7 -9 -18 -9h-117q-15 0 -15 15v7q0 11 7 18l130 163l-130 163q-7 7 -7 18v7q0 15 15 15z" />
    <glyph glyph-name="fraction.001" unicode="&#x2044;" horiz-adv-x="140" 
d="M238 813h39q14 0 8 -17l-361 -822q-8 -17 -23 -17h-40q-17 0 -8 17l363 822q8 17 22 17z" />
    <glyph glyph-name="uni2070" unicode="&#x2070;" horiz-adv-x="383" 
d="M191 514q-94 0 -125 43t-31 165t31 165q32 44 125 44t125 -44t32 -165t-32 -165q-31 -43 -125 -43zM191 857q-42 0 -57 -28q-14 -30 -14 -107q0 -78 14.5 -106t56.5 -28q43 0 57 27q14 30 14 107t-14 107q-13 28 -57 28z" />
    <glyph glyph-name="uni2074" unicode="&#x2074;" horiz-adv-x="387" 
d="M106 928h66q10 0 7 -11l-64 -230h96v97q0 9 8 12l66 23q12 5 12 -7v-125h60q11 0 11 -9v-55q0 -10 -11 -10h-60v-86q0 -10 -10 -10h-66q-10 0 -10 10v86h-179q-9 0 -9 10v35q0 8 4 19l67 244q1 7 12 7z" />
    <glyph glyph-name="uni2075" unicode="&#x2075;" horiz-adv-x="360" 
d="M58 928h250q10 0 10 -10v-54q0 -10 -10 -10h-182l-6 -82q17 4 53 4q86 0 120 -26t34 -95v-20q0 -70 -35 -96q-34 -25 -134 -25q-58 0 -111 8q-9 2 -9 11v48q0 7 9 7h111q49 0 66.5 9.5t17.5 39.5v13q0 30 -18 41t-66 11h-106q-14 0 -14 10v51l11 157q2 8 9 8z" />
    <glyph glyph-name="uni2076" unicode="&#x2076;" horiz-adv-x="352" 
d="M151 928h72q13 0 7 -12l-74 -152q15 4 40 4q61 0 96.5 -26.5t35.5 -77.5v-46q0 -54 -36.5 -79t-113.5 -25t-114 27t-38 86v32q2 33 12 57l102 205q4 7 11 7zM178 700q-39 0 -53 -10t-14 -39v-13q0 -29 15 -39.5t52 -10.5t51 10.5t14 39.5v13q0 29 -14 39t-51 10z" />
    <glyph glyph-name="uni2077" unicode="&#x2077;" horiz-adv-x="341" 
d="M32 928h281q10 0 10 -10v-41q0 -6 -5 -14l-175 -339q-4 -7 -12 -7h-76q-13 0 -7 11l170 326h-186q-11 0 -11 9v55q0 10 11 10z" />
    <glyph glyph-name="uni2078" unicode="&#x2078;" horiz-adv-x="373" 
d="M183 931h9q138 0 138 -112q0 -37 -12.5 -58.5t-41.5 -39.5q65 -23 65 -93q0 -114 -150 -114h-10q-150 0 -150 112q0 68 69 100q-55 22 -55 92q0 113 138 113zM191 857h-9q-49 0 -49 -47q0 -36 39 -46l40 -9q30 17 30 54q0 48 -51 48zM212 682l-49 12q-45 -16 -45 -56
q0 -50 64 -50h8q64 0 64 46q0 38 -42 48z" />
    <glyph glyph-name="uni2079" unicode="&#x2079;" horiz-adv-x="353" 
d="M173 931q77 0 114 -27t39 -86v-32q-2 -36 -13 -57l-102 -205q-3 -7 -11 -7h-71q-11 0 -7 12l74 152q-15 -4 -40 -4q-62 0 -97 26t-35 78v45q0 55 36 80t113 25zM173 856q-37 0 -50.5 -10t-13.5 -39v-13q0 -29 13.5 -39t50.5 -10q39 0 53.5 10t14.5 39v13q0 29 -14.5 39
t-53.5 10z" />
    <glyph glyph-name="uni207D" unicode="&#x207d;" horiz-adv-x="215" 
d="M133 958h64q3 0 3 -4v-5q0 -5 -1 -6q-63 -82 -76 -122q-12 -39 -12 -127t13 -127q14 -41 75 -122q1 -1 1 -6v-5q0 -4 -3 -4h-64q-6 0 -9 4q-63 83 -76 125q-14 45 -14 135q0 98 13 140q14 45 77 120q3 4 9 4z" />
    <glyph glyph-name="uni207E" unicode="&#x207e;" horiz-adv-x="215" 
d="M18 958h64q6 0 10 -4q61 -79 75 -124t14 -136q0 -68 -3 -97q-8 -70 -86 -163q-4 -4 -10 -4h-64q-3 0 -3 4v5q0 1 1 3t1 3q63 83 75 121q12 40 12 128t-13 127q-12 40 -74 122l-2 6v5q0 4 3 4z" />
    <glyph glyph-name="lira" unicode="&#x20a4;" horiz-adv-x="649" 
d="M435 778q58 0 139 -14q22 -6 22 -23v-88q0 -13 -15 -13h-136q-95 0 -127 -21q-30 -19 -30 -79v-80h217q16 0 16 -15v-39q0 -15 -16 -15h-217v-69h217q16 0 16 -15v-39q0 -15 -16 -15h-217v-116h311q16 0 16 -15v-107q0 -15 -16 -15h-559q-16 0 -14 15l19 107q5 15 19 15
h66v116h-57q-16 0 -16 15v39q0 15 16 15h57v69h-57q-16 0 -16 15v39q0 15 16 15h57v112q0 120 72 163q73 43 233 43z" />
    <glyph glyph-name="Euro" unicode="&#x20ac;" horiz-adv-x="682" 
d="M607 643h-144q-83 0 -117 -34q-35 -33 -42 -121h249q15 0 11 -15l-10 -37q-3 -15 -19 -15h-234v-33v-23h219q15 0 12 -15l-10 -37q-4 -15 -20 -15h-198q8 -95 40 -130q35 -36 119 -36h152q15 0 15 -15v-81q0 -20 -23 -26q-73 -15 -144 -15q-170 0 -240 65q-68 64 -79 238
h-109q-15 0 -12 15l10 37q3 15 20 15h89v23v33h-74q-15 0 -12 15l10 37q4 15 19 15h60q12 167 80 229q69 63 238 63q81 0 163 -15q28 -7 22 -28l-24 -79q-4 -15 -17 -15z" />
    <glyph glyph-name="uni20B9" unicode="&#x20b9;" horiz-adv-x="710" 
d="M60 774h607q16 0 16 -15v-38q0 -15 -16 -15l-175 1q39 -47 45 -141h131q15 0 15 -15v-37q0 -15 -15 -15h-130q-3 -100 -38 -147t-115 -62l170 -270q6 -8 2.5 -14t-14.5 -6h-126q-25 0 -40 22l-163 258h-154q-15 0 -15 15v91q0 15 15 15h169q87 0 116 18t34 80h-318
q-16 0 -16 15v37q0 15 16 15h314q-7 44 -38.5 60.5t-107.5 16.5h-169q-15 0 -15 15v101q0 15 15 15z" />
    <glyph glyph-name="uni20BD" unicode="&#x20bd;" horiz-adv-x="729" 
d="M409 297h-124v-64h174q16 0 16 -15v-63q0 -15 -16 -15h-174v-124q0 -10 -3 -13t-12 -3h-127q-9 0 -12 3t-3 13v124h-77q-16 0 -16 15v63q0 15 16 15h77v92h-77q-16 0 -16 15v63q0 15 16 15h77v337q0 8 3 10.5t12 3.5q127 11 266 11q169 0 231 -50t62 -196
q0 -78 -14.5 -123t-50.5 -71q-35 -25 -85.5 -34t-142.5 -9zM285 643v-225h108q93 0 121 19q29 20 29 93t-29 93t-121 20h-108z" />
    <glyph glyph-name="uni2113" unicode="&#x2113;" horiz-adv-x="417" 
d="M212 780q72 0 114 -21q51 -25 51 -102v-319q0 -69 -39 -96t-121 -27h-52v-67q0 -55 55 -56h104q15 0 15 -15v-59q0 -14 -14 -16q-59 -7 -110 -7q-80 0 -118.5 27t-38.5 96v539q3 71 43 98t111 25zM218 682q-30 0 -41.5 -10t-11.5 -37v-323h52q30 1 41.5 12.5t11.5 39.5
v271q0 27 -11.5 37t-40.5 10z" />
    <glyph glyph-name="uni2116" unicode="&#x2116;" horiz-adv-x="1120" 
d="M947 780q142 0 142 -136t-142 -136q-141 0 -141 136t141 136zM578 774h127q15 0 15 -16v-742q0 -16 -15 -16h-93q-32 0 -50 25l-328 481v-490q0 -16 -15 -16h-127q-15 0 -15 16v742q0 16 15 16h99q30 -3 38 -7.5t24 -25.5l310 -453v470q0 16 15 16zM1010 644q0 63 -63 63
t-63 -63t63 -63t63 63zM821 450h253q15 0 15 -15v-36q0 -15 -15 -15h-253q-15 0 -15 15v36q0 15 15 15z" />
    <glyph glyph-name="uni2117" unicode="&#x2117;" horiz-adv-x="846" 
d="M711 85q-91 -93 -288 -93t-288 93q-92 94 -92 290t92 290q91 93 288 93t288 -93q92 -94 92 -290t-92 -290zM102 375q0 -166 78 -244.5t243 -78.5t243 78.5t78 244.5t-78 244.5t-243 78.5t-243 -78t-78 -245zM447 561q81 0 113 -29t32 -103q0 -73 -31 -98t-114 -25h-63
v-129q0 -7 -1.5 -9t-8.5 -2h-73q-7 0 -8.5 2t-1.5 9v369q0 8 9 9q58 6 147 6zM437 480h-53v-101h53q38 0 49.5 8.5t11.5 39.5t-12.5 42t-48.5 11z" />
    <glyph glyph-name="uni2120" unicode="&#x2120;" horiz-adv-x="1020" 
d="M234 777q60 0 122 -12q8 -2 8 -8v-58q0 -9 -9 -9h-146q-52 0 -52 -35v-11q0 -30 34 -43l113 -44q47 -18 65 -42t18 -74v-20q0 -117 -176 -117q-73 0 -152 12q-7 1 -7 10v56q0 9 9 9h180q45 0 45 30v11q0 34 -43 49l-124 46q-62 23 -62 118v16q0 73 52 95q46 21 125 21z
M843 774h79q7 0 8 -10l43 -445q1 -12 -11 -12h-77q-9 0 -11 12l-25 277l-105 -264q-3 -8 -12 -8h-65q-8 0 -13 8l-105 265l-25 -278q0 -12 -11 -12h-77q-13 0 -11 11l43 446q2 9 9 9h79q14 0 20.5 -4.5t11.5 -18.5l111 -289l110 289q6 15 12.5 19.5t21.5 4.5z" />
    <glyph glyph-name="trademark.001" unicode="&#x2122;" horiz-adv-x="998" 
d="M36 774h346q12 0 12 -11v-64q0 -11 -12 -11h-123v-369q0 -11 -12 -11h-77q-11 0 -11 11v369h-123q-12 0 -12 11v64q0 11 12 11zM818 774h79q8 0 8 -9l43 -446q2 -11 -11 -11h-76q-10 0 -12 11l-25 278l-105 -264q-3 -8 -12 -8h-65q-9 0 -12 8l-105 264l-25 -278
q-2 -11 -12 -11h-76q-6 0 -9.5 2.5t-2.5 8.5l43 446q1 9 8 9h80q15 0 21.5 -4.5t11.5 -18.5l110 -290l110 290q6 14 12.5 18.5t21.5 4.5z" />
    <glyph glyph-name="Omega" unicode="&#x2126;" horiz-adv-x="874" 
d="M828 421q0 -115 -45.5 -190.5t-134.5 -102.5h150q15 0 15 -15v-98q0 -15 -15 -15h-289q-15 0 -15 15v134q0 13 13 17q80 22 125 80.5t45 151.5q0 127 -58 186t-183 59q-123 0 -181.5 -59.5t-58.5 -185.5q0 -92 45 -151t125 -81q13 -4 13 -17v-134q0 -15 -15 -15h-288
q-15 0 -15 15v98q0 15 15 15h149q-89 27 -134.5 101.5t-45.5 189.5q0 186 95 273t296 87t296.5 -87t95.5 -271z" />
    <glyph glyph-name="estimated" unicode="&#x212e;" horiz-adv-x="613" 
d="M314 575q125 0 198 -85q75 -84 75 -206h-429v-193q66 -63 152 -63q72 0 120 31t90 96l31 -19q-47 -72 -102.5 -106.5t-138.5 -34.5q-118 0 -195 84q-76 85 -76 206q0 123 75 206q75 84 200 84zM314 542q-96 0 -156 -62v-163h309v163q-68 62 -153 62z" />
    <glyph glyph-name="oneeighth" unicode="&#x215b;" horiz-adv-x="875" 
d="M591 813h39q16 0 8 -17l-361 -822q-9 -17 -23 -17h-40q-16 0 -8 17l363 822q8 17 22 17zM271 427v-55q0 -9 -11 -9h-216q-11 0 -11 10v54q0 10 11 10h69v237q0 18 -9.5 25t-32.5 7h-32q-11 0 -11 9v42q0 7 10 13q21 7 55 7q31 0 48 -4q23 -4 39 -22.5t16 -49.5v-264h64
q11 0 11 -10zM784 204q65 -23 65 -93q0 -114 -150 -114h-10q-150 0 -150 112q0 71 69 100q-55 22 -55 93q0 112 138 112h9q138 0 138 -112q0 -37 -12.5 -58.5t-41.5 -39.5zM699 340h-9q-49 0 -49 -47q0 -35 39 -46l40 -8q30 15 30 53q0 48 -51 48zM690 72h8q64 0 64 45
q0 39 -41 48l-50 12q-45 -17 -45 -56q0 -49 64 -49z" />
    <glyph glyph-name="threeeighths" unicode="&#x215c;" horiz-adv-x="892" 
d="M602 813h39q14 0 8 -17l-361 -822q-8 -17 -23 -17h-40q-17 0 -8 17l363 822q8 17 22 17zM161 777q77 0 111 -24t34 -85v-15q0 -71 -58 -84q58 -10 58 -83v-18q0 -61 -33.5 -84.5t-111.5 -23.5q-64 0 -119 9q-9 1 -9 12v45q0 8 9 8h85q56 0 74.5 8.5t18.5 35.5v12
q1 23 -16.5 34t-53.5 11h-85q-8 0 -8 8v51q0 8 8 8h84q41 0 56 10t15 37v10q0 27 -18.5 35.5t-74.5 8.5h-85q-9 0 -9 7v46q0 10 9 11q50 10 119 10zM708 414h9q138 0 138 -112q0 -37 -12.5 -58.5t-42.5 -39.5q66 -22 66 -93q0 -114 -150 -114h-10q-150 0 -150 112
q0 71 69 100q-55 22 -55 93q0 112 138 112zM715 340h-8q-50 0 -50 -47q0 -36 40 -46l39 -8q31 15 31 53q0 48 -52 48zM737 165l-49 12q-45 -17 -45 -56q0 -49 64 -49h7q65 0 65 45q0 39 -42 48z" />
    <glyph glyph-name="fiveeighths" unicode="&#x215d;" horiz-adv-x="905" 
d="M624 813h39q15 0 7 -17l-361 -822q-9 -17 -22 -17h-41q-16 0 -7 17l362 822q8 17 23 17zM56 774h250q10 0 10 -10v-54q0 -10 -10 -10h-182l-6 -82q17 4 53 4q86 0 120 -26t34 -95v-20q0 -70 -35 -96q-34 -25 -134 -25q-58 0 -111 8q-9 2 -9 11v48q0 7 10 7h110
q49 0 66.5 9.5t17.5 39.5v13q0 30 -18 41t-66 11h-106q-14 0 -14 10v51l11 157q2 8 9 8zM721 414h9q138 0 138 -112q0 -37 -12.5 -58.5t-41.5 -39.5q65 -23 65 -93q0 -114 -150 -114h-10q-150 0 -150 112q0 71 69 100q-55 22 -55 93q0 112 138 112zM729 340h-9
q-49 0 -49 -47q0 -35 39 -46l40 -8q30 15 30 53q0 48 -51 48zM750 165l-49 12q-45 -17 -45 -56q0 -49 64 -49h8q64 0 64 45q0 39 -42 48z" />
    <glyph glyph-name="seveneighths" unicode="&#x215e;" horiz-adv-x="841" 
d="M540 813h39q14 0 8 -17l-362 -822q-9 -17 -22 -17h-40q-17 0 -8 17l363 822q8 17 22 17zM36 774h281q10 0 10 -10v-41q0 -7 -4 -14l-176 -339q-3 -7 -12 -7h-76q-13 0 -7 11l170 326h-186q-11 0 -11 9v55q0 10 11 10zM655 414h9q138 0 138 -112q0 -37 -12.5 -58.5
t-41.5 -39.5q65 -23 65 -93q0 -114 -150 -114h-10q-150 0 -150 112q0 71 69 100q-54 23 -54 93q0 112 137 112zM663 340h-8q-50 0 -50 -47q0 -35 39 -46l40 -8q31 15 31 53q0 48 -52 48zM685 165l-49 12q-45 -17 -45 -56q0 -49 64 -49h7q64 0 64 45q0 40 -41 48z" />
    <glyph glyph-name="arrowleft" unicode="&#x2190;" horiz-adv-x="948" 
d="M416 510h28q10 0 10 -10v-160h407q15 0 15 -15v-79q0 -15 -15 -15h-407v-160q0 -10 -10 -10h-28q-6 0 -20 6l-322 185q-10 6 -10 21v24q0 14 10 21l323 186q18 6 19 6z" />
    <glyph glyph-name="arrowup" unicode="&#x2191;" horiz-adv-x="573" 
d="M275 691h24q14 0 21 -10l185 -322q6 -13 6 -19v-28q0 -11 -11 -11h-159v-406q0 -16 -15 -16h-79q-15 0 -15 16v406h-160q-10 0 -10 11v28l6 18l186 323q6 10 21 10z" />
    <glyph glyph-name="arrowright" unicode="&#x2192;" horiz-adv-x="948" 
d="M505 510h28l18 -6l323 -186q10 -6 10 -21v-24q0 -15 -10 -21l-322 -185q-14 -6 -19 -6h-28q-11 0 -11 10v160h-406q-16 0 -16 15v79q0 15 16 15h406v160q0 10 11 10z" />
    <glyph glyph-name="arrowdown" unicode="&#x2193;" horiz-adv-x="573" 
d="M247 691h79q15 0 15 -15v-407h159q11 0 11 -10v-28q0 -6 -7 -19l-186 -323q-4 -10 -20 -10h-25q-14 0 -20 10l-185 322q-6 13 -6 20v28q0 10 10 10h160v407q0 15 15 15z" />
    <glyph glyph-name="arrowboth" unicode="&#x2194;" horiz-adv-x="1222" 
d="M778 510h28l18 -6l323 -186q11 -6 11 -21v-24q-1 -16 -11 -21l-322 -185q-13 -6 -19 -6l-28 1q-11 -2 -11 9v160h-312v-160q0 -11 -11 -9l-28 -1q-4 0 -20 6l-321 185q-10 5 -11 21v24q0 15 11 21l322 186q1 0 8.5 3t10.5 3h28q10 0 11 -10v-160h312v160q1 10 11 10z" />
    <glyph glyph-name="arrowupdn" unicode="&#x2195;" horiz-adv-x="581" 
d="M279 832h24q14 0 21 -10l185 -322q6 -14 6 -20l-1 -28q1 -10 -10 -10h-159v-313h159q11 0 10 -10l1 -28q0 -6 -6 -20l-185 -322q-7 -10 -21 -10l-24 -1q-13 0 -21 11l-186 323q-6 18 -6 19v28q0 10 10 10h160v313h-160q-10 0 -10 10v28q0 1 6 19l186 323q7 10 21 10z" />
    <glyph glyph-name="uni2196" unicode="&#x2196;" horiz-adv-x="750" 
d="M114 596l359 -96q14 -6 18 -10l19 -20q8 -8 1 -14l-113 -113l287 -287q12 -11 1 -22l-56 -56q-11 -11 -22 0l-287 287l-113 -112q-6 -6 -15 0l-19 20q-4 3 -9 18l-97 359q-3 12 7 22l18 17q11 11 21 7z" />
    <glyph glyph-name="uni2197" unicode="&#x2197;" horiz-adv-x="751" 
d="M277 499l360 97q12 3 21 -7l17 -17q11 -11 8 -22l-96 -358q-7 -15 -11 -19l-19 -19q-8 -8 -15 -1l-112 113l-288 -288q-11 -11 -22 0l-56 56q-10 10 1 22l287 288l-113 112q-7 7 1 15l19 20q6 4 18 8z" />
    <glyph glyph-name="uni2198" unicode="&#x2198;" horiz-adv-x="749" 
d="M142 592l288 -287l112 113q8 6 15 -1l19 -19l9 -18l97 -360q3 -12 -7 -22l-17 -17q-13 -11 -22 -7l-358 96q-14 4 -19 10l-19 20q-9 7 -1 15l113 112l-288 287q-10 12 0 22l56 57q10 10 22 -1z" />
    <glyph glyph-name="uni2199" unicode="&#x2199;" horiz-adv-x="749" 
d="M629 592l56 -57q11 -11 0 -21l-287 -287l113 -113q7 -7 -1 -14l-20 -20q-5 -5 -17 -9l-360 -97q-12 -3 -22 7l-17 18q-11 11 -7 21l96 359q6 14 10 18l20 19q7 7 15 1l112 -113l288 287q11 11 21 1z" />
    <glyph glyph-name="partialdiff" unicode="&#x2202;" horiz-adv-x="655" 
d="M351 774h135q12 0 16 -10l113 -387q11 -42 -3 -102l-13 -73q-23 -111 -104.5 -159t-227.5 -48q-142 0 -200.5 47.5t-35.5 158.5l14 74q43 199 301 199q46 0 73 -7l-82 289q-5 18 14 18zM342 344q-72 0 -103 -23t-44 -81v-5q-13 -58 7.5 -80.5t91.5 -22.5q76 0 108 23
q32 22 46 81l1 5q12 59 -10 81t-97 22z" />
    <glyph glyph-name="Delta" unicode="&#x2206;" horiz-adv-x="713" 
d="M292 711h134q14 0 18 -12l245 -636q3 -9 3 -16v-36q0 -11 -12 -11h-648q-12 0 -12 11v36q0 8 4 15l250 637q6 12 18 12zM498 139l-140 382l-136 -382h276z" />
    <glyph glyph-name="product.001" unicode="&#x220f;" horiz-adv-x="706" 
d="M24 798h658q15 0 15 -15v-105q0 -15 -15 -15h-85v-720q0 -15 -15 -15h-117q-15 0 -15 15v720h-194v-720q0 -15 -15 -15h-116q-15 0 -15 15v720h-86q-15 0 -15 15v105q0 15 15 15z" />
    <glyph glyph-name="summation.001" unicode="&#x2211;" horiz-adv-x="592" 
d="M31 798h496q15 0 15 -15v-112q0 -15 -15 -15h-308l180 -277q5 -8 5 -16v-6q0 -10 -5 -18l-184 -273h344q15 0 15 -15v-112q0 -15 -15 -15h-534q-15 0 -15 15v74q0 9 6 18l207 305q6 9 6 18v4q0 8 -5 18l-203 314q-5 8 -5 18v75q0 15 15 15z" />
    <glyph glyph-name="minus" unicode="&#x2212;" horiz-adv-x="530" 
d="M74 380h382q16 0 16 -15v-107q0 -15 -16 -15h-382q-16 0 -16 15v107q0 15 16 15z" />
    <glyph glyph-name="radical" unicode="&#x221a;" horiz-adv-x="637" 
d="M493 803h120q18 0 13 -17l-208 -896q-3 -13 -17 -13h-148q-13 0 -17 12l-127 376l-58 -21q-14 -6 -19 9l-33 98q-5 14 9 19l191 65q15 4 19 -10l100 -305l158 670q3 13 17 13z" />
    <glyph glyph-name="infinity.001" unicode="&#x221e;" horiz-adv-x="845" 
d="M614 494q102 0 145.5 -42t43.5 -140q0 -100 -43.5 -142.5t-145.5 -42.5q-83 2 -159 73l-33 32l-29 -29q-83 -76 -163 -76q-102 0 -145 42.5t-43 142.5q0 98 43 140t145 42q74 0 150 -65l43 -40l43 40q69 63 148 65zM230 377q-38 0 -55 -15.5t-17 -50.5t17 -50.5t55 -15.5
q42 0 89 39l32 27l-33 28q-47 38 -88 38zM614 377q-44 0 -85 -36l-36 -30l36 -30q41 -36 85 -36q38 0 54.5 15.5t17.5 50.5q-1 35 -17.5 50.5t-54.5 15.5z" />
    <glyph glyph-name="integral.001" unicode="&#x222b;" horiz-adv-x="434" 
d="M299 801q58 0 108 -10q16 -3 16 -19v-83q0 -16 -17 -16h-79q-32 0 -44 -8t-12 -31q0 -89 20 -283q20 -192 20 -282q0 -89 -55 -118q-44 -23 -121 -23q-49 0 -108 10q-16 3 -16 20v83q0 15 17 15h79q32 0 44 8t12 32q0 89 -20 281q-20 194 -20 283t55 118q44 23 121 23z
" />
    <glyph glyph-name="approxequal.001" unicode="&#x2248;" horiz-adv-x="643" 
d="M209 608q61 0 116 -39q56 -38 96 -38q54 0 81 49q7 12 20 3l68 -44q10 -6 4 -18q-20 -57 -65 -89.5t-105 -32.5q-44 -2 -114 38.5t-97 38.5q-54 0 -81 -49q-6 -12 -18 -4l-69 44q-9 6 -5 19q20 57 65 89.5t104 32.5zM217 373q35 1 76.5 -19t77.5 -40t58 -19q53 0 81 49
q7 13 20 4l68 -44q10 -6 4 -19q-20 -57 -65.5 -89.5t-104.5 -32.5q-50 0 -115 39t-96 39q-53 0 -81 -49q-6 -13 -18 -5l-69 45q-11 6 -5 19q21 57 65.5 89.5t103.5 32.5z" />
    <glyph glyph-name="notequal.001" unicode="&#x2260;" horiz-adv-x="657" 
d="M455 623h48q16 0 8 -17l-42 -95h115q15 0 15 -15v-106q0 -15 -15 -15h-174l-54 -124h228q15 0 15 -15v-106q0 -15 -15 -15h-288l-39 -89q-8 -17 -22 -17h-50q-16 0 -8 17l40 89h-144q-15 0 -15 15v106q0 15 15 15h203l55 124h-258q-15 0 -15 15v106q0 15 15 15h318l41 95
q8 17 23 17z" />
    <glyph glyph-name="lessequal" unicode="&#x2264;" horiz-adv-x="603" 
d="M514 662h15q10 0 10 -11v-96q0 -13 -12 -16l-268 -82l268 -82q12 -5 12 -17v-96q0 -10 -10 -10h-15q-7 0 -13 2l-436 143q-12 4 -12 17v86q0 13 13 17l435 143q3 0 6 0.5t4.5 1t2.5 0.5zM68 199h455q15 0 15 -15v-83q0 -15 -15 -15h-455q-15 0 -15 15v83q0 15 15 15z" />
    <glyph glyph-name="greaterequal" unicode="&#x2265;" horiz-adv-x="603" 
d="M75 662h15q2 0 12 -2l436 -143q12 -5 12 -17v-86q0 -13 -12 -17l-436 -143q-6 -2 -12 -2h-15q-11 0 -11 10v96q0 13 13 17l268 82l-268 82q-13 3 -13 16v96q0 11 11 11zM81 199h454q15 0 15 -15v-83q0 -15 -15 -15h-454q-15 0 -15 15v83q0 15 15 15z" />
    <glyph glyph-name="uni2460" unicode="&#x2460;" 
d="M400 753q180 0 273 -93t93 -273q0 -179 -93.5 -272.5t-272.5 -93.5t-272.5 93.5t-93.5 272.5t94 272.5t272 93.5zM86 387q0 -314 314 -314t314 314t-314 314t-314 -314zM455 516v-264h65q10 0 10 -10v-55q0 -9 -10 -9h-216q-11 0 -11 10v54q0 10 11 10h69v237
q0 18 -9.5 25t-32.5 7h-32q-11 0 -11 9v42q0 9 10 13q20 7 55 7q39 0 67 -12q35 -14 35 -64z" />
    <glyph glyph-name="uni2461" unicode="&#x2461;" 
d="M400 753q182 0 274 -93t92 -273q0 -179 -93.5 -272.5t-272.5 -93.5t-272.5 93.5t-93.5 272.5t94 272.5t272 93.5zM86 387q0 -314 314 -314t314 314t-314 314t-314 -314zM398 592q65 0 101 -16q45 -19 45 -78v-49q0 -35 -10.5 -56t-42.5 -40l-103 -58q-36 -17 -36 -37v-6
h190q6 0 6 -4v-66q0 -4 -6 -4h-274q-14 0 -14 15v50q0 36 15.5 58t57.5 47l105 64q26 15 26 48v19q0 23 -13 31t-46 8h-115q-7 0 -7 7v47q0 8 8 10q47 10 113 10z" />
    <glyph glyph-name="uni2462" unicode="&#x2462;" 
d="M400 753q179 0 272.5 -94t93.5 -272q0 -179 -94 -273q-93 -93 -272 -93q-178 0 -273 93q-93 94 -93 273t94 272.5t272 93.5zM86 387q0 -314 314 -314t314 314t-314 314t-314 -314zM392 592q78 0 111.5 -24t33.5 -85v-15q0 -70 -57 -84q57 -11 57 -83v-18
q0 -61 -33.5 -84.5t-111.5 -23.5q-64 0 -119 9q-9 2 -9 12v45q0 8 9 8h85q57 0 75.5 8.5t18.5 35.5v12q0 45 -71 45h-85q-8 0 -8 8v51q0 8 8 8h84q41 0 56.5 10t15.5 37v10q0 27 -18.5 35.5t-75.5 8.5h-85q-9 0 -9 7v46q0 9 9 11q50 10 119 10z" />
    <glyph glyph-name="uni2463" unicode="&#x2463;" 
d="M400 753q179 0 272.5 -94t93.5 -272q0 -179 -94 -273q-93 -93 -272 -93q-178 0 -273 93q-93 94 -93 273t94 272.5t272 93.5zM86 387q0 -314 314 -314t314 314t-314 314t-314 -314zM312 589h65q10 0 7 -11l-63 -230h96v97q0 9 7 12l66 23q12 4 12 -7v-125h60q11 0 11 -9
v-55q0 -10 -11 -10h-60v-86q0 -10 -10 -10h-66q-9 0 -9 10v86h-179q-10 0 -10 10v35q0 3 4 19l67 244q3 7 13 7z" />
    <glyph glyph-name="uni2464" unicode="&#x2464;" 
d="M400 753q179 0 272.5 -94t93.5 -272q0 -179 -94 -273q-93 -93 -272 -93q-178 0 -273 93q-93 94 -93 273t94 272.5t272 93.5zM86 387q0 -314 314 -314t314 314t-314 314t-314 -314zM275 589h251q10 0 10 -10v-54q0 -10 -10 -10h-182l-6 -82q17 4 53 4q86 0 119.5 -26
t33.5 -95v-20q0 -70 -35 -96q-34 -25 -134 -25q-59 0 -110 8q-9 1 -9 11v48q0 7 9 7h110q50 0 67 9.5t17 39.5v13q0 30 -18 41t-66 11h-105q-14 0 -14 10v51l11 157q0 8 8 8z" />
    <glyph glyph-name="uni2465" unicode="&#x2465;" 
d="M400 753q179 0 272.5 -94t93.5 -272q0 -179 -94 -273q-93 -93 -272 -93q-178 0 -273 93q-93 94 -93 273t94 272.5t272 93.5zM86 387q0 -314 314 -314t314 314t-314 314t-314 -314zM375 589h72q12 0 6 -12l-73 -152q13 4 39 4q61 0 96.5 -26.5t35.5 -77.5v-46
q0 -54 -36.5 -79t-113.5 -25q-76 0 -113 27t-39 86v32q1 33 12 57l102 205q4 7 12 7zM335 312v-13q0 -29 14.5 -39.5t51.5 -10.5t51.5 10.5t14.5 39.5v13q0 29 -14.5 39t-51.5 10t-51.5 -10t-14.5 -39z" />
    <glyph glyph-name="uni2466" unicode="&#x2466;" 
d="M400 753q179 0 272.5 -94t93.5 -272q0 -179 -94 -273q-93 -93 -272 -93q-178 0 -273 93q-93 94 -93 273t94 272.5t272 93.5zM86 387q0 -314 314 -314t314 314t-314 314t-314 -314zM260 589h281q10 0 10 -10v-41q0 -7 -4 -14l-176 -339q-3 -7 -12 -7h-76q-13 0 -7 11
l170 326h-186q-11 0 -11 9v55q0 10 11 10z" />
    <glyph glyph-name="uni2467" unicode="&#x2467;" 
d="M400 753q179 0 272.5 -94t93.5 -272q0 -179 -94 -273q-93 -93 -272 -93q-178 0 -273 93q-93 94 -93 273t94 272.5t272 93.5zM86 387q0 -314 314 -314t314 314t-314 314t-314 -314zM397 592h9q138 0 138 -112q0 -37 -12.5 -58.5t-41.5 -39.5q65 -23 65 -93
q0 -114 -150 -114h-10q-150 0 -150 112q0 69 69 100q-55 22 -55 92q0 113 138 113zM403 518h-8q-50 0 -50 -47q0 -36 40 -46l39 -9q31 16 31 54q0 48 -52 48zM427 343l-49 12q-45 -17 -45 -56q0 -50 64 -50h7q64 0 64 46q0 37 -41 48z" />
    <glyph glyph-name="uni2468" unicode="&#x2468;" 
d="M400 753q179 0 272.5 -94t93.5 -272q0 -179 -94 -273q-93 -93 -272 -93q-178 0 -273 93q-93 94 -93 273t94 272.5t272 93.5zM86 387q0 -314 314 -314t314 314t-314 314t-314 -314zM399 592q77 0 114 -27t38 -86v-32q0 -33 -12 -57l-102 -205q-4 -7 -12 -7h-71
q-12 0 -7 12l74 152q-15 -4 -39 -4q-63 0 -98 26t-35 78v45q0 55 36 80t114 25zM399 517q-37 0 -50.5 -10t-13.5 -39v-13q0 -29 13.5 -39t50.5 -10q39 0 53.5 10t14.5 39v13q0 29 -14.5 39t-53.5 10z" />
    <glyph glyph-name="uni24EA" unicode="&#x24ea;" 
d="M400 753q182 0 274 -93t92 -273q0 -179 -93.5 -272.5t-272.5 -93.5t-273 93.5t-94 272.5t94 272.5t273 93.5zM400 73q314 0 314 314t-314 314q-315 0 -315 -314t315 -314zM399 592q94 0 125 -43q32 -44 32 -166q0 -121 -32 -165q-31 -43 -125 -43t-125 43t-31 165
q0 123 31 166t125 43zM399 518q-42 0 -57 -28q-14 -30 -14 -107q0 -78 14.5 -105.5t56.5 -27.5q43 0 57 27q15 29 15 106q0 79 -15 107q-13 28 -57 28z" />
    <glyph glyph-name="uni24FF" unicode="&#x24ff;" 
d="M400 707q168 0 254 -86t86 -254t-86 -254t-254 -86q-167 0 -255 86q-86 86 -86 254t86.5 254t254.5 86zM399 572q-94 0 -125 -43t-31 -166q0 -122 31 -165t125 -43t125 43q32 44 32 165q0 122 -32 166q-31 43 -125 43zM399 498q44 0 57 -28q15 -28 15 -107
q0 -77 -15 -106q-14 -27 -57 -27q-42 0 -56.5 27.5t-14.5 105.5q0 77 14 107q15 28 57 28z" />
    <glyph glyph-name="lozenge.001" unicode="&#x25ca;" horiz-adv-x="594" 
d="M253 717h87q12 0 18 -10l211 -347q6 -10 -1 -20l-212 -330q-6 -10 -18 -10h-83q-12 0 -18 10l-211 330q-7 10 -1 20l210 347q6 10 18 10zM403 361l-96 158q-11 17 -21 0l-95 -158q-7 -10 0 -20l95 -151q10 -16 20 0l97 151q6 10 0 20z" />
    <glyph glyph-name="uni261E" unicode="&#x261e;" horiz-adv-x="943" 
d="M678 603l154 -3q50 0 68 -15t18 -58t-18 -58.5t-68 -15.5h-50q3 -9 3 -24q0 -25 -15 -42q15 -17 15 -45q0 -26 -15 -42q15 -16 15 -45q0 -30 -14 -43.5t-54 -20.5q-170 -23 -257 -22q-94 1 -214 30v-34q0 -11 -11 -11h-136q-7 0 -10 10q-60 196 0 392q3 9 10 9h136
q11 0 11 -10v-20q99 41 186 54q90 14 246 14zM558 497h274q26 0 34 5.5t8 24.5t-8 24t-36 5l-152 3q-159 0 -246 -15q-87 -14 -186 -57v-242q107 -29 195 -32q91 -3 257 18q26 4 34 8.5t8 15.5q0 14 -8 18.5t-34 4.5h-141q-10 0 -10 11v24q0 10 10 10h142q26 0 33.5 3.5
t7.5 15.5q0 15 -8 19.5t-34 4.5h-141q-10 0 -10 10v24q0 10 10 10h142q26 0 33.5 3.5t7.5 15.5q0 15 -8 19.5t-34 4.5h-140q-10 0 -10 10v24q0 10 10 10zM202 199v322h-78q-45 -147 -3 -322h81z" />
    <glyph glyph-name="uni267C" unicode="&#x267c;" 
d="M754 380q0 -147 -104 -251q-103 -103 -250 -103t-250 103q-104 104 -104 251q0 146 104 250t250 104t250 -104t104 -250zM405 564l41 -69l-39 -24l129 1l63 112l-42 -25l-28 46q-16 25 -41 31l-8 1l-162 1q-35 -4 -52 -26l-4 -8l-57 -98l114 -65l71 125q10 10 15 -2z
M555 276l-81 -1v46l-64 -112l65 -112v49l54 1q28 0 47 21l5 6l81 140q16 33 4 58l-4 8l-57 97l-113 -64l72 -126q2 -5 -0.5 -8.5t-8.5 -2.5zM230 290l40 71l40 -23l-66 111l-128 -1l42 -24l-26 -47q-15 -27 -6 -51l3 -8l81 -140q24 -32 50 -32h8h113l-1 130h-144
q-14 2 -6 14z" />
    <glyph glyph-name="uni2776" unicode="&#x2776;" 
d="M400 707q168 0 254 -86t86 -254t-86 -254t-254 -86t-254 86t-86 254t86 254t254 86zM520 232h-65v264q0 50 -35 64q-28 12 -67 12q-35 0 -55 -7q-10 -4 -10 -13v-42q0 -9 11 -9h32q23 0 32.5 -7t9.5 -25v-237h-69q-11 0 -11 -10v-54q0 -10 11 -10h216q10 0 10 9v55
q0 10 -10 10z" />
    <glyph glyph-name="uni2777" unicode="&#x2777;" 
d="M400 707q168 0 254 -86t86 -254t-86 -254t-254 -86t-254 86t-86 254t86 254t254 86zM398 572q-66 0 -113 -10q-8 -2 -8 -10v-47q0 -7 7 -7h115q33 0 46 -8t13 -31v-19q0 -33 -26 -48l-105 -64q-42 -25 -57.5 -47t-15.5 -58v-50q0 -15 14 -15h274q6 0 6 4v66q0 4 -6 4
h-190v6q0 20 36 37l103 58q32 19 42.5 40t10.5 56v49q0 59 -45 78q-36 16 -101 16z" />
    <glyph glyph-name="uni2778" unicode="&#x2778;" 
d="M400 707q168 0 254 -86t86 -254t-86 -254t-254 -86t-254 86t-86 254t86 254t254 86zM392 572q-69 0 -119 -10q-9 -2 -9 -11v-46q0 -7 9 -7h85q57 0 75.5 -8.5t18.5 -35.5v-10q0 -27 -15.5 -37t-56.5 -10h-84q-8 0 -8 -8v-51q0 -8 8 -8h85q71 0 71 -45v-12
q0 -27 -18.5 -35.5t-75.5 -8.5h-85q-9 0 -9 -8v-45q0 -10 9 -12q55 -9 119 -9q78 0 111.5 23.5t33.5 84.5v18q0 73 -57 83q57 14 57 84v15q0 61 -33.5 85t-111.5 24z" />
    <glyph glyph-name="uni2779" unicode="&#x2779;" 
d="M400 707q168 0 254 -86t86 -254t-86 -254t-254 -86t-254 86t-86 254t86 254t254 86zM377 569h-65q-10 0 -13 -7l-67 -244q-4 -16 -4 -19v-35q0 -10 10 -10h179v-86q0 -10 9 -10h66q10 0 10 10v86h60q11 0 11 10v55q0 9 -11 9h-60v125q0 11 -12 7l-66 -23q-7 -3 -7 -12
v-97h-96l63 230q3 11 -7 11z" />
    <glyph glyph-name="uni277A" unicode="&#x277a;" 
d="M400 707q168 0 254 -86t86 -254t-86 -254t-254 -86t-254 86t-86 254t86 254t254 86zM526 569h-251q-8 0 -8 -8l-11 -157v-51q0 -10 14 -10h105q48 0 66 -11t18 -41v-13q0 -30 -17 -39.5t-67 -9.5h-110q-9 0 -9 -7v-48q0 -10 9 -11q51 -8 110 -8q100 0 134 25q35 26 35 96
v20q0 69 -33.5 95t-119.5 26q-36 0 -53 -4l6 82h182q10 0 10 10v54q0 10 -10 10z" />
    <glyph glyph-name="uni277B" unicode="&#x277b;" 
d="M400 707q168 0 254 -86t86 -254t-86 -254t-254 -86t-254 86t-86 254t86 254t254 86zM447 569h-72q-8 0 -12 -7l-102 -205q-11 -24 -12 -57v-32q2 -59 39 -86t113 -27q77 0 113.5 25t36.5 79v46q0 51 -35.5 77.5t-96.5 26.5q-26 0 -39 -4l73 152q6 12 -6 12zM467 292v-13
q0 -29 -14.5 -39.5t-51.5 -10.5t-51.5 10.5t-14.5 39.5v13q0 29 14.5 39t51.5 10t51.5 -10t14.5 -39z" />
    <glyph glyph-name="uni277C" unicode="&#x277c;" 
d="M400 707q168 0 254 -86t86 -254t-86 -254t-254 -86t-254 86t-86 254t86 254t254 86zM541 569h-281q-11 0 -11 -10v-55q0 -9 11 -9h186l-170 -326q-6 -11 7 -11h76q9 0 12 7l176 339q4 7 4 14v41q0 10 -10 10z" />
    <glyph glyph-name="uni277D" unicode="&#x277d;" 
d="M400 707q168 0 254 -86t86 -254t-86 -254t-254 -86t-254 86t-86 254t86 254t254 86zM406 572h-9q-138 0 -138 -113q0 -70 55 -92q-69 -31 -69 -100q0 -112 150 -112h10q150 0 150 114q0 70 -65 93q29 18 41.5 39.5t12.5 58.5q0 112 -138 112zM395 498h8q52 0 52 -48
q0 -38 -31 -54l-39 9q-40 10 -40 46q0 47 50 47zM378 335l49 -12q41 -11 41 -48q0 -46 -64 -46h-7q-64 0 -64 50q0 39 45 56z" />
    <glyph glyph-name="uni277E" unicode="&#x277e;" 
d="M400 707q168 0 254 -86t86 -254t-86 -254t-254 -86t-254 86t-86 254t86 254t254 86zM399 572q-78 0 -114 -25t-36 -80v-45q0 -52 35 -78t98 -26q24 0 39 4l-74 -152q-5 -12 7 -12h71q8 0 12 7l102 205q12 24 12 57v32q-1 59 -38 86t-114 27zM399 497q39 0 53.5 -10
t14.5 -39v-13q0 -29 -14.5 -39t-53.5 -10q-37 0 -50.5 10t-13.5 39v13q0 29 13.5 39t50.5 10z" />
    <glyph glyph-name="uniF8FF" unicode="&#xf8ff;" horiz-adv-x="921" 
d="M871 20h-821v700h821v-700zM491 387q12 0 16 7h1l2 -6h8v73h-11v-19q0 -6 1 -9h-1q-5 8 -15 8t-16 -7q-13 -20 0 -40q6 -7 15 -7zM644 449q1 -1 5 -1t5 1q2 5 0 10q-1 1 -5 1t-5 -1q-2 -5 0 -10zM161 388h10l20 57h1q0 -6 -1 -10v-47h11v69h-16l-20 -55l-19 55h-16v-69
h10v33q0 19 -1 25h1zM351 396q-3 0 -5 2t-2 6v28h15v8h-15v12h-7l-4 -11l-8 -4v-5h8v-29q0 -16 15 -16h6q3 0 5 2v8q-1 -1 -8 -1zM261 434q-6 7 -18 7t-19 -7q-6 -7 -6 -20q0 -8 3 -14q3 -7 9 -10q4 -3 13 -3q12 0 18 7q15 20 0 40zM318 403q0 1 -1 3t-1 3l-4 5l-10 4l-10 5
q-2 2 -2 4q0 5 9 5q5 0 14 -3l4 8q-20 9 -33 0q-5 -3 -5 -10q0 -6 3 -9q3 -4 12 -7l8 -4q3 0 3 -2q2 -2 2 -4q0 -6 -11 -6q-6 0 -17 4v-9q6 -3 17 -3t16 4q6 5 6 12zM405 388h7v35q0 9 -5 14q-4 4 -15 4q-7 0 -9 -1t-5.5 -2.5t-4.5 -1.5l4 -8q3 3 7 3q2 1 8 1q5 0 7 -2t2 -8
v-2l-9 -1q-14 0 -18 -4q-6 -5 -6 -12q0 -11 9.5 -15t16.5 0q2 1 8 7zM461 430l1 11h-5q-6 0 -9 -3q-6 -4 -7 -7h-1l-1 9h-9v-52h11v27q0 6 4 11q5 5 11 5q4 0 5 -1zM559 387h10l8 3v9l-9 -3h-3q-3 -1 -5 -1q-8 0 -11 5q-4 3 -4 11h35v6q0 16 -14.5 22.5t-25.5 -5.5
q-7 -7 -7 -21q0 -26 26 -26zM629 403q0 6 -5 11l-10 4l-10 5q-2 2 -2 4q0 5 9 5q5 0 14 -3l4 8q-20 9 -33 0q-5 -3 -5 -10q0 -6 3 -9q3 -4 12 -7l8 -4q3 0 3 -2q1 -1 1 -4q0 -6 -10 -6q-6 0 -17 4v-9q11 -5 26 -1.5t12 14.5zM717 434v6h-18h-1q-1 1 -3 1h-5q-10 0 -15 -5
q-6 -5 -6 -13q0 -6 3 -9q3 -5 7 -6q-1 0 -5 -4q-2 -2 -2 -5l1 -4q1 -3 4 -3q-5 -2 -8 -5t-3 -8q0 -6 5 -11q7 -4 17 -4q13 0 21 5q7 4 7 14q0 7 -4 11q-4 3 -14 3h-9q-3 0 -4 1h-2q-2 2 -2 3q0 4 4 5h5q11 0 15 4q6 4 6 13q0 2 -1 3v2q-1 1 -2 4zM763 388h12v34q0 19 -19 19
q-2 0 -10 -2q-4 -1 -7 -6l-2 7h-9v-52h12v26q0 18 13 18q5 0 8 -3q2 -2 2 -9v-32zM655 388v52h-12v-52h12zM683 431q1 3 7 3t7 -3q3 -3 3 -8q0 -10 -10 -10q-1 0 -7 2q-8 8 0 16zM569 419h-24q0 7 4 10q5 6 12.5 3t7.5 -13zM229 414q0 9 4 13q3 5 10 5q13 0 13 -18t-13 -18
q-14 0 -14 18zM494 396q-6 0 -9 4q-3 5 -3 14t3 13q3 5 9 5q7 0 10 -4q4 -4 4 -14v-2q0 -9 -4 -12q-3 -4 -10 -4zM388 395q-4 0 -6 2t-2 6t3 7q8 2 12 2l6 1v-5q0 -6 -3 -9q-4 -4 -10 -4zM676 379q0 5 2 7q6 2 8 2h8q7 0 9 -2q3 -2 3 -5q0 -4 -5 -6q-5 -3 -13 -3q-3 0 -9 2
q-3 2 -3 5zM664 278h1l2 -7h8v74h-11v-19v-4q1 -3 1 -5q-6 7 -16 7t-16 -7q-13 -20 0 -40q6 -7 16 -7t15 8zM155 271v60h21v9h-52v-9h20v-60h11zM401 271v29h26v9h-26v22h28v9h-39v-69h11zM179 324l21 -53l-2 -5q-3 -9 -11 -9h-6v-8q2 -1 7 -1q15 0 21 16l22 60h-12
q-3 -10 -6 -18.5t-4.5 -12t-1.5 -5.5q-1 -1 -1 -6h-1q0 6 -3 12l-11 30h-12zM268 270q8 0 15 7q6 7 6 20q0 14 -6 20q-4 7 -15 7t-16 -8l-2 8h-9v-76h11v29q6 -7 16 -7zM327 270q7 0 9 1q5 0 8 3v9q-4 -3 -8 -3q-2 -1 -9 -1t-11 4q-4 5 -4 12h35v6q0 23 -22 23
q-16 0 -22.5 -17t4.5 -30q7 -7 20 -7zM482 317q-6 7 -18 7t-18 -7q-7 -6 -7 -20q0 -8 3 -14q4 -6 9 -10q6 -3 13 -3q16 -3 23 16t-5 31zM541 271h8v53h-11v-27q0 -9 -3 -14q-4 -4 -10 -4q-11 0 -11 12v33h-11v-35q0 -19 19 -19q2 0 10 2l7 6zM602 271h11v34q0 19 -18 19
q-6 0 -10 -2t-7 -5l-2 7h-9v-53h11v26q0 9 4 14q3 4 10 4q5 0 8 -3q2 -6 2 -9v-32zM724 314l1 10h-5q-10 0 -16 -10l-2 10h-9v-53h11v27q0 7 5 12q3 4 10 4h5zM729 324l21 -53l-2 -5q-3 -9 -11 -9h-6v-8q2 -1 7 -1q15 0 21 16l22 60h-12q-3 -10 -6 -18.5t-4.5 -12t-1.5 -5.5
q-1 -1 -1 -6h-1q0 6 -3 12l-11 30h-12zM325 316q5 0 8 -3q3 -5 3 -10h-24q1 2 2.5 5.5t1.5 4.5q3 3 9 3zM265 315q6 0 9 -4q3 -5 3 -14t-3 -13q-3 -5 -9 -5q-7 0 -10 5q-3 3 -3 13v2q0 9 3 12q3 4 10 4zM451 297q0 9 3 14q3 4 10 4q13 0 13 -18t-13 -18t-13 18zM652 279
q-9 0 -12.5 11t2.5 21q4 4 9 4q7 0 11 -4q3 -5 3 -14v-1q0 -8 -3 -13q-4 -4 -10 -4z" />
    <glyph glyph-name="u1F603" unicode="&#x1f603;" horiz-adv-x="860" 
d="M426 8q-192 0 -282.5 92t-90.5 288t90.5 288.5t282.5 92.5q198 0 290 -92t92 -289t-92 -288.5t-290 -91.5zM426 66q167 0 246 78t79 244t-79 244.5t-246 78.5q-162 0 -239 -78t-77 -245q0 -165 77 -243.5t239 -78.5zM284 396q-70 0 -70 71q0 72 70 72q38 0 55 -17.5
t17 -54.5q0 -71 -72 -71zM487 467q0 72 71 72t71 -72q0 -71 -71 -71t-71 71zM426 136q-108 0 -160 40.5t-50 118.5h410q1 -78 -48.5 -118t-151.5 -41z" />
    <glyph glyph-name="NULL" horiz-adv-x="0" 
 />
    <glyph glyph-name="CR" horiz-adv-x="333" 
 />
    <glyph glyph-name="Q.salt" horiz-adv-x="742" 
d="M551 21l105 -49q14 -6 6 -21l-54 -92q-8 -13 -21 -6l-237 142q-178 5 -240 86q-63 83 -63 305q0 121 15 192.5t52 117.5q37 47 96.5 65.5t160.5 18.5t160.5 -18.5t96.5 -65.5q37 -46 52 -117.5t15 -192.5q0 -163 -32 -248q-32 -84 -112 -117zM206 386q0 -149 32 -202
q31 -52 133 -52t133 52q32 53 32 202q0 151 -32 204t-133 53t-133 -53t-32 -204z" />
    <glyph glyph-name="i.locl" horiz-adv-x="268" 
d="M134 778q82 0 82 -75q0 -76 -82 -76q-83 0 -83 76q0 75 83 75zM75 560h118q15 0 15 -15v-529q0 -16 -15 -16h-118q-15 0 -15 16v529q0 15 15 15z" />
    <glyph glyph-name="g.salt" horiz-adv-x="598" 
d="M516 598l58 -57q10 -11 -1 -22l-43 -44q15 -41 15 -117q0 -119 -49 -158q-50 -38 -204 -38q-15 0 -77 2l-5 -15q-10 -19 -1.5 -27t43.5 -11l190 -17q62 -6 84.5 -40.5t22.5 -102.5v-11q0 -86 -57 -114q-58 -29 -185 -29t-235 9q-14 2 -14 15v78q0 16 16 16h261q41 0 55 6
t14 25v5q0 15 -8.5 21t-32.5 8l-202 18q-112 11 -77 127l24 64q-38 20 -53 58.5t-15 110.5q2 69 11 105.5t38 60.5t74 31.5t129 9.5q104 0 154 -15l49 48q11 14 21 0zM396 357q0 49 -20 67t-84 18t-84 -18q-19 -16 -19 -67t19 -69q20 -17 84 -17t84 18t20 68z" />
    <glyph glyph-name="hungarumlaut.salt" horiz-adv-x="599" 
d="M127 764q-3 16 14 16h57q12 0 17 -12q13 -28 31.5 -39t53.5 -11t53.5 11t30.5 39q4 12 17 12h59q17 0 14 -15q-10 -76 -49 -107q-37 -30 -125 -30q-87 0 -125 29q-37 30 -48 107zM517 598l58 -57q11 -11 -1 -22l-43 -44q15 -41 15 -117q0 -121 -49 -160t-204 -39
q-65 0 -98 4l-1 -3q-6 -21 1.5 -28.5t40.5 -10.5l207 -19q71 -6 91 -53q16 -38 16 -95v-14q0 -86 -57 -114q-58 -29 -185 -29t-235 9q-14 2 -14 15v78q0 16 16 16h261q41 0 55 6t14 25v8q0 17 -9 25.5t-32 10.5l-207 18q-43 4 -65 24.5t-21 47.5t10 57l21 53q-33 20 -47 59
t-14 109q2 69 11 105.5t38 60.5t74 31.5t129 9.5q105 0 154 -15l49 48q10 14 21 0zM190 357q0 -52 19 -70t84 -18t84 18q20 20 20 70q0 51 -20 68q-19 18 -84 18t-84 -18q-19 -16 -19 -68z" />
    <glyph glyph-name="ring.salt" horiz-adv-x="599" 
d="M176 618l-31 16q-11 8 -4 17l96 133q6 8 20 8h85q15 0 20 -8l96 -133q8 -11 -3 -17l-32 -16q-9 -6 -17 0l-106 75l-106 -75q-9 -6 -18 0zM517 598l58 -57q11 -11 -1 -22l-43 -44q15 -41 15 -117q0 -121 -49 -160t-204 -39q-65 0 -98 4l-1 -3q-6 -21 1.5 -28.5t40.5 -10.5
l207 -19q71 -6 91 -53q16 -38 16 -95v-14q0 -86 -57 -114q-58 -29 -185 -29t-235 9q-14 2 -14 15v78q0 16 16 16h261q41 0 55 6t14 25v8q0 17 -9 25.5t-32 10.5l-207 18q-43 4 -65 24.5t-21 47.5t10 57l21 53q-33 20 -47 59t-14 109q2 69 11 105.5t38 60.5t74 31.5t129 9.5
q105 0 154 -15l49 48q10 14 21 0zM190 357q0 -52 19 -70t84 -18t84 18q20 20 20 70q0 51 -20 68q-19 18 -84 18t-84 -18q-19 -16 -19 -68z" />
    </font>
</defs>
</svg>
