<?xml version="1.0" standalone="no"?>
<!DOCTYPE svg PUBLIC "-//W3C//DTD SVG 1.1//EN" "http://www.w3.org/Graphics/SVG/1.1/DTD/svg11.dtd" >
<svg>
<metadata>
Created by FontForge 20120731 at Fri Dec 23 08:23:48 2022
 By fw_worker
Copyright (c) 2016 by Mostardesign Type Foundry. All rights reserved.
</metadata>
<defs>
<font id="UniviaPro-Black" horiz-adv-x="677" >
  <font-face 
    font-family="Univia Pro Black"
    font-weight="800"
    font-stretch="normal"
    units-per-em="1000"
    panose-1="0 0 9 0 0 0 0 0 0 0"
    ascent="800"
    descent="-200"
    x-height="567"
    cap-height="783"
    bbox="-156.115 -292 1426.79 1203.5"
    underline-thickness="0"
    underline-position="0"
    unicode-range="U+0020-1F603"
  />
<missing-glyph horiz-adv-x="452" 
d="M80 783h505q15 0 15 -16v-751q0 -16 -15 -16h-505q-15 0 -15 16v751q0 16 15 16zM321 629q-72 0 -120 -9q-13 -3 -13 -15v-45q0 -10 10 -10h123q49 0 66 -8.5t21 -41.5v-24q0 -23 -8.5 -36t-27.5 -23l-81 -39q-29 -17 -37 -30t-5 -38l4 -37q0 -6 7 -6h57q7 0 7 7l1 13
q1 12 7.5 19t27.5 17l67 32q40 19 55.5 44t15.5 75v37q0 75 -54 98q-45 20 -123 20zM288 218q-51 0 -51 -48q0 -47 51 -47q50 0 50 47q0 48 -50 48z" />
    <glyph glyph-name="f_f" unicode="ff" horiz-adv-x="826" 
d="M822 777q17 -3 17 -21v-102q0 -16 -18 -16h-90q-24 0 -33.5 -6.5t-9.5 -25.5v-41h119q15 0 12 -17l-19 -101q-3 -16 -18 -16h-94v-415q0 -16 -15 -16h-144q-15 0 -15 16v415h-243v-415q0 -16 -15 -16h-145q-15 0 -15 16v415h-62q-17 0 -17 16v103q0 15 17 15h62v70
q0 96 56 126q48 27 134 27q57 0 118 -11q17 -3 17 -21v-102q0 -16 -17 -16h-91q-24 0 -33 -7t-9 -25v-41h243v70q0 96 56 126q48 27 134 27q55 0 118 -11z" />
    <glyph glyph-name="fi.001" unicode="fi" horiz-adv-x="710" 
d="M670 721q0 -44 -26.5 -68t-74.5 -24t-74.5 24t-26.5 68q0 43 26.5 67t74.5 24t74.5 -24t26.5 -67zM286 788q30 0 91 -11q17 -3 17 -21v-102q0 -16 -17 -16h-64q-24 0 -33 -7t-9 -25v-41h370q15 0 15 -16v-533q0 -16 -15 -16h-145q-15 0 -15 16v415h-210v-415
q0 -16 -15 -16h-145q-15 0 -15 16v415h-62q-17 0 -17 16v103q0 15 17 15h62v70q0 96 56 126q48 27 134 27z" />
    <glyph glyph-name="fl" unicode="fl" horiz-adv-x="699" 
d="M630 773q15 -1 15 -15v-742q0 -16 -15 -16h-145q-15 0 -15 16v621l-153 1q-25 0 -35.5 -7t-10.5 -25v-41h107q16 0 13 -17l-19 -101q-3 -16 -18 -16h-83v-415q0 -16 -15 -16h-145q-15 0 -15 16v415h-62q-17 0 -17 16v103q0 15 17 15h62v70q0 96 55 124q56 29 196 29
q125 0 283 -15z" />
    <glyph glyph-name="f_f_i" unicode="ffi" horiz-adv-x="1128" 
d="M1088 721q0 -44 -26.5 -68t-74.5 -24t-74.5 24t-26.5 68q0 43 26.5 67t74.5 24t74.5 -24t26.5 -67zM704 788q37 0 100 -11q17 -3 17 -21v-102q0 -16 -17 -16h-73q-24 0 -33.5 -6.5t-9.5 -25.5v-41h371q15 0 15 -16v-533q0 -16 -15 -16h-145q-15 0 -15 16v415h-211v-415
q0 -16 -15 -16h-144q-15 0 -15 16v415h-243v-415q0 -16 -15 -16h-145q-15 0 -15 16v415h-62q-17 0 -17 16v103q0 15 17 15h62v70q0 96 56 126q48 27 134 27q41 0 104 -11q17 -3 17 -21v-102q0 -16 -18 -16h-76q-24 0 -33 -7t-9 -25v-41h243v70q0 96 56 126q48 27 134 27z
" />
    <glyph glyph-name="f_f_l" unicode="ffl" horiz-adv-x="1117" 
d="M1048 773q15 -1 15 -15v-742q0 -16 -15 -16h-145q-15 0 -15 16v621l-153 1q-47 0 -47 -32v-41h99q15 0 12 -17l-19 -101q-3 -16 -18 -16h-74v-415q0 -16 -15 -16h-144q-15 0 -15 16v415h-243v-415q0 -16 -15 -16h-145q-15 0 -15 16v415h-62q-17 0 -17 16v103q0 15 17 15
h62v70q0 96 56 126q48 27 134 27q51 0 112 -11q17 -3 17 -21v-102q0 -16 -17 -16h-85q-24 0 -33 -7t-9 -25v-41h243v70q0 96 55 124q56 29 196 29q125 0 283 -15z" />
    <glyph glyph-name="f_b" unicode="fb" horiz-adv-x="1030" 
d="M763 572q133 0 181 -61q49 -61 49 -228q0 -171 -54 -230q-54 -58 -219 -58q-98 0 -226 21q-24 3 -24 29v592l-153 1q-25 0 -35.5 -7t-10.5 -25v-41h108q15 0 12 -17l-19 -101q-3 -16 -18 -16h-83v-415q0 -16 -15 -16h-145q-15 0 -15 16v415h-62q-17 0 -17 16v103
q0 15 17 15h62v70q0 96 55 124q56 29 196 29q125 0 283 -15q15 -1 15 -15v-192q60 6 118 6zM724 145q63 0 78 28q16 28 16 110q0 87 -18 113q-18 25 -84 25h-71v-269q32 -7 79 -7z" />
    <glyph glyph-name="f_f_b" unicode="ffb" horiz-adv-x="1448" 
d="M1182 572q133 0 181 -61t48 -228q0 -92 -11.5 -143.5t-42.5 -85.5q-30 -33 -80.5 -46t-137.5 -13q-99 0 -227 21q-23 3 -23 29v592l-154 1q-25 0 -35.5 -7t-10.5 -25v-41h108q16 0 12 -17l-19 -101q-3 -16 -17 -16h-84v-415q0 -16 -15 -16h-144q-15 0 -15 16v415h-244
v-415q0 -16 -15 -16h-145q-15 0 -15 16v415h-62q-17 0 -17 16v103q0 15 17 15h62v70q0 96 56 126q48 27 134 27q54 0 118 -11q17 -3 17 -21v-102q0 -16 -18 -16h-90q-24 0 -33 -7t-9 -25v-41h244v70q0 96 55 124q56 29 195 29q125 0 283 -15q15 -1 15 -15v-192q60 6 119 6z
M1143 145q63 0 78 28q16 28 16 110q0 86 -18 112t-84 26h-72v-269q34 -7 80 -7z" />
    <glyph glyph-name="f_f_j" unicode="ffj" horiz-adv-x="1126" 
d="M986 812q47 0 73.5 -24t26.5 -67t-26.5 -67.5t-73.5 -24.5q-48 0 -75 24.5t-27 67.5t27 67t75 24zM704 788q31 0 99 -11q17 -3 17 -21v-102q0 -16 -17 -16h-72q-24 0 -33.5 -6.5t-9.5 -25.5v-41h369q15 0 15 -16v-612q0 -89 -37 -117q-38 -29 -120 -29q-62 0 -95 10
q-17 5 -17 21v104q0 15 17 15h26q33 0 42.5 8.5t9.5 38.5v443h-210v-415q0 -16 -15 -16h-144q-15 0 -15 16v415h-243v-415q0 -16 -15 -16h-145q-15 0 -15 16v415h-62q-17 0 -17 16v103q0 15 17 15h62v70q0 96 56 126q48 27 134 27q34 0 103 -11q16 -3 16 -21v-102
q0 -16 -17 -16h-75q-24 0 -33 -7t-9 -25v-41h243v70q0 96 56 126q48 27 134 27z" />
    <glyph glyph-name="f_f_k" unicode="ffk" horiz-adv-x="1418" 
d="M1385 548l-152 -205l189 -316q15 -27 -17 -27h-154q-14 0 -22 11l-167 293v-288q0 -16 -15 -16h-144q-15 0 -15 16v621l-154 1q-25 0 -35.5 -7t-10.5 -25v-41h108q15 0 12 -17l-19 -101q-3 -16 -18 -16h-83v-415q0 -16 -15 -16h-145q-15 0 -15 16v415h-242v-415
q0 -16 -15 -16h-145q-15 0 -15 16v415h-62q-17 0 -17 16v103q0 15 17 15h62v70q0 96 56 126q48 27 134 27q54 0 118 -11q17 -3 17 -21v-102q0 -16 -18 -16h-90q-24 0 -33 -7t-9 -25v-41h242v70q0 95 55 123q56 30 196 30q126 0 283 -15q15 -1 15 -15v-383l133 182
q7 10 21 10h160q25 0 9 -19z" />
    <glyph glyph-name="f_j" unicode="fj" horiz-adv-x="709" 
d="M669 721q0 -44 -26.5 -68t-74.5 -24t-74.5 24t-26.5 68q0 43 26.5 67t74.5 24t74.5 -24t26.5 -67zM286 788q32 0 100 -11q17 -3 17 -21v-102q0 -16 -17 -16h-73q-24 0 -33 -7t-9 -25v-41h369q15 0 15 -16v-612q0 -89 -37 -117q-38 -29 -120 -29q-63 0 -96 10
q-17 5 -17 21v104q0 15 17 15h26q33 0 42.5 8.5t9.5 38.5v443h-209v-415q0 -16 -15 -16h-145q-15 0 -15 16v415h-62q-17 0 -17 16v103q0 15 17 15h62v70q0 96 56 126q48 27 134 27z" />
    <glyph glyph-name="f_k" unicode="fk" horiz-adv-x="1001" 
d="M968 548l-152 -205l189 -316q15 -27 -17 -27h-154q-16 0 -22 11l-167 293v-288q0 -16 -15 -16h-145q-15 0 -15 16v621l-153 1q-25 0 -35.5 -7t-10.5 -25v-41h107q16 0 13 -17l-19 -101q-3 -16 -18 -16h-83v-415q0 -16 -15 -16h-145q-15 0 -15 16v415h-62q-17 0 -17 16
v103q0 15 17 15h62v70q0 96 55 124q56 29 196 29q125 0 283 -15q15 -1 15 -15v-383l133 182q7 10 21 10h160q22 0 9 -19z" />
    <glyph glyph-name=".notdef" horiz-adv-x="452" 
d="M80 783h505q15 0 15 -16v-751q0 -16 -15 -16h-505q-15 0 -15 16v751q0 16 15 16zM321 629q-72 0 -120 -9q-13 -3 -13 -15v-45q0 -10 10 -10h123q49 0 66 -8.5t21 -41.5v-24q0 -23 -8.5 -36t-27.5 -23l-81 -39q-29 -17 -37 -30t-5 -38l4 -37q0 -6 7 -6h57q7 0 7 7l1 13
q1 12 7.5 19t27.5 17l67 32q40 19 55.5 44t15.5 75v37q0 75 -54 98q-45 20 -123 20zM288 218q-51 0 -51 -48q0 -47 51 -47q50 0 50 47q0 48 -50 48z" />
    <glyph glyph-name=".null" horiz-adv-x="0" 
 />
    <glyph glyph-name="nonmarkingreturn" horiz-adv-x="333" 
 />
    <glyph glyph-name="space" unicode=" " horiz-adv-x="194" 
 />
    <glyph glyph-name="exclam" unicode="!" horiz-adv-x="305" 
d="M71 783h162q15 0 15 -16v-330v-3q-1 -2 -1.5 -6t-0.5 -9l-37 -164q-5 -17 -15 -17h-83q-12 0 -15 17l-38 164q0 5 -0.5 9t-1.5 6v3v330q0 16 15 16zM253 87q0 -44 -26.5 -68t-74.5 -24t-74.5 24t-26.5 68q0 43 26.5 67t74.5 24t74.5 -24t26.5 -67z" />
    <glyph glyph-name="quotedbl" unicode="&#x22;" horiz-adv-x="556" 
d="M53 783h162q15 0 15 -16v-129q0 -1 -0.5 -3t-1 -6.5t-0.5 -9.5l-38 -164q-3 -16 -15 -16h-83q-11 0 -15 16l-37 164q0 5 -0.5 9.5t-1 6.5t-0.5 3v129q0 16 15 16zM341 783h162q15 0 15 -16v-129q0 -1 -0.5 -3t-1 -6.5t-0.5 -9.5l-37 -164q-4 -16 -15 -16h-83
q-12 0 -15 16l-38 164q0 5 -0.5 9.5t-1 6.5t-0.5 3v129q0 16 15 16z" />
    <glyph glyph-name="numbersign" unicode="#" horiz-adv-x="733" 
d="M676 453h-85v-126h85q16 0 16 -15v-128q0 -15 -16 -15h-85v-153q0 -16 -15 -16h-144q-15 0 -15 16v153h-111v-153q0 -16 -15 -16h-144q-15 0 -15 16v153h-73q-16 0 -16 15v128q0 15 16 15h73v126h-73q-16 0 -16 15v128q0 15 16 15h73v156q0 16 15 16h144q15 0 15 -16
v-156h111v156q0 16 15 16h144q15 0 15 -16v-156h85q16 0 16 -15v-128q0 -15 -16 -15zM306 327h111v126h-111v-126z" />
    <glyph glyph-name="dollar" unicode="$" horiz-adv-x="631" 
d="M281 490l173 -58q80 -27 115 -68t35 -126v-23q0 -85 -59.5 -128.5t-178.5 -52.5v-66q0 -16 -15 -16h-62q-15 0 -15 16v64q-96 3 -220 23q-18 3 -18 21v98q0 18 20 18h303q32 0 45 8.5t13 28.5v9q0 20 -14.5 31.5t-55.5 26.5l-173 56q-70 22 -100.5 67.5t-30.5 131.5v20
q0 86 56.5 129.5t174.5 50.5v65q0 16 15 16h62q15 0 15 -16v-63q70 -1 183 -22q18 -5 18 -17v-105q0 -17 -19 -17h-259q-33 0 -46 -9.5t-13 -32.5v-6q0 -36 51 -54z" />
    <glyph glyph-name="percent" unicode="%" horiz-adv-x="948" 
d="M411 581q0 -123 -39 -165q-39 -41 -154 -41t-154 41q-39 42 -39 165q0 124 39 166t154 42t154 -42t39 -166zM648 784h59q13 0 6 -15l-395 -754q-8 -15 -23 -15h-60q-15 0 -7 15l396 754q8 15 24 15zM155 581q0 -56 13 -75.5t50 -19.5t50 19.5t13 75.5q0 57 -13 76.5
t-50 19.5t-50 -19.5t-13 -76.5zM923 201q0 -123 -39 -165q-39 -41 -155 -41q-115 0 -154 41q-39 42 -39 165q0 124 39 166t154 42t154 -42q40 -41 40 -166zM666 201q0 -56 13 -75.5t50 -19.5t50 19.5t13 75.5q0 57 -13 76.5t-50 19.5t-50 -19.5t-13 -76.5z" />
    <glyph glyph-name="ampersand" unicode="&#x26;" horiz-adv-x="684" 
d="M320 789q94 0 173 -18q26 -7 26 -29v-100q0 -14 -15 -14h-161q-64 0 -87 -14.5t-23 -57.5v-13q0 -45 22 -62t82 -17h285q18 0 18 -15v-86q0 -11 -18 -16l-67 -16v-144q0 -30 12 -40t45 -10h29q18 0 18 -15v-96q0 -17 -17 -20q-39 -11 -82 -11q-33 0 -43 1q-51 3 -75 31
q-59 -32 -152 -32q-242 0 -242 195v57q0 124 106 145q-106 19 -106 146v57q0 117 79 158q69 36 193 36zM404 169v156h-80q-52 0 -71.5 -17t-19.5 -62v-17q0 -41 21 -57t74 -16q40 0 76 13z" />
    <glyph glyph-name="quotesingle" unicode="'" horiz-adv-x="268" 
d="M53 783h162q15 0 15 -16v-129q0 -1 -0.5 -3t-1 -6.5t-0.5 -9.5l-38 -164q-3 -16 -15 -16h-83q-11 0 -15 16l-37 164q0 5 -0.5 9.5t-1 6.5t-0.5 3v129q0 16 15 16z" />
    <glyph glyph-name="parenleft" unicode="(" horiz-adv-x="367" 
d="M219 831h134q9 0 9 -9v-11q0 -5 -3 -11q-79 -115 -109 -180q-33 -70 -40 -121q-7 -49 -7 -163q0 -85 3 -125q3 -43 19 -96q16 -55 46 -107q31 -53 88 -136q3 -6 3 -11v-11q0 -9 -9 -9h-134q-9 0 -17 9q-79 104 -113 176t-43 133q-8 66 -8 178q0 114 9 176q11 65 44 132
q35 71 111 177q6 9 17 9z" />
    <glyph glyph-name="parenright" unicode=")" horiz-adv-x="367" 
d="M14 831h134q11 0 17 -9q77 -106 111 -177q34 -69 43 -132q10 -59 10 -176t-9 -178q-17 -125 -155 -309q-7 -9 -17 -9h-134q-9 0 -9 9v11q0 5 3 11q57 83 88 136q30 52 46 107q16 53 19 96q3 40 3 125q0 107 -8 163q-8 54 -39 121q-30 65 -109 180q-3 6 -3 11v11q0 9 9 9z
" />
    <glyph glyph-name="asterisk" unicode="*" horiz-adv-x="437" 
d="M179 803h78q15 0 15 -16l-9 -108l104 40q14 5 19 -9l21 -74q4 -14 -10 -19l-103 -28l70 -88q10 -11 -3 -21l-60 -41q-13 -9 -21 3l-60 90l-66 -93q-9 -13 -21 -3l-58 46q-12 9 -2 21l69 84l-106 31q-14 3 -10 19l24 72q5 15 20 9l101 -41l-7 110q-1 16 15 16z" />
    <glyph glyph-name="plus" unicode="+" horiz-adv-x="570" 
d="M219 557h133q15 0 15 -15v-154h160q15 0 15 -15v-124q0 -15 -15 -15h-160v-154q0 -15 -15 -15h-133q-15 0 -15 15v154h-161q-15 0 -15 15v124q0 15 15 15h161v154q0 15 15 15z" />
    <glyph glyph-name="comma" unicode="," horiz-adv-x="300" 
d="M73 130h181q10 0 10 -10v-27q0 -7 -5 -15l-201 -264q-8 -8 -15 -4l-55 31q-6 4 -3 14l77 266q3 9 11 9z" />
    <glyph glyph-name="hyphen" unicode="-" horiz-adv-x="464" 
d="M68 388h328q16 0 16 -15v-131q0 -15 -16 -15h-328q-16 0 -16 15v131q0 15 16 15z" />
    <glyph glyph-name="period" unicode="." horiz-adv-x="267" 
d="M134 178q47 0 73.5 -24t26.5 -67t-26.5 -67.5t-73.5 -24.5q-49 0 -75.5 24t-26.5 68q0 43 26.5 67t75.5 24z" />
    <glyph glyph-name="slash" unicode="/" horiz-adv-x="514" 
d="M414 824h69q16 0 8 -17l-369 -837q-8 -17 -23 -17h-70q-17 0 -8 17l371 837q8 17 22 17z" />
    <glyph glyph-name="zero" unicode="0" horiz-adv-x="698" 
d="M349 789q96 0 153.5 -19t91.5 -66t47.5 -118.5t13.5 -195.5q0 -123 -13.5 -194t-47.5 -118q-34 -46 -91 -64.5t-154 -18.5q-98 0 -154.5 18.5t-91.5 64.5q-34 47 -47 117.5t-13 194.5t13.5 195.5t47.5 118.5q35 47 91.5 66t153.5 19zM228 390q0 -138 24 -186t97 -48
q72 0 96 48q25 49 25 186q0 139 -25 188q-24 50 -96 50q-71 0 -97 -50q-24 -50 -24 -188z" />
    <glyph glyph-name="one" unicode="1" horiz-adv-x="508" 
d="M357 636v-475h123q16 0 16 -15v-131q0 -15 -16 -15h-424q-15 0 -15 15l-1 131q0 15 16 15h126v427q0 30 -13 40t-49 10h-70q-17 0 -17 15v103q0 18 17 21q56 12 114 12q88 0 136 -27q57 -29 57 -126z" />
    <glyph glyph-name="two" unicode="2" horiz-adv-x="635" 
d="M291 789q103 0 168 -20q122 -38 122 -167v-101q0 -63 -18 -103q-17 -39 -89 -89l-154 -104q-24 -13 -24 -33v-10h293q8 0 8 -6v-150q0 -6 -7 -6h-535q-27 0 -27 28v90q0 58 26 93q23 31 101 89l201 145q24 18 32 37t8 53v20q0 42 -26.5 57.5t-101.5 15.5h-197
q-14 0 -14 13v100q0 22 24 29q86 19 210 19z" />
    <glyph glyph-name="three" unicode="3" horiz-adv-x="631" 
d="M282 789q114 0 181 -22q120 -36 120 -172v-57q0 -126 -105 -146q105 -21 105 -145v-57q0 -92 -54 -139q-74 -58 -247 -56q-136 0 -216 18q-15 4 -20.5 10t-5.5 18v101q0 14 15 14h206q85 0 111 14q26 15 26 61v10q0 46 -24 62.5t-95 16.5h-172q-15 0 -15 15v114
q0 15 15 15h172q73 0 95 16q24 16 24 63v13q0 44 -27 58q-28 14 -112 14h-204q-15 0 -15 14v100q0 22 26 29q80 18 216 18z" />
    <glyph glyph-name="four" unicode="4" horiz-adv-x="694" 
d="M170 783h154q16 0 11 -18l-115 -416h152v158q0 15 15 19l154 50q16 4 16 -14v-213h105q16 0 16 -15v-132q0 -15 -16 -15h-105v-171q0 -16 -15 -16h-155q-15 0 -15 16v171h-336q-15 0 -15 16v95q0 11 7 35l124 440q3 10 18 10z" />
    <glyph glyph-name="five" unicode="5" horiz-adv-x="638" 
d="M90 783h476q16 0 16 -15v-131q0 -15 -16 -15h-338l-12 -136q46 7 106 7q123 0 195 -38q81 -43 81 -161v-101q0 -119 -86 -161q-74 -37 -215 -37q-138 0 -223 17q-26 7 -26 29v101q0 14 15 14h214q83 0 109 18q27 18 27 66v7q0 49 -26 66q-25 18 -110 18h-198
q-31 0 -31 25v111l26 301q2 15 16 15z" />
    <glyph glyph-name="six" unicode="6" horiz-adv-x="641" 
d="M264 782h162q19 0 10 -18l-143 -286q37 5 69 5q256 0 256 -189v-100q0 -118 -83 -160q-77 -39 -206 -39q-133 0 -211 39q-86 43 -86 160v100q0 52 18 91l196 387q6 10 18 10zM329 331q-69 0 -91 -18q-21 -18 -21 -66v-6q0 -49 21 -67t91 -18q67 0 85 18q19 18 19 67v5
q0 49 -19 67q-20 18 -85 18z" />
    <glyph glyph-name="seven" unicode="7" horiz-adv-x="621" 
d="M36 783h555q15 0 15 -15v-100q0 -12 -7 -23l-337 -635q-6 -10 -18 -10h-181q-19 0 -10 18l326 604h-343q-16 0 -16 14v132q0 15 16 15z" />
    <glyph glyph-name="eight" unicode="8" 
d="M332 788h17q139 0 205 -52.5t66 -162.5q0 -68 -25.5 -112t-82.5 -74q68 -28 98.5 -70t30.5 -110q0 -108 -72.5 -160t-220.5 -52h-19q-149 0 -221 52.5t-72 161.5q0 68 32 113.5t101 78.5q-59 29 -84 69.5t-25 103.5q0 109 66.5 161.5t205.5 52.5zM346 627h-10
q-90 0 -90 -69q0 -58 72 -82l61 -18q56 29 56 91q0 78 -89 78zM383 304l-84 26q-43 -17 -60.5 -37.5t-17.5 -50.5q0 -86 112 -86h11q112 0 112 69q0 57 -73 79z" />
    <glyph glyph-name="nine" unicode="9" horiz-adv-x="641" 
d="M312 787q133 0 211 -39q86 -43 86 -160v-100q0 -50 -18 -91l-196 -387q-6 -10 -18 -10h-162q-19 0 -10 18l143 287q-30 -6 -69 -6q-124 0 -190 47t-66 142v101q0 117 83 159q74 39 206 39zM312 626q-67 0 -86 -18q-18 -18 -18 -67v-5q0 -49 19 -67t85 -18q70 0 91 18
t21 67v5q0 49 -21 67t-91 18z" />
    <glyph glyph-name="colon" unicode=":" horiz-adv-x="298" 
d="M250 482q0 -44 -26.5 -68t-74.5 -24t-74.5 24t-26.5 68q0 43 26.5 67t74.5 24t74.5 -24t26.5 -67zM250 87q0 -44 -26.5 -68t-74.5 -24t-74.5 24t-26.5 68q0 43 26.5 67t74.5 24t74.5 -24t26.5 -67z" />
    <glyph glyph-name="semicolon" unicode=";" horiz-adv-x="323" 
d="M274 482q0 -44 -26.5 -68t-74.5 -24t-74.5 24t-26.5 68q0 43 26.5 67t74.5 24t74.5 -24t26.5 -67zM76 130h181q10 0 10 -10v-27q0 -7 -5 -15l-201 -264q-8 -8 -15 -4l-55 31q-6 4 -3 14l76 266q3 9 12 9z" />
    <glyph glyph-name="less" unicode="&#x3c;" horiz-adv-x="585" 
d="M500 625h22q13 0 13 -13v-134q0 -12 -12 -18l-249 -102l249 -102q12 -6 12 -18v-134q0 -13 -13 -13h-22q-7 0 -16 3l-449 198q-12 4 -12 17v98q0 12 12 17l449 197q7 4 16 4z" />
    <glyph glyph-name="equal" unicode="=" horiz-adv-x="661" 
d="M69 526h523q15 0 15 -15v-129q0 -15 -15 -15h-523q-15 0 -15 15v129q0 15 15 15zM69 256h523q15 0 15 -15v-129q0 -15 -15 -15h-523q-15 0 -15 15v129q0 15 15 15z" />
    <glyph glyph-name="greater" unicode="&#x3e;" horiz-adv-x="585" 
d="M63 625h22q9 0 16 -4l449 -197q12 -5 12 -17v-98q0 -13 -12 -17l-449 -198q-9 -3 -16 -3h-22q-13 0 -13 13v134q0 12 12 18l250 102l-250 102q-12 6 -12 18v134q0 13 13 13z" />
    <glyph glyph-name="question" unicode="?" horiz-adv-x="558" 
d="M243 789q102 0 167 -20q122 -38 122 -168v-56q0 -79 -24 -117q-22 -37 -86 -66l-102 -49q-48 -23 -54 -50l-2 -12q-1 -13 -14 -13h-112q-13 0 -14 13l-7 48q-8 49 8 75q17 28 76 59l93 48q29 16 41 30.5t12 38.5v18q0 36 -22 48t-84 12h-201q-15 0 -15 15v97q0 24 25 31
q82 18 193 18zM294 87q0 -44 -26.5 -68t-74.5 -24t-74.5 24t-26.5 68q0 43 26.5 67t74.5 24t74.5 -24t26.5 -67z" />
    <glyph glyph-name="at" unicode="@" horiz-adv-x="1017" 
d="M515 783q238 0 351 -100t113 -312q0 -151 -68.5 -226.5t-193.5 -78.5h-214q-88 0 -132 10q-41 11 -58.5 38.5t-20.5 84.5v23q1 82 44 110t141 28h94v17q0 50 -65 50h-166q-8 0 -10 2.5t-2 9.5v88q0 11 11 14q76 14 165 14q136 0 179 -43q37 -37 37 -110v-283
q95 0 147 63.5t52 188.5q0 182 -99 269t-306 87q-215 0 -316.5 -104t-101.5 -323q0 -222 99 -321q98 -99 288 -104q11 0 11 -11v-34q0 -11 -11 -11q-228 1 -337.5 119t-109.5 362q0 249 116 366t363 117zM571 183v87h-79q-32 0 -43 -8t-11 -30v-10q0 -23 12 -30.5t46 -8.5
h75z" />
    <glyph glyph-name="A" unicode="A" horiz-adv-x="727" 
d="M363 789q98 0 129 -20t53 -101l178 -652q3 -16 -13 -16h-153q-10 0 -14 16l-54 202h-251l-56 -202q-4 -16 -13 -16h-153q-16 0 -13 16l179 652q22 81 53 101t128 20zM362 635q-8 0 -10.5 -3t-5.5 -13l-67 -250h169l-68 250q-3 10 -6 13t-12 3z" />
    <glyph glyph-name="B" unicode="B" horiz-adv-x="709" 
d="M372 789q155 0 219 -49q65 -50 65 -168q0 -87 -28 -127.5t-96 -51.5v-3q77 -7 109 -48t32 -131q0 -120 -64 -168q-65 -48 -218 -48q-163 0 -310 12q-15 1 -15 14v742q0 13 15 14q147 12 291 12zM352 628h-101v-171h92q72 0 98.5 17.5t26.5 66.5t-26 68t-90 19zM375 328
h-124v-172h123q61 0 86 18t25 65q0 49 -25 69t-85 20z" />
    <glyph glyph-name="C" unicode="C" horiz-adv-x="632" 
d="M372 789q123 0 202 -18q15 -4 20.5 -10.5t5.5 -20.5v-97q0 -15 -15 -15h-213q-88 0 -116 -48q-27 -48 -27 -187t27 -188q28 -49 116 -49h213q15 0 15 -15v-97q0 -25 -26 -31q-74 -18 -202 -18q-102 0 -163.5 19t-99.5 65q-37 47 -52 119.5t-15 194.5q0 232 67 314t263 82
z" />
    <glyph glyph-name="D" unicode="D" horiz-adv-x="749" 
d="M378 789q179 0 255 -94q76 -92 76 -305q0 -211 -76 -303q-77 -92 -255 -92q-150 0 -297 12q-15 1 -15 12v744q0 13 15 14q147 12 297 12zM375 628h-124v-472h127q78 0 111 54t33 180q0 127 -33.5 182.5t-113.5 55.5z" />
    <glyph glyph-name="E" unicode="E" horiz-adv-x="659" 
d="M81 783h518q16 0 16 -15v-131q0 -15 -16 -15h-348v-156h319q16 0 16 -15v-124q0 -15 -16 -15h-319v-151h348q16 0 16 -15v-131q0 -15 -16 -15h-518q-15 0 -15 16v751q0 16 15 16z" />
    <glyph glyph-name="F" unicode="F" horiz-adv-x="612" 
d="M81 783h491q16 0 16 -15v-131q0 -15 -16 -15h-321v-157h292q16 0 16 -15v-123q0 -15 -16 -15h-292v-296q0 -16 -15 -16h-155q-15 0 -15 16v751q0 16 15 16z" />
    <glyph glyph-name="G" unicode="G" horiz-adv-x="696" 
d="M372 789q150 0 224 -18q15 -4 20.5 -10.5t5.5 -20.5v-97q0 -15 -15 -15h-235q-88 0 -116 -49q-27 -48 -27 -187t27 -188q28 -48 116 -48h111v212q0 17 15 17h143q15 0 15 -17v-276q0 -20 -6 -28q-18 -31 -97 -50q-76 -19 -181 -19q-196 0 -263 82t-67 315q0 123 15 195
t52 118q38 47 99 65.5t164 18.5z" />
    <glyph glyph-name="H" unicode="H" horiz-adv-x="795" 
d="M559 783h155q15 0 15 -16v-750q0 -17 -15 -17h-155q-15 0 -15 17v291h-293v-291q0 -17 -15 -17h-155q-15 0 -15 17v750q0 16 15 16h155q15 0 15 -16v-296h293v296q0 16 15 16z" />
    <glyph glyph-name="I" unicode="I" horiz-adv-x="317" 
d="M81 783h155q15 0 15 -16v-750q0 -17 -15 -17h-155q-15 0 -15 17v750q0 16 15 16z" />
    <glyph glyph-name="J" unicode="J" horiz-adv-x="597" 
d="M169 783h354q15 0 15 -15v-391q0 -223 -69 -302q-69 -80 -264 -80q-91 0 -165 18q-26 6 -26 28v100q0 15 15 15h176q90 0 119 44q29 46 29 177v245h-184q-16 0 -16 15v131q0 15 16 15z" />
    <glyph glyph-name="K" unicode="K" horiz-adv-x="708" 
d="M502 783h171q21 0 9 -19l-242 -340l271 -397q19 -27 -17 -27h-171q-16 0 -22 11l-250 371v-366q0 -16 -15 -16h-155q-15 0 -15 16v751q0 16 15 16h155q15 0 15 -16v-319l230 325q7 10 21 10z" />
    <glyph glyph-name="L" unicode="L" horiz-adv-x="593" 
d="M81 783h155q15 0 15 -16v-606h311q15 0 15 -15v-131q0 -15 -15 -15h-481q-15 0 -15 16v751q0 16 15 16z" />
    <glyph glyph-name="M" unicode="M" horiz-adv-x="1002" 
d="M735 784h143q10 0 12 -17l76 -750q2 -17 -15 -17h-155q-13 0 -15 17l-43 436l-161 -413q-7 -16 -22 -16h-107q-16 0 -22 16l-161 413l-44 -436q-2 -17 -15 -17h-155q-17 0 -15 17l76 750q1 16 13 16h142q28 0 41.5 -8.5t22.5 -31.5l170 -447l170 448q10 24 23.5 32
t40.5 8z" />
    <glyph glyph-name="N" unicode="N" horiz-adv-x="794" 
d="M558 783h155q15 0 15 -16v-750q0 -17 -15 -17h-109q-37 0 -58 29l-295 423v-435q0 -17 -15 -17h-155q-15 0 -15 17v750q0 16 15 16h114q28 0 38.5 -6.5t26.5 -28.5l283 -404v423q0 16 15 16z" />
    <glyph glyph-name="O" unicode="O" horiz-adv-x="751" 
d="M375 789q195 0 264 -84q70 -82 70 -314q0 -121 -15.5 -193.5t-54.5 -118.5q-38 -46 -100 -65t-164 -19q-193 0 -264 83q-69 83 -69 313q0 121 15.5 194t53.5 119q39 47 100.5 66t163.5 19zM375 628q-88 0 -117 -50t-29 -187q0 -136 29 -186q28 -49 117 -49t117 49
q29 50 29 186q0 137 -29 187t-117 50z" />
    <glyph glyph-name="P" unicode="P" horiz-adv-x="689" 
d="M374 789q162 0 226 -58q64 -57 64 -205q0 -146 -62 -197q-62 -50 -228 -50h-123v-263q0 -10 -3 -13t-12 -3h-155q-9 0 -12 3t-3 13v747q0 13 15 14q147 12 293 12zM354 628h-103v-211h103q71 0 97 20q25 21 25 83t-25.5 85t-96.5 23z" />
    <glyph glyph-name="Q" unicode="Q" horiz-adv-x="751" 
d="M709 391q0 -202 -52 -288q-52 -87 -188 -103l36 -124q4 -16 -15 -16h-137q-13 0 -17 16l-36 122q-147 13 -203 99q-55 86 -55 294q0 121 15.5 194t53.5 119q39 47 100.5 66t163.5 19q195 0 264 -84q70 -82 70 -314zM375 156q89 0 117 49q29 50 29 186q0 137 -29 187
t-117 50t-117 -50t-29 -187q0 -136 29 -186q28 -49 117 -49z" />
    <glyph glyph-name="R" unicode="R" horiz-adv-x="709" 
d="M374 789q162 0 226 -58q64 -57 64 -205q0 -111 -33.5 -164t-114.5 -71l170 -271q6 -8 2.5 -14t-14.5 -6h-156q-25 0 -40 22l-163 257h-64v-263q0 -10 -3 -13t-12 -3h-155q-9 0 -12 3t-3 13v747q0 13 15 14q147 12 293 12zM354 628h-103v-211h103q71 0 97 20q25 21 25 83
t-25.5 85t-96.5 23z" />
    <glyph glyph-name="S" unicode="S" horiz-adv-x="634" 
d="M333 789q105 0 215 -23q20 -8 20 -21v-97q0 -20 -20 -20h-243q-74 0 -74 -53v-12q0 -43 51 -63l173 -64q81 -31 115 -75q35 -44 35 -139v-26q0 -104 -75 -152.5t-225 -48.5q-115 0 -249 25q-19 4 -19 25v90q0 21 21 21h289q71 0 71 49v10q0 26 -15 40.5t-55 29.5l-173 63
q-69 25 -100 74t-31 145v22q0 106 69 153t220 47z" />
    <glyph glyph-name="T" unicode="T" horiz-adv-x="649" 
d="M31 783h586q16 0 16 -15v-131q0 -15 -16 -15h-201v-606q0 -16 -15 -16h-155q-15 0 -15 16v606h-200q-15 0 -15 15v131q0 15 15 15z" />
    <glyph glyph-name="U" unicode="U" horiz-adv-x="769" 
d="M540 783h155q15 0 15 -15v-377q0 -128 -14 -199.5t-52 -117.5q-37 -45 -96 -62t-163 -17t-163.5 17t-97.5 62q-37 46 -51 118t-14 199v377q0 15 15 15h155q15 0 15 -15v-377q0 -142 28 -188q29 -47 113 -47q83 0 112 47q28 46 28 188v377q0 15 15 15z" />
    <glyph glyph-name="V" unicode="V" horiz-adv-x="713" 
d="M23 783h152q6 0 8.5 -3t5.5 -13l152 -605q5 -18 14 -18q8 0 11 3.5t5 14.5l152 605q1 5 2 7.5t2.5 5t3.5 3t6 0.5h152q16 0 13 -16l-165 -651q-20 -82 -51 -101q-32 -20 -130 -20q-97 0 -128 19q-30 20 -51 102l-167 651q-3 16 13 16z" />
    <glyph glyph-name="W" unicode="W" horiz-adv-x="1105" 
d="M913 783h159q18 0 15 -17l-119 -650q-15 -81 -43 -101t-117 -20q-59 0 -84 3.5t-44 16.5t-27 32t-21 69l-80 340l-80 -340q-13 -58 -28.5 -81t-46 -31.5t-101.5 -8.5q-89 0 -118 20q-27 21 -41 101l-119 650q-3 17 14 17h159q11 0 15 -17l98 -559q4 -18 15 -18q8 0 11 3
t6 15l126 534q5 17 22 17h137q16 0 21 -17l126 -534q3 -12 10 -16.5t14 0t9 16.5l97 559q4 17 15 17z" />
    <glyph glyph-name="X" unicode="X" horiz-adv-x="730" 
d="M526 783h173q24 0 11 -22l-237 -354l259 -385q15 -22 -11 -22h-173q-17 0 -27 16l-156 250l-156 -250q-12 -16 -27 -16h-173q-26 0 -11 22l259 385l-237 354q-13 22 11 22h173q17 0 27 -16l134 -219l134 219q10 16 27 16z" />
    <glyph glyph-name="Y" unicode="Y" horiz-adv-x="741" 
d="M557 783h173q23 0 11 -22l-278 -503v-241q0 -17 -15 -17h-155q-15 0 -15 17v243l-277 501q-12 22 11 22h174q15 0 27 -16l158 -328l159 328q7 16 27 16z" />
    <glyph glyph-name="Z" unicode="Z" horiz-adv-x="703" 
d="M56 783h592q15 0 15 -16v-120q0 -13 -7 -20l-381 -466h381q16 0 16 -15v-130q0 -16 -16 -16h-611q-15 0 -15 16l-1 119q0 12 7 20l380 467h-359q-16 0 -16 15l-1 130q0 16 16 16z" />
    <glyph glyph-name="bracketleft" unicode="[" horiz-adv-x="438" 
d="M83 831h319q15 0 15 -15v-94q0 -15 -15 -15h-169v-742h169q15 0 15 -15v-94q0 -15 -15 -15h-319q-15 0 -15 15v960q0 15 15 15z" />
    <glyph glyph-name="backslash" unicode="\" horiz-adv-x="512" 
d="M29 824h69q16 0 22 -17l371 -837q8 -17 -8 -17h-70q-14 0 -22 17l-370 837q-6 17 8 17z" />
    <glyph glyph-name="bracketright" unicode="]" horiz-adv-x="438" 
d="M36 831h319q15 0 15 -15v-960q0 -15 -15 -15h-319q-15 0 -15 15v94q0 15 15 15h169v742h-169q-15 0 -15 15v94q0 15 15 15z" />
    <glyph glyph-name="asciicircum" unicode="^" horiz-adv-x="589" 
d="M225 749h140q12 0 17 -11l180 -359q8 -18 -11 -18h-145q-12 0 -18 11l-94 204l-95 -204q-5 -11 -17 -11h-144q-18 0 -11 18l180 359q5 11 18 11z" />
    <glyph glyph-name="underscore" unicode="_" horiz-adv-x="689" 
d="M15 -48h659q15 0 15 -15v-63q0 -15 -15 -15h-659q-15 0 -15 15v63q0 15 15 15z" />
    <glyph glyph-name="grave" unicode="`" horiz-adv-x="511" 
d="M130 809h174q9 0 12 -6l73 -135q5 -9 -3 -14l-55 -31q-9 -5 -14 0l-192 157q-5 5 -5 12v7q0 10 10 10z" />
    <glyph glyph-name="a" unicode="a" horiz-adv-x="578" 
d="M277 572q80 0 131.5 -12.5t76.5 -38.5t34 -55t9 -74v-344q0 -26 -24 -32q-103 -21 -230 -21q-55 0 -88 3q-30 1 -67 11q-48 15 -68.5 51.5t-25.5 113.5q2 101 52 134q50 34 166 34l110 1v20q0 59 -76 59h-196q-13 0 -13 15v102q0 13 13 16q85 17 196 17zM353 143v95h-93
q-35 0 -49 -12t-14 -40q0 -30 15 -40.5t56 -10.5q50 0 85 8z" />
    <glyph glyph-name="b" unicode="b" horiz-adv-x="612" 
d="M68 783h144q15 0 15 -16v-201q60 6 118 6q134 0 182 -61t48 -228q0 -92 -11.5 -143.5t-42.5 -85.5q-30 -33 -80.5 -46t-137.5 -13q-99 0 -227 21q-23 3 -23 29v722q0 16 15 16zM299 421h-72v-269q32 -7 80 -7q63 0 78 28q16 28 16 110q0 86 -18 112t-84 26z" />
    <glyph glyph-name="c" unicode="c" horiz-adv-x="521" 
d="M303 572q107 0 170 -16q17 -5 17 -21v-97q0 -16 -18 -16h-169q-56 0 -74 -27q-17 -28 -17 -111t17 -112q18 -27 74 -27h169q18 0 18 -16v-97q0 -16 -17 -21q-63 -16 -170 -16q-89 0 -137.5 12.5t-77.5 45.5q-29 34 -39.5 85.5t-10.5 145.5q0 135 29 200q26 51 77 68.5
t159 19.5z" />
    <glyph glyph-name="d" unicode="d" horiz-adv-x="612" 
d="M400 783h144q15 0 15 -16v-722q0 -26 -23 -29q-128 -21 -227 -21q-87 0 -137 13t-82 46q-30 34 -41.5 86.5t-11.5 142.5q0 167 48 228t182 61q58 0 118 -6v201q0 16 15 16zM385 152v269h-72q-66 0 -84 -26t-18 -112q0 -81 15 -110q16 -28 79 -28q48 0 80 7z" />
    <glyph glyph-name="e" unicode="e" horiz-adv-x="586" 
d="M300 572q154 0 205 -57q52 -56 52 -229v-31q0 -16 -6.5 -21.5t-23.5 -5.5h-312q2 -53 21 -68q21 -15 83 -15h184q15 0 15 -15v-102q0 -14 -14 -17q-73 -16 -204 -16q-158 0 -210 57q-53 59 -53 231q0 173 53 231q52 58 210 58zM300 422q-47 0 -66.5 -19.5t-19.5 -68.5
h168q0 50 -18.5 69t-63.5 19z" />
    <glyph glyph-name="f" unicode="f" horiz-adv-x="408" 
d="M286 788q57 0 118 -11q17 -3 17 -21v-102q0 -16 -17 -16h-91q-24 0 -33 -7t-9 -25v-41h118q15 0 12 -17l-19 -101q-3 -16 -17 -16h-94v-415q0 -16 -15 -16h-145q-15 0 -15 16v415h-62q-17 0 -17 16v103q0 15 17 15h62v70q0 96 56 126q48 27 134 27z" />
    <glyph glyph-name="g" unicode="g" horiz-adv-x="614" 
d="M311 572q105 0 227 -21q23 -3 23 -29v-529q0 -82 -24 -125q-39 -77 -228 -77q-126 0 -205 16q-13 3 -13 16v93q0 15 13 15h187q57 0 76.5 14.5t19.5 55.5v7q-53 -13 -118 -13q-133 0 -183 63q-49 62 -49 237q0 164 55 220q56 57 219 57zM387 152v270h-85q-60 0 -76 -28
q-15 -28 -15 -110q0 -88 19 -113t85 -25q43 0 72 6z" />
    <glyph glyph-name="h" unicode="h" horiz-adv-x="619" 
d="M69 783h145q15 0 15 -16v-200q55 5 95 5q80 0 124 -10t72 -37t38.5 -71t10.5 -125v-313q0 -16 -15 -16h-145q-14 0 -14 16v259q3 94 -15 126q-20 22 -83 21h-67v-406q0 -16 -15 -16h-146q-15 0 -15 16v751q0 16 15 16z" />
    <glyph glyph-name="i" unicode="i" horiz-adv-x="282" 
d="M142 812q47 0 73.5 -24t26.5 -67t-26.5 -67.5t-73.5 -24.5q-49 0 -75.5 24t-26.5 68q0 43 26.5 67t75.5 24zM69 567h144q15 0 15 -16v-535q0 -16 -15 -16h-144q-15 0 -15 16v535q0 16 15 16z" />
    <glyph glyph-name="j" unicode="j" horiz-adv-x="290" 
d="M250 721q0 -44 -26.5 -68t-74.5 -24t-74.5 24t-26.5 68q0 43 26.5 67t74.5 24t74.5 -24t26.5 -67zM76 567h145q15 0 15 -16v-614q0 -89 -37 -117q-38 -29 -120 -29q-60 0 -96 10q-17 6 -17 21v104q0 15 18 15h26q33 0 42 8.5t9 38.5v563q0 16 15 16z" />
    <glyph glyph-name="k" unicode="k" horiz-adv-x="584" 
d="M69 783h144q15 0 15 -16v-392l133 182q7 10 21 10h160q25 0 9 -19l-152 -205l189 -316q15 -27 -17 -27h-153q-16 0 -22 11l-168 293v-288q0 -16 -15 -16h-144q-15 0 -15 16v751q0 16 15 16z" />
    <glyph glyph-name="l" unicode="l" horiz-adv-x="282" 
d="M69 783h144q15 0 15 -16v-751q0 -16 -15 -16h-144q-15 0 -15 16v751q0 16 15 16z" />
    <glyph glyph-name="m" unicode="m" horiz-adv-x="893" 
d="M636 572q113 0 160.5 -46t46.5 -158v-352q0 -16 -14 -16h-146q-14 0 -14 16v259q0 73 -6 101q-6 29 -20.5 37.5t-54.5 8.5q-26 0 -63 -5q11 -35 11 -88l-1 -313q0 -16 -14 -16h-146q-14 0 -14 16v308q-1 67 -15 82q-13 16 -66 16h-52v-406q0 -16 -15 -16h-145
q-14 0 -15 16v523q0 12 14 15q72 18 203 18q120 0 186 -33q82 33 180 33z" />
    <glyph glyph-name="n" unicode="n" horiz-adv-x="618" 
d="M323 572q80 0 124 -10t72 -37t38.5 -71t10.5 -125v-313q0 -16 -15 -16h-145q-14 0 -14 16v259q0 63 -2.5 86t-13.5 39t-25.5 19t-56.5 3h-67v-406q0 -16 -15 -16h-147q-14 0 -14 16v523q0 6 2 9t4 4t8 2q74 18 256 18z" />
    <glyph glyph-name="o" unicode="o" horiz-adv-x="606" 
d="M89 514q52 58 214 58q161 0 213 -58q53 -58 53 -231t-53 -231q-52 -57 -213 -57t-214 57q-52 56 -52 231t52 231zM376 395q-16 27 -73 27q-56 0 -74 -28q-17 -28 -17 -111t17 -111q18 -27 74 -27q57 0 73 27q18 27 18 111q0 83 -18 112z" />
    <glyph glyph-name="p" unicode="p" horiz-adv-x="615" 
d="M303 572q163 0 219 -57q56 -58 56 -220q0 -175 -49 -237q-49 -63 -183 -63q-66 0 -118 6v-189q0 -15 -15 -15h-145q-15 0 -15 15v710q0 24 24 29q127 21 226 21zM313 422h-85v-271q32 -5 71 -5q66 0 85 25t19 113q0 82 -15 110t-75 28z" />
    <glyph glyph-name="q" unicode="q" horiz-adv-x="615" 
d="M312 572q98 0 226 -21q24 -5 24 -29v-710q0 -15 -15 -15h-145q-15 0 -15 15v189q-53 -6 -118 -6q-133 0 -183 63q-49 62 -49 237q0 164 55 220q55 57 220 57zM387 151v271h-85q-60 0 -75 -28q-15 -27 -15 -110q0 -88 19 -113t85 -25q39 0 71 5z" />
    <glyph glyph-name="r" unicode="r" horiz-adv-x="415" 
d="M244 572q88 0 143 -12q17 -3 17 -21v-102q0 -15 -17 -15h-99q-35 0 -48 -10t-13 -40v-356q0 -16 -15 -16h-145q-15 0 -15 16v403q0 91 49 122t143 31z" />
    <glyph glyph-name="s" unicode="s" horiz-adv-x="514" 
d="M283 572q84 0 161 -16q16 -4 16 -16v-92q0 -16 -17 -16h-179q-51 0 -51 -28v-9q0 -20 41 -34l125 -41q57 -18 82 -56t25 -99v-18q0 -152 -217 -152q-133 0 -220 10q-17 0 -17 15v100q0 16 17 16h216q30 0 40.5 5t10.5 19v7q0 21 -54 38l-114 38q-105 35 -105 157v18
q0 79 58.5 116.5t181.5 37.5z" />
    <glyph glyph-name="t" unicode="t" horiz-adv-x="397" 
d="M107 685l145 38q7 2 11 -2.5t4 -13.5v-144h86q17 0 17 -15v-97q0 -16 -17 -16h-86v-240q0 -30 12 -40t45 -10h38q17 0 17 -15v-104q0 -17 -17 -20q-61 -11 -99 -11q-44 0 -68 3q-23 3 -51 15q-51 24 -51 119v303h-60q-17 0 -17 16v97q0 15 17 15h60v106q0 11 14 16z" />
    <glyph glyph-name="u" unicode="u" horiz-adv-x="618" 
d="M405 567h146q14 0 14 -16v-521q0 -9 -2.5 -12t-11.5 -5q-95 -18 -255 -18q-80 0 -124.5 10t-72.5 37t-38.5 71.5t-10.5 125.5v312q0 16 16 16h144q15 0 15 -16v-259q-3 -94 15 -126q11 -13 29 -17.5t54 -3.5h67v406q0 16 15 16z" />
    <glyph glyph-name="v" unicode="v" horiz-adv-x="605" 
d="M426 567h154q16 0 13 -16l-114 -435q-14 -57 -32 -82q-18 -24 -46 -31q-32 -8 -99 -8q-97 0 -125 19q-27 19 -50 102l-116 435q-3 16 13 16h154q6 0 8 -2.5t6 -13.5l95 -401q2 -10 4.5 -12.5t9.5 -2.5q8 0 11 2.5t5 12.5l95 401q2 10 4.5 13t9.5 3z" />
    <glyph glyph-name="w" unicode="w" horiz-adv-x="906" 
d="M722 567h154q14 0 12 -14l-85 -464q-11 -60 -41 -77q-29 -17 -107 -17q-95 0 -122 15q-26 15 -39 79l-41 192l-41 -192q-13 -64 -40 -79q-26 -15 -122 -15q-77 0 -108 17q-30 17 -40 77l-84 464q-3 14 12 14h154q8 0 11 -14l62 -405q1 -7 6 -10t10 0t6 10l91 389
q3 12 16 12h134q13 0 16 -12l91 -389q2 -11 10 -11q10 0 12 11l62 405q2 14 11 14z" />
    <glyph glyph-name="x" unicode="x" horiz-adv-x="600" 
d="M399 567h175q10 0 12 -5.5t-5 -13.5l-172 -253l188 -276q6 -7 3 -13t-12 -6h-174q-10 0 -17 10l-97 150l-98 -150q-7 -10 -16 -10h-174q-9 0 -12 6t3 13l188 276l-173 253q-7 8 -4.5 13.5t12.5 5.5h175q11 0 18 -10l82 -126l80 126q7 10 18 10z" />
    <glyph glyph-name="y" unicode="y" horiz-adv-x="634" 
d="M421 567h144q15 0 15 -15v-559q0 -82 -24 -125q-39 -77 -228 -77q-128 0 -207 16q-13 3 -13 16v93q0 15 14 15h188q57 0 76.5 14.5t19.5 55.5v7q-53 -13 -118 -13q-132 0 -186 58q-53 59 -53 192v307q0 15 15 15h145q15 0 15 -15v-268q0 -87 21 -112q23 -26 89 -26
q44 0 72 6v400q0 15 15 15z" />
    <glyph glyph-name="z" unicode="z" horiz-adv-x="552" 
d="M57 567h435q18 0 18 -16v-90q0 -8 -8 -19l-221 -292h226q17 0 17 -16v-118q0 -16 -17 -16h-461q-17 0 -17 16v85q0 12 7 19l235 301h-214q-18 0 -18 15v115q0 16 18 16z" />
    <glyph glyph-name="braceleft" unicode="{" horiz-adv-x="376" 
d="M231 836q57 0 99 -12q11 -3 14.5 -8t3.5 -17v-88q0 -15 -15 -15h-38q-27 0 -38.5 -10.5t-9.5 -34.5l26 -214q4 -43 -26 -59l-74 -38v-8l74 -38q30 -16 26 -59l-26 -214q-2 -24 9.5 -34.5t38.5 -10.5h38q15 0 15 -15v-88q0 -12 -3.5 -17t-14.5 -8q-42 -12 -99 -12
q-83 0 -120.5 29.5t-31.5 94.5l28 273q1 11 -9 18l-78 50q-8 5 -8 18v34q0 13 8 18l78 50q10 7 9 18l-28 273q-6 65 31.5 94.5t120.5 29.5z" />
    <glyph glyph-name="bar" unicode="|" horiz-adv-x="311" 
d="M83 823h145q15 0 15 -16v-897q0 -16 -15 -16h-145q-15 0 -15 16v897q0 16 15 16z" />
    <glyph glyph-name="braceright" unicode="}" horiz-adv-x="376" 
d="M145 836q83 0 120.5 -29.5t31.5 -94.5l-28 -273q-1 -11 9 -18l78 -50q8 -5 8 -18v-34q0 -13 -8 -18l-78 -50q-10 -7 -9 -18l28 -273q6 -65 -31.5 -94.5t-120.5 -29.5q-57 0 -99 12q-11 3 -14.5 8t-3.5 17v88q0 15 15 15h38q27 0 38.5 10.5t9.5 34.5l-26 214q-4 43 26 59
l75 38v8l-75 38q-30 16 -26 59l26 214q2 24 -9.5 34.5t-38.5 10.5h-38q-15 0 -15 15v88q0 12 3.5 17t14.5 8q42 12 99 12z" />
    <glyph glyph-name="asciitilde" unicode="~" horiz-adv-x="641" 
d="M215 445q46 0 115.5 -35t92.5 -35q54 0 82 49q7 10 20 2l83 -53q9 -6 3 -18q-23 -63 -72 -97.5t-113 -34.5q-36 -1 -76 17.5t-74.5 36.5t-56.5 17q-52 0 -82 -50q-6 -12 -18 -4l-83 54q-11 6 -5 20q23 62 72 96.5t112 34.5z" />
    <glyph glyph-name="Adieresis" unicode="&#xa1;" horiz-adv-x="296" 
d="M249 480q0 -43 -26.5 -67t-74.5 -24t-74.5 24t-26.5 67q0 44 26.5 68t74.5 24t74.5 -24t26.5 -68zM107 342h83q10 0 15 -17l37 -164q2 -10 2 -19v-329q0 -16 -15 -16h-162q-15 0 -15 16v329q0 9 2 19l38 164q3 17 15 17z" />
    <glyph glyph-name="Aring" unicode="&#xa2;" horiz-adv-x="533" 
d="M473 422h-169q-56 0 -74 -27q-17 -28 -17 -111t17 -112q18 -27 74 -27h169q18 0 18 -16v-97q0 -16 -17 -21q-63 -16 -170 -16h-19l-14 -78q-3 -16 -18 -16h-63q-15 0 -12 16l15 86q-92 15 -123 76t-31 205q0 166 44 225q44 57 187 62l14 79q1 16 17 16h63q15 0 12 -16
l-14 -80q74 -5 112 -14q17 -5 17 -21v-97q0 -16 -18 -16z" />
    <glyph glyph-name="Ccedilla" unicode="&#xa3;" horiz-adv-x="663" 
d="M432 788q74 0 153 -18q26 -7 26 -29v-100q0 -15 -15 -15h-145q-84 0 -110 -18q-26 -17 -26 -65v-135h204q15 0 15 -15v-71q0 -15 -15 -15h-204v-146h296q16 0 16 -15v-131q0 -15 -16 -15h-574q-15 0 -14 15l23 131q3 15 19 15h65v146h-59q-16 0 -16 15v71q0 15 16 15h59
v182q0 118 85 161q75 37 217 37z" />
    <glyph glyph-name="Eacute" unicode="&#xa4;" horiz-adv-x="621" 
d="M44 536l45 44q11 11 22 0l52 -52q61 29 146 29q84 0 147 -29l52 52q11 11 22 0l45 -44q11 -10 -1 -22l-47 -47q36 -54 36 -141q0 -86 -36 -142l47 -47q12 -11 1 -22l-45 -44q-11 -11 -22 0l-52 52q-63 -29 -147 -29q-85 0 -146 29l-52 -52q-11 -11 -22 0l-45 44
q-10 11 1 22l47 47q-37 56 -37 142t37 141l-47 47q-11 12 -1 22zM210 326q0 -102 99 -102q48 0 74 26t26 76q0 49 -26 75.5t-74 26.5t-73.5 -26.5t-25.5 -75.5z" />
    <glyph glyph-name="Ntilde" unicode="&#xa5;" horiz-adv-x="784" 
d="M578 783h173q23 0 11 -22l-253 -432h130q16 0 16 -15v-41q0 -15 -16 -15h-155v-76h155q16 0 16 -15v-41q0 -15 -16 -15h-155v-94q0 -17 -15 -17h-155q-15 0 -15 17v94h-154q-15 0 -15 15v41q0 15 15 15h154v76h-154q-15 0 -15 15v41q0 15 15 15h131l-254 432
q-12 22 11 22h174q15 0 27 -16l158 -300l159 300q9 16 27 16z" />
    <glyph glyph-name="Odieresis" unicode="&#xa6;" horiz-adv-x="310" 
d="M83 823h144q15 0 15 -16v-350q0 -11 -11 -11h-152q-11 0 -11 11v350q0 16 15 16zM79 277h152q11 0 11 -11v-356q0 -16 -15 -16h-144q-15 0 -15 16v356q0 11 11 11z" />
    <glyph glyph-name="Udieresis" unicode="&#xa7;" horiz-adv-x="476" 
d="M250 782q63 0 114 -12q10 -1 10 -8v-88q0 -5 -1.5 -6.5t-8.5 -1.5h-139q-28 0 -41 -11t-13 -37v-52l166 -61q60 -23 79 -54q20 -32 20 -95v-291q0 -89 -44 -118t-165 -29q-65 0 -114 12q-8 1 -9.5 2.5t-1.5 5.5v89q0 8 10 8h139q28 0 41 11t13 37v48l-166 60
q-61 23 -79 53q-20 32 -20 97v295q0 88 44 117t166 29zM259 407l-88 34v-97q0 -23 10 -36t36 -22l88 -32v96q0 23 -10 35.5t-36 21.5z" />
    <glyph glyph-name="aacute" unicode="&#xa8;" horiz-adv-x="649" 
d="M206 794q41 0 63 -21t22 -58q0 -39 -22 -60t-63 -21q-86 0 -86 81q0 37 22 58t64 21zM529 715q0 -81 -85 -81t-85 81q0 37 22 58t63 21t63 -21t22 -58z" />
    <glyph glyph-name="agrave" unicode="&#xa9;" horiz-adv-x="836" 
d="M706 85q-92 -93 -288 -93t-288 93q-92 94 -92 290t92 290q92 93 288 93t288 -93q92 -94 92 -290t-92 -290zM418 696q-165 0 -242 -77.5t-77 -243.5t77.5 -243.5t241.5 -77.5t241.5 77.5t77.5 243.5t-77.5 243.5t-241.5 77.5zM419 573q72 0 105 -10q15 -3 15 -17v-47
q0 -13 -12 -13h-108q-45 0 -57 -22q-11 -22 -11 -91q0 -68 11 -92q12 -22 57 -22h108q12 0 12 -11v-48q0 -14 -15 -18q-44 -9 -105 -9q-99 0 -134 41q-34 41 -34 159q0 119 34 159q35 41 134 41z" />
    <glyph glyph-name="acircumflex" unicode="&#xaa;" horiz-adv-x="376" 
d="M180 789q79 0 111 -23t32 -72v-208q0 -16 -12 -21q-39 -16 -145 -16q-72 0 -99 18t-27 75v13q0 53 28.5 74t89.5 21h81v27q0 21 -12.5 30t-46.5 9h-105q-7 0 -9.5 2t-2.5 10v37q0 12 11 15q45 9 106 9zM239 525v57h-63q-52 0 -52 -29v-4q0 -30 48 -30q38 0 67 6zM78 390
h222q15 0 15 -15v-29q0 -15 -15 -15h-222q-15 0 -15 15v29q0 15 15 15z" />
    <glyph glyph-name="adieresis" unicode="&#xab;" horiz-adv-x="630" 
d="M165 488h144q15 0 15 -15v-7q0 -11 -7 -18l-135 -169l135 -168q7 -7 7 -18v-7q0 -15 -15 -15h-144q-11 0 -18 9l-107 140q-10 13 -10 29v61q0 15 10 28l107 141q7 9 18 9zM435 488h144q15 0 15 -15v-7q0 -11 -7 -18l-135 -169l135 -168q7 -7 7 -18v-7q0 -15 -15 -15h-144
q-11 0 -18 9l-107 140q-10 13 -10 29v61q0 15 10 28l107 141q7 9 18 9z" />
    <glyph glyph-name="atilde" unicode="&#xac;" horiz-adv-x="625" 
d="M53 494h502q15 0 15 -15l-1 -294q0 -15 -15 -15h-139q-15 0 -15 15v137h-347q-15 0 -15 15v142q0 15 15 15z" />
    <glyph glyph-name="aring" unicode="&#xae;" horiz-adv-x="836" 
d="M706 85q-92 -93 -288 -93t-288 93q-92 94 -92 290t92 290q92 93 288 93t288 -93q92 -94 92 -290t-92 -290zM418 696q-165 0 -242 -77.5t-77 -243.5t77.5 -243.5t241.5 -77.5t241.5 77.5t77.5 243.5t-77.5 243.5t-241.5 77.5zM439 576q80 0 112 -30t32 -104
q0 -55 -16.5 -82t-55.5 -36l80 -129q5 -7 2 -11.5t-12 -4.5h-70q-22 0 -33 17l-78 123l-25 -1v-127q0 -12 -12 -12h-76q-7 0 -9 2t-2 10v367q0 7 2 9t9 2q66 7 152 7zM428 489h-53v-92h53q36 0 45.5 7.5t9.5 35.5t-11 38.5t-44 10.5z" />
    <glyph glyph-name="ccedilla" unicode="&#xaf;" horiz-adv-x="576" 
d="M135 756h306q15 0 15 -15v-71q0 -15 -15 -15h-306q-15 0 -15 15v71q0 15 15 15z" />
    <glyph glyph-name="eacute" unicode="&#xb0;" horiz-adv-x="349" 
d="M174 789q146 0 146 -140q0 -139 -146 -139q-145 0 -145 139q0 140 145 140zM174 710q-60 0 -60 -61t60 -61q61 0 61 61t-61 61z" />
    <glyph glyph-name="egrave" unicode="&#xb1;" horiz-adv-x="621" 
d="M248 632h126q15 0 15 -15v-120h160q15 0 15 -15v-97q0 -15 -15 -15h-160v-120q0 -15 -15 -15h-126q-15 0 -15 15v120h-161q-15 0 -15 15v97q0 15 15 15h161v120q0 15 15 15zM68 179h485q15 0 15 -15v-93q0 -15 -15 -15h-485q-15 0 -15 15v93q0 15 15 15z" />
    <glyph glyph-name="ecircumflex" unicode="&#xb2;" horiz-adv-x="357" 
d="M177 939q64 0 100 -15q44 -17 44 -76v-52q1 -33 -8.5 -53.5t-41.5 -39.5l-110 -57q-21 -10 -28 -17.5t-7 -19.5v-7h191q6 0 6 -5v-68q0 -5 -5 -5h-280q-14 0 -14 15v52q0 40 17 64.5t63 50.5l103 57q25 13 25 43v24q0 18 -11 25t-38 7h-123q-8 0 -8 7v50q0 9 7 10
q56 10 118 10z" />
    <glyph glyph-name="edieresis" unicode="&#xb3;" horiz-adv-x="342" 
d="M162 939q81 0 112.5 -24t31.5 -89v-9q0 -70 -52 -86q52 -12 52 -85v-12q0 -67 -32 -90t-112 -23q-64 0 -120 10q-9 1 -9 11v48q0 8 11 8h74q61 0 80 8q18 8 18 34v12q0 43 -63 43h-87q-9 0 -9 9v53q0 8 9 8h86q38 0 51 9.5t13 36.5v9q0 26 -18 34q-19 8 -80 8h-74
q-11 0 -11 8v49q0 9 9 10q56 10 120 10z" />
    <glyph glyph-name="iacute" unicode="&#xb4;" horiz-adv-x="511" 
d="M207 809h174q10 0 10 -10v-7q0 -7 -5 -12l-192 -157q-6 -5 -14 0l-55 31q-8 5 -3 14l73 135q3 6 12 6z" />
    <glyph glyph-name="igrave" unicode="&#xb5;" horiz-adv-x="622" 
d="M409 567h146q14 0 14 -16v-521q0 -9 -2.5 -12t-11.5 -5q-95 -18 -255 -18q-47 0 -71 4v-135q0 -16 -15 -16h-145q-15 0 -15 16v687q0 16 16 16h144q15 0 15 -16v-259q-3 -94 15 -126q11 -13 29 -17.5t54 -3.5h67v406q0 16 15 16z" />
    <glyph glyph-name="icircumflex" unicode="&#xb6;" horiz-adv-x="686" 
d="M311 789q99 0 159 -19t95 -64q21 -26 35 -75q24 -77 24 -238v-393h-116v451q0 127 -39 173q-38 47 -122 50v-399h-27q-112 0 -176 18q-58 18 -87 60.5t-31 120.5v104q2 124 69 167q70 44 216 44z" />
    <glyph glyph-name="idieresis" unicode="&#xb7;" horiz-adv-x="276" 
d="M239 284q0 -44 -26.5 -68t-74.5 -24t-74.5 24t-26.5 68q0 43 26.5 67t74.5 24t74.5 -24t26.5 -67z" />
    <glyph glyph-name="ntilde" unicode="&#xb8;" horiz-adv-x="453" 
d="M235 25h57q14 0 18 -12q23 -71 23 -117q0 -78 -112 -78q-68 0 -89 8q-12 4 -12 18v74q0 13 13 13h36q28 0 41 3q18 4 18 21q0 24 -6 54q-3 16 13 16z" />
    <glyph glyph-name="oacute" unicode="&#xb9;" horiz-adv-x="294" 
d="M203 862v-260h65q12 0 12 -12v-55q0 -11 -12 -11h-224q-12 0 -12 11v55q0 12 12 12h71v229q0 18 -9 25t-36 7h-30q-13 0 -13 12v42q0 9 12 14q18 8 55 8q42 0 71 -11q38 -14 38 -66z" />
    <glyph glyph-name="ograve" unicode="&#xba;" horiz-adv-x="389" 
d="M73 755q28 34 122 34q93 0 121 -34q29 -34 29 -137q0 -105 -28 -137q-29 -32 -122 -32q-94 0 -123 32q-28 32 -28 137q0 103 29 137zM195 716q-45 0 -56 -18q-10 -16 -10 -80q0 -63 10 -79q11 -17 56 -17t56 17q10 16 10 79q0 64 -10 80q-11 18 -56 18zM84 390h222
q15 0 15 -15v-29q0 -15 -15 -15h-222q-15 0 -15 15v29q0 15 15 15z" />
    <glyph glyph-name="ocircumflex" unicode="&#xbb;" horiz-adv-x="629" 
d="M51 488h143q10 0 18 -9l108 -141q10 -13 10 -28v-61q0 -16 -10 -29l-108 -140q-8 -9 -18 -9h-143q-15 0 -15 15v7q0 11 7 18l134 168l-134 169q-7 7 -7 18v7q0 15 15 15zM321 488h143q10 0 18 -9l108 -141q10 -13 10 -28v-61q0 -16 -10 -29l-108 -140q-8 -9 -18 -9h-143
q-15 0 -15 15v7q0 11 7 18l134 168l-134 169q-7 7 -7 18v7q0 15 15 15z" />
    <glyph glyph-name="odieresis" unicode="&#xbc;" horiz-adv-x="905" 
d="M600 824h43q16 0 8 -17l-369 -837q-8 -17 -23 -17h-44q-17 0 -8 17l371 837q8 17 22 17zM286 436v-55q0 -11 -13 -11h-223q-13 0 -13 11v55q0 12 13 12h70v229q0 18 -9 25t-36 7h-30q-13 0 -13 12v42q0 9 12 14q18 8 55 8q42 0 71 -11q38 -14 38 -66v-260h65q13 0 13 -12
zM811 301v-130h60q13 0 13 -12v-55q0 -11 -13 -11h-60v-81q0 -12 -12 -12h-67q-11 0 -11 12v81h-179q-11 0 -11 12v31q0 9 4 20l66 249q3 8 15 8h66q13 0 8 -14l-61 -228h92v99q0 11 8 14l67 25q15 5 15 -8z" />
    <glyph glyph-name="otilde" unicode="&#xbd;" horiz-adv-x="873" 
d="M596 824h43q16 0 8 -17l-369 -837q-8 -17 -23 -17h-44q-17 0 -8 17l371 837q8 17 22 17zM278 436v-55q0 -11 -12 -11h-224q-12 0 -12 11v55q0 12 12 12h71v229q0 18 -9 25t-36 7h-30q-13 0 -13 12v42q0 9 11 14q18 8 56 8q42 0 71 -11q38 -14 38 -66v-260h65q12 0 12 -12
zM649 85v-7h191q6 0 6 -5v-68q0 -5 -5 -5h-280q-14 0 -14 15v53q0 39 17.5 64t62.5 50l103 57q25 13 25 43v24q0 18 -11 25t-38 7h-123q-7 0 -7 8v49q0 9 7 10q58 11 118 11q74 0 108.5 -19.5t34.5 -72.5v-51q1 -34 -8.5 -54.5t-41.5 -39.5l-110 -57q-21 -10 -28 -17.5
t-7 -19.5z" />
    <glyph glyph-name="uacute" unicode="&#xbe;" horiz-adv-x="932" 
d="M624 824h43q16 0 8 -17l-370 -837q-9 -17 -22 -17h-44q-17 0 -8 17l371 837q8 17 22 17zM162 785q82 0 113.5 -24t31.5 -89v-9q0 -69 -53 -86q53 -12 53 -85v-12q0 -67 -32 -90t-113 -23q-64 0 -120 10q-8 2 -8 11v48q0 8 11 8h73q62 0 80.5 8t18.5 34v12q0 43 -64 43
h-86q-10 0 -10 9v53q0 8 10 8h86q38 0 51 9.5t13 36.5v9q0 26 -18.5 34t-80.5 8h-73q-11 0 -11 8v49q0 8 8 10q56 10 120 10zM643 413h66q13 0 8 -14l-62 -228h93v99q0 11 8 14l67 25q15 5 15 -8v-130h60q13 0 13 -12v-55q0 -11 -13 -11h-60v-81q0 -12 -12 -12h-67
q-11 0 -11 12v81h-179q-12 0 -12 12v31q0 4 4 20l67 249q3 8 15 8z" />
    <glyph glyph-name="ugrave" unicode="&#xbf;" horiz-adv-x="554" 
d="M464 480q0 -43 -26.5 -67t-74.5 -24t-74.5 24t-26.5 67q0 44 26.5 68t74.5 24t74.5 -24t26.5 -68zM306 342h112q11 0 14 -13l7 -49q8 -47 -9 -74q-16 -27 -75 -60l-93 -48q-29 -15 -41 -29.5t-12 -38.5v-15q0 -36 25.5 -49.5t89.5 -13.5h192q15 0 15 -16v-97
q0 -23 -26 -30q-79 -18 -183 -18q-128 0 -207 36q-91 39 -91 156v52q0 79 23 117q24 38 87 66l102 49q48 23 54 49l2 13q0 13 14 13z" />
    <glyph glyph-name="ucircumflex" unicode="&#xc0;" horiz-adv-x="727" 
d="M162 1009h173q9 0 12 -6l73 -135q5 -9 -3 -14l-54 -31q-9 -5 -14 0l-192 157q-5 3 -5 12v7q0 10 10 10zM363 789q98 0 129 -20t53 -101l178 -652q3 -16 -13 -16h-153q-10 0 -14 16l-54 202h-251l-56 -202q-4 -16 -13 -16h-153q-16 0 -13 16l179 652q22 81 53 101t128 20z
M362 635q-8 0 -10.5 -3t-5.5 -13l-67 -250h169l-68 250q-3 10 -6 13t-12 3z" />
    <glyph glyph-name="udieresis" unicode="&#xc1;" horiz-adv-x="727" 
d="M372 1009h174q10 0 10 -10v-7q0 -7 -5 -12l-192 -157q-6 -5 -14 0l-55 31q-8 5 -3 14l73 135q3 6 12 6zM363 789q98 0 129 -20t53 -101l178 -652q3 -16 -13 -16h-153q-10 0 -14 16l-54 202h-251l-56 -202q-4 -16 -13 -16h-153q-16 0 -13 16l179 652q22 81 53 101t128 20z
M362 635q-8 0 -10.5 -3t-5.5 -13l-67 -250h169l-68 250q-3 10 -6 13t-12 3z" />
    <glyph glyph-name="dagger" unicode="&#xc2;" horiz-adv-x="727" 
d="M309 1009h107q14 0 21 -9l100 -140q9 -11 -4 -17l-38 -19q-11 -6 -19 0l-113 76l-114 -76q-8 -6 -19 0l-38 19q-13 6 -4 17l100 140q8 9 21 9zM363 789q98 0 129 -20t53 -101l178 -652q3 -16 -13 -16h-153q-10 0 -14 16l-54 202h-251l-56 -202q-4 -16 -13 -16h-153
q-16 0 -13 16l179 652q22 81 53 101t128 20zM362 635q-8 0 -10.5 -3t-5.5 -13l-67 -250h169l-68 250q-3 10 -6 13t-12 3z" />
    <glyph glyph-name="degree" unicode="&#xc3;" horiz-adv-x="727" 
d="M282 994q28 0 82 -20q51 -19 65 -19q16 0 25.5 7t17.5 26q7 13 19 9l53 -14q13 -4 10 -20q-17 -72 -40.5 -98.5t-70.5 -26.5q-31 0 -82 19q-54 20 -65 20q-16 0 -25.5 -7t-17.5 -26q-8 -14 -19 -10l-53 15q-13 4 -10 20q17 72 40.5 98.5t70.5 26.5zM363 789q98 0 129 -20
t53 -101l178 -652q3 -16 -13 -16h-153q-10 0 -14 16l-54 202h-251l-56 -202q-4 -16 -13 -16h-153q-16 0 -13 16l179 652q22 81 53 101t128 20zM362 635q-8 0 -10.5 -3t-5.5 -13l-67 -250h169l-68 250q-3 10 -6 13t-12 3z" />
    <glyph glyph-name="cent" unicode="&#xc4;" horiz-adv-x="727" 
d="M244 994q41 0 63 -21t22 -58q0 -39 -22 -60t-63 -21q-86 0 -86 81q0 37 22 58t64 21zM482 994q41 0 63 -21t22 -58q0 -81 -85 -81q-86 0 -86 81q0 37 22 58t64 21zM363 789q98 0 129 -20t53 -101l178 -652q3 -16 -13 -16h-153q-10 0 -14 16l-54 202h-251l-56 -202
q-4 -16 -13 -16h-153q-16 0 -13 16l179 652q22 81 53 101t128 20zM362 635q-8 0 -10.5 -3t-5.5 -13l-67 -250h169l-68 250q-3 10 -6 13t-12 3z" />
    <glyph glyph-name="sterling" unicode="&#xc5;" horiz-adv-x="727" 
d="M485 934q0 -118 -122 -118t-122 118q0 117 122 117t122 -117zM425 934q0 62 -62 62t-62 -62t62 -62t62 62zM363 789q98 0 129 -20t53 -101l178 -652q3 -16 -13 -16h-153q-10 0 -14 16l-54 202h-251l-56 -202q-4 -16 -13 -16h-153q-16 0 -13 16l179 652q22 81 53 101
t128 20zM362 635q-8 0 -10.5 -3t-5.5 -13l-67 -250h169l-68 250q-3 10 -6 13t-12 3z" />
    <glyph glyph-name="section" unicode="&#xc6;" horiz-adv-x="1051" 
d="M363 789l298 -6h331q15 0 15 -15v-131q0 -15 -15 -15h-336v-156h307q16 0 16 -15v-124q0 -15 -16 -15h-307v-151h336q15 0 15 -15v-131q0 -15 -15 -15h-506q-15 0 -15 16v202h-233l-55 -202q-4 -16 -14 -16h-153q-16 0 -13 16l180 652q22 82 52 101q32 20 128 20z
M471 369v266h-85q-21 0 -31 -7.5t-15 -28.5l-61 -230h192z" />
    <glyph glyph-name="bullet.001" unicode="&#xc7;" horiz-adv-x="632" 
d="M585 628h-213q-88 0 -116 -48q-27 -48 -27 -187t27 -188q28 -49 116 -49h213q15 0 15 -15v-97q0 -25 -26 -31q-68 -17 -173 -18q18 -59 18 -99q0 -78 -112 -78q-69 0 -90 8q-12 4 -12 18v74q0 13 14 13h35q28 0 41 3q18 4 18 21q0 23 -4 42q-156 11 -211 96
q-56 86 -56 300q0 232 67 314t263 82q123 0 202 -18q15 -4 20.5 -10.5t5.5 -20.5v-97q0 -15 -15 -15z" />
    <glyph glyph-name="paragraph" unicode="&#xc8;" horiz-adv-x="659" 
d="M178 1009h174q9 0 12 -6l73 -135q5 -9 -3 -14l-55 -31q-9 -5 -14 0l-192 157q-5 5 -5 12v7q0 10 10 10zM81 783h518q16 0 16 -15v-131q0 -15 -16 -15h-348v-156h319q16 0 16 -15v-124q0 -15 -16 -15h-319v-151h348q16 0 16 -15v-131q0 -15 -16 -15h-518q-15 0 -15 16v751
q0 16 15 16z" />
    <glyph glyph-name="germandbls" unicode="&#xc9;" horiz-adv-x="659" 
d="M334 1009h174q10 0 10 -10v-7q0 -7 -5 -12l-192 -157q-6 -5 -14 0l-55 31q-8 5 -3 14l73 135q3 6 12 6zM81 783h518q16 0 16 -15v-131q0 -15 -16 -15h-348v-156h319q16 0 16 -15v-124q0 -15 -16 -15h-319v-151h348q16 0 16 -15v-131q0 -15 -16 -15h-518q-15 0 -15 16v751
q0 16 15 16z" />
    <glyph glyph-name="registered" unicode="&#xca;" horiz-adv-x="659" 
d="M274 1009h106q14 0 22 -9l99 -140q10 -10 -3 -17l-38 -19q-11 -6 -19 0l-113 76l-115 -76q-7 -8 -18 0l-38 19q-15 6 -4 17l100 140q5 9 21 9zM81 783h518q16 0 16 -15v-131q0 -15 -16 -15h-348v-156h319q16 0 16 -15v-124q0 -15 -16 -15h-319v-151h348q16 0 16 -15v-131
q0 -15 -16 -15h-518q-15 0 -15 16v751q0 16 15 16z" />
    <glyph glyph-name="copyright" unicode="&#xcb;" horiz-adv-x="659" 
d="M208 994q41 0 63 -21t22 -58q0 -81 -85 -81q-86 0 -86 81q0 37 22 58t64 21zM447 994q41 0 63 -21t22 -58q0 -39 -22 -60t-63 -21q-86 0 -86 81q0 37 22 58t64 21zM81 783h518q16 0 16 -15v-131q0 -15 -16 -15h-348v-156h319q16 0 16 -15v-124q0 -15 -16 -15h-319v-151
h348q16 0 16 -15v-131q0 -15 -16 -15h-518q-15 0 -15 16v751q0 16 15 16z" />
    <glyph glyph-name="trademark" unicode="&#xcc;" horiz-adv-x="317" 
d="M-19 1009h173q9 0 12 -6l73 -135q5 -9 -3 -14l-54 -31q-9 -5 -14 0l-192 157q-5 5 -5 12v7q0 10 10 10zM81 783h155q15 0 15 -16v-750q0 -17 -15 -17h-155q-15 0 -15 17v750q0 16 15 16z" />
    <glyph glyph-name="acute" unicode="&#xcd;" horiz-adv-x="317" 
d="M162 1009h174q10 0 10 -10v-7q0 -7 -5 -12l-192 -157q-5 -5 -14 0l-55 31q-8 5 -3 14l73 135q3 6 12 6zM81 783h155q15 0 15 -16v-750q0 -17 -15 -17h-155q-15 0 -15 17v750q0 16 15 16z" />
    <glyph glyph-name="dieresis" unicode="&#xce;" horiz-adv-x="317" 
d="M105 1009h106q17 0 21 -9l100 -140q9 -9 -4 -17l-38 -19q-10 -8 -18 0l-114 76l-114 -76q-8 -6 -19 0l-38 19q-13 7 -3 17l99 140q8 9 22 9zM81 783h155q15 0 15 -16v-750q0 -17 -15 -17h-155q-15 0 -15 17v750q0 16 15 16z" />
    <glyph glyph-name="notequal" unicode="&#xcf;" horiz-adv-x="317" 
d="M39 994q41 0 63 -21t22 -58q0 -81 -85 -81q-86 0 -86 81q0 37 22 58t64 21zM278 994q41 0 63 -21t22 -58q0 -39 -22 -60t-63 -21q-86 0 -86 81q0 37 22 58t64 21zM81 783h155q15 0 15 -16v-750q0 -17 -15 -17h-155q-15 0 -15 17v750q0 16 15 16z" />
    <glyph glyph-name="AE" unicode="&#xd0;" horiz-adv-x="764" 
d="M393 789q179 0 255 -94q76 -92 76 -305q0 -211 -76 -303q-77 -92 -255 -92q-150 0 -297 12q-15 1 -15 12v312h-64q-15 0 -15 15v71q0 15 15 15h64v331q0 13 15 14q147 12 297 12zM266 331v-175h127q78 0 111 54t33 180q0 128 -33.5 183t-113.5 55h-124v-196h115
q15 0 15 -15v-71q0 -15 -15 -15h-115z" />
    <glyph glyph-name="Oslash" unicode="&#xd1;" horiz-adv-x="794" 
d="M316 994q28 0 82 -20q51 -19 65 -19q16 0 25.5 7t17.5 26q8 14 18 9l53 -14q14 -5 11 -20q-18 -73 -41 -99t-70 -26q-31 0 -82 19q-54 20 -65 20q-16 0 -25.5 -7t-17.5 -26q-8 -14 -19 -10l-53 15q-13 4 -10 20q17 72 40.5 98.5t70.5 26.5zM558 783h155q15 0 15 -16v-750
q0 -17 -15 -17h-109q-37 0 -58 29l-295 423v-435q0 -17 -15 -17h-155q-15 0 -15 17v750q0 16 15 16h114q28 0 38.5 -6.5t26.5 -28.5l283 -404v423q0 16 15 16z" />
    <glyph glyph-name="infinity" unicode="&#xd2;" horiz-adv-x="751" 
d="M159 1009h173q9 0 12 -6l73 -135q5 -9 -3 -14l-54 -31q-9 -5 -14 0l-192 157q-5 3 -5 12v7q0 10 10 10zM375 789q195 0 264 -84q70 -82 70 -314q0 -121 -15.5 -193.5t-54.5 -118.5q-38 -46 -100 -65t-164 -19q-193 0 -264 83q-69 83 -69 313q0 121 15.5 194t53.5 119
q39 47 100.5 66t163.5 19zM375 628q-88 0 -117 -50t-29 -187q0 -136 29 -186q28 -49 117 -49t117 49q29 50 29 186q0 137 -29 187t-117 50z" />
    <glyph glyph-name="plusminus" unicode="&#xd3;" horiz-adv-x="751" 
d="M391 1009h174q10 0 10 -10v-7q0 -7 -5 -12l-192 -157q-5 -5 -14 0l-55 31q-8 5 -3 14l73 135q3 6 12 6zM375 789q195 0 264 -84q70 -82 70 -314q0 -121 -15.5 -193.5t-54.5 -118.5q-38 -46 -100 -65t-164 -19q-193 0 -264 83q-69 83 -69 313q0 121 15.5 194t53.5 119
q39 47 100.5 66t163.5 19zM375 628q-88 0 -117 -50t-29 -187q0 -136 29 -186q28 -49 117 -49t117 49q29 50 29 186q0 137 -29 187t-117 50z" />
    <glyph glyph-name="lessequal.001" unicode="&#xd4;" horiz-adv-x="751" 
d="M322 1009h106q16 0 21 -9l100 -140q9 -9 -4 -17l-38 -19q-11 -8 -18 0l-114 76l-114 -76q-8 -6 -19 0l-38 19q-13 7 -3 17l99 140q8 9 22 9zM375 789q195 0 264 -84q70 -82 70 -314q0 -121 -15.5 -193.5t-54.5 -118.5q-38 -46 -100 -65t-164 -19q-193 0 -264 83
q-69 83 -69 313q0 121 15.5 194t53.5 119q39 47 100.5 66t163.5 19zM375 628q-88 0 -117 -50t-29 -187q0 -136 29 -186q28 -49 117 -49t117 49q29 50 29 186q0 137 -29 187t-117 50z" />
    <glyph glyph-name="greaterequal.001" unicode="&#xd5;" horiz-adv-x="751" 
d="M294 994q28 0 82 -20q51 -19 65 -19q27 0 44 33q5 14 18 9l53 -14q13 -4 10 -20q-17 -72 -40.5 -98.5t-70.5 -26.5q-32 0 -83 19q-52 20 -63 20q-29 0 -44 -33q-6 -15 -18 -10l-53 15q-15 5 -10 20q17 72 40.5 98.5t69.5 26.5zM375 789q195 0 264 -84q70 -82 70 -314
q0 -121 -15.5 -193.5t-54.5 -118.5q-38 -46 -100 -65t-164 -19q-193 0 -264 83q-69 83 -69 313q0 121 15.5 194t53.5 119q39 47 100.5 66t163.5 19zM375 628q-88 0 -117 -50t-29 -187q0 -136 29 -186q28 -49 117 -49t117 49q29 50 29 186q0 137 -29 187t-117 50z" />
    <glyph glyph-name="yen" unicode="&#xd6;" horiz-adv-x="751" 
d="M256 994q41 0 63 -21t22 -58q0 -81 -85 -81q-86 0 -86 81q0 37 22 58t64 21zM495 994q41 0 62.5 -21t21.5 -58q0 -81 -84 -81q-86 0 -86 81q0 37 22 58t64 21zM375 789q195 0 264 -84q70 -82 70 -314q0 -121 -15.5 -193.5t-54.5 -118.5q-38 -46 -100 -65t-164 -19
q-193 0 -264 83q-69 83 -69 313q0 121 15.5 194t53.5 119q39 47 100.5 66t163.5 19zM375 628q-88 0 -117 -50t-29 -187q0 -136 29 -186q28 -49 117 -49t117 49q29 50 29 186q0 137 -29 187t-117 50z" />
    <glyph glyph-name="mu" unicode="&#xd7;" horiz-adv-x="573" 
d="M448 598l90 -90q10 -10 -1 -22l-135 -134l134 -132q11 -11 0 -22l-101 -100q-11 -9 -22 0l-133 131l-134 -134q-12 -11 -22 -1l-90 90q-10 10 1 22l136 134l-133 134q-9 11 0 22l100 100q11 9 22 0l132 -134l134 136q11 11 22 0z" />
    <glyph glyph-name="partialdiff.001" unicode="&#xd8;" horiz-adv-x="751" 
d="M375 789q139 0 209 -39l29 42q11 14 21 4l34 -23q12 -7 3 -21l-33 -46q71 -83 71 -315q0 -121 -15.5 -193.5t-54.5 -118.5q-38 -46 -100 -65t-164 -19q-137 0 -208 38l-31 -44q-9 -14 -20 -3l-34 24q-11 7 -4 20l34 47q-70 82 -70 314q0 121 15.5 194t53.5 119
q39 47 100.5 66t163.5 19zM375 628q-88 0 -117 -50t-29 -187q0 -88 10 -132l237 339q-30 30 -101 30zM511 524l-237 -338q32 -30 101 -30q89 0 117 49q29 50 29 186q0 94 -10 133z" />
    <glyph glyph-name="summation" unicode="&#xd9;" horiz-adv-x="769" 
d="M193 1009h174q9 0 12 -6l73 -135q5 -9 -3 -14l-55 -31q-9 -5 -14 0l-192 157q-5 5 -5 12v7q0 10 10 10zM540 783h155q15 0 15 -15v-377q0 -128 -14 -199.5t-52 -117.5q-37 -45 -96 -62t-163 -17t-163.5 17t-97.5 62q-37 46 -51 118t-14 199v377q0 15 15 15h155
q15 0 15 -15v-377q0 -142 28 -188q29 -47 113 -47q83 0 112 47q28 46 28 188v377q0 15 15 15z" />
    <glyph glyph-name="product" unicode="&#xda;" horiz-adv-x="769" 
d="M376 1009h173q10 0 10 -10v-7q0 -7 -5 -12l-192 -157q-5 -5 -14 0l-54 31q-8 5 -3 14l73 135q3 6 12 6zM540 783h155q15 0 15 -15v-377q0 -128 -14 -199.5t-52 -117.5q-37 -45 -96 -62t-163 -17t-163.5 17t-97.5 62q-37 46 -51 118t-14 199v377q0 15 15 15h155
q15 0 15 -15v-377q0 -142 28 -188q29 -47 113 -47q83 0 112 47q28 46 28 188v377q0 15 15 15z" />
    <glyph glyph-name="pi.001" unicode="&#xdb;" horiz-adv-x="769" 
d="M331 1009h106q15 0 22 -9l100 -140q9 -11 -4 -17l-38 -19q-11 -6 -19 0l-113 76l-114 -76q-9 -7 -19 0l-38 19q-14 8 -4 17l100 140q8 9 21 9zM540 783h155q15 0 15 -15v-377q0 -128 -14 -199.5t-52 -117.5q-37 -45 -96 -62t-163 -17t-163.5 17t-97.5 62q-37 46 -51 118
t-14 199v377q0 15 15 15h155q15 0 15 -15v-377q0 -142 28 -188q29 -47 113 -47q83 0 112 47q28 46 28 188v377q0 15 15 15z" />
    <glyph glyph-name="integral" unicode="&#xdc;" horiz-adv-x="769" 
d="M266 994q41 0 62.5 -21t21.5 -58q0 -81 -84 -81q-86 0 -86 81q0 37 22 58t64 21zM504 994q41 0 63 -21t22 -58q0 -39 -22 -60t-63 -21q-86 0 -86 81q0 37 22 58t64 21zM540 783h155q15 0 15 -15v-377q0 -128 -14 -199.5t-52 -117.5q-37 -45 -96 -62t-163 -17t-163.5 17
t-97.5 62q-37 46 -51 118t-14 199v377q0 15 15 15h155q15 0 15 -15v-377q0 -142 28 -188q29 -47 113 -47q83 0 112 47q28 46 28 188v377q0 15 15 15z" />
    <glyph glyph-name="ordfeminine" unicode="&#xdd;" horiz-adv-x="741" 
d="M384 1009h174q10 0 10 -10v-7q0 -7 -5 -12l-192 -157q-5 -5 -14 0l-55 31q-8 5 -3 14l73 135q3 6 12 6zM557 783h173q23 0 11 -22l-278 -503v-241q0 -17 -15 -17h-155q-15 0 -15 17v243l-277 501q-12 22 11 22h174q15 0 27 -16l158 -328l159 328q7 16 27 16z" />
    <glyph glyph-name="ordmasculine" unicode="&#xde;" horiz-adv-x="687" 
d="M81 785h155q15 0 15 -16v-115q49 4 121 4q164 0 226 -58q64 -58 64 -206t-64 -206q-63 -57 -226 -57q-60 0 -121 3v-115q0 -17 -15 -17h-155q-15 0 -15 17v750q0 16 15 16zM353 500h-102v-212h102q71 0 97 21q25 22 25 84q0 61 -26 84t-96 23z" />
    <glyph glyph-name="Omega.001" unicode="&#xdf;" horiz-adv-x="649" 
d="M323 789q146 0 210.5 -50t64.5 -167q0 -87 -27.5 -127.5t-95.5 -51.5v-3q77 -7 108.5 -48t31.5 -131q0 -120 -64 -168q-63 -48 -217 -48q-26 0 -53 3q-16 1 -13 17l25 128q1 13 10 13h22q58 2 81 20t23 63q0 48 -26 68.5t-86 20.5h-23q-15 0 -15 15v99q0 15 17 15h21
q50 1 72.5 20t22.5 64q0 47 -21 67t-69 20q-44 0 -64 -20.5t-20 -67.5v-525q0 -15 -15 -15h-154q-15 0 -15 15v546q0 115 59 171q59 57 210 57z" />
    <glyph glyph-name="ae" unicode="&#xe0;" horiz-adv-x="578" 
d="M101 809h174q9 0 12 -6l73 -135q5 -9 -3 -14l-55 -31q-8 -5 -14 0l-192 157q-5 5 -5 12v7q0 10 10 10zM277 572q80 0 131.5 -12.5t76.5 -38.5t34 -55t9 -74v-344q0 -26 -24 -32q-103 -21 -230 -21q-55 0 -88 3q-30 1 -67 11q-48 15 -68.5 51.5t-25.5 113.5q2 101 52 134
q50 34 166 34l110 1v20q0 59 -76 59h-196q-13 0 -13 15v102q0 13 13 16q85 17 196 17zM353 143v95h-93q-35 0 -49 -12t-14 -40q0 -30 15 -40.5t56 -10.5q50 0 85 8z" />
    <glyph glyph-name="oslash" unicode="&#xe1;" horiz-adv-x="578" 
d="M273 809h174q10 0 10 -10v-7q0 -7 -5 -12l-192 -157q-5 -5 -14 0l-55 31q-8 5 -3 14l73 135q3 6 12 6zM277 572q80 0 131.5 -12.5t76.5 -38.5t34 -55t9 -74v-344q0 -26 -24 -32q-103 -21 -230 -21q-55 0 -88 3q-30 1 -67 11q-48 15 -68.5 51.5t-25.5 113.5q2 101 52 134
q50 34 166 34l110 1v20q0 59 -76 59h-196q-13 0 -13 15v102q0 13 13 16q85 17 196 17zM353 143v95h-93q-35 0 -49 -12t-14 -40q0 -30 15 -40.5t56 -10.5q50 0 85 8z" />
    <glyph glyph-name="questiondown" unicode="&#xe2;" horiz-adv-x="578" 
d="M235 809h106q13 0 21 -9l100 -140q9 -11 -4 -17l-38 -19q-10 -7 -19 0l-113 76l-114 -76q-8 -6 -19 0l-38 19q-13 6 -4 17l100 140q8 9 22 9zM277 572q80 0 131.5 -12.5t76.5 -38.5t34 -55t9 -74v-344q0 -26 -24 -32q-103 -21 -230 -21q-55 0 -88 3q-30 1 -67 11
q-48 15 -68.5 51.5t-25.5 113.5q2 101 52 134q50 34 166 34l110 1v20q0 59 -76 59h-196q-13 0 -13 15v102q0 13 13 16q85 17 196 17zM353 143v95h-93q-35 0 -49 -12t-14 -40q0 -30 15 -40.5t56 -10.5q50 0 85 8z" />
    <glyph glyph-name="exclamdown" unicode="&#xe3;" horiz-adv-x="578" 
d="M207 794q28 0 82 -20q51 -19 65 -19q16 0 25.5 7t17.5 26q7 13 19 9l53 -14q13 -4 10 -20q-17 -72 -40.5 -98.5t-70.5 -26.5q-31 0 -82 19q-54 20 -65 20q-16 0 -25.5 -7t-17.5 -26q-8 -14 -18 -10l-53 15q-14 5 -11 20q18 73 41 99t70 26zM277 572q80 0 131.5 -12.5
t76.5 -38.5t34 -55t9 -74v-344q0 -26 -24 -32q-103 -21 -230 -21q-55 0 -88 3q-30 1 -67 11q-48 15 -68.5 51.5t-25.5 113.5q2 101 52 134q50 34 166 34l110 1v20q0 59 -76 59h-196q-13 0 -13 15v102q0 13 13 16q85 17 196 17zM353 143v95h-93q-35 0 -49 -12t-14 -40
q0 -30 15 -40.5t56 -10.5q50 0 85 8z" />
    <glyph glyph-name="logicalnot" unicode="&#xe4;" horiz-adv-x="578" 
d="M169 794q41 0 63 -21t22 -58q0 -39 -22 -60t-63 -21q-86 0 -86 81q0 37 22 58t64 21zM492 715q0 -81 -85 -81t-85 81q0 37 22 58t63 21t63 -21t22 -58zM277 572q80 0 131.5 -12.5t76.5 -38.5t34 -55t9 -74v-344q0 -26 -24 -32q-103 -21 -230 -21q-55 0 -88 3
q-30 1 -67 11q-48 15 -68.5 51.5t-25.5 113.5q2 101 52 134q50 34 166 34l110 1v20q0 59 -76 59h-196q-13 0 -13 15v102q0 13 13 16q85 17 196 17zM353 143v95h-93q-35 0 -49 -12t-14 -40q0 -30 15 -40.5t56 -10.5q50 0 85 8z" />
    <glyph glyph-name="radical.001" unicode="&#xe5;" horiz-adv-x="578" 
d="M410 734q0 -118 -122 -118t-122 118q0 117 122 117t122 -117zM350 734q0 62 -62 62t-62 -62t62 -62t62 62zM277 572q80 0 131.5 -12.5t76.5 -38.5t34 -55t9 -74v-344q0 -26 -24 -32q-103 -21 -230 -21q-55 0 -88 3q-30 1 -67 11q-48 15 -68.5 51.5t-25.5 113.5
q2 101 52 134q50 34 166 34l110 1v20q0 59 -76 59h-196q-13 0 -13 15v102q0 13 13 16q85 17 196 17zM353 143v95h-93q-35 0 -49 -12t-14 -40q0 -30 15 -40.5t56 -10.5q50 0 85 8z" />
    <glyph glyph-name="florin.001" unicode="&#xe6;" horiz-adv-x="903" 
d="M617 572q154 0 205 -57q52 -56 52 -229v-31q0 -16 -6.5 -21.5t-23.5 -5.5h-312q2 -53 21 -68q21 -15 83 -15h184q15 0 15 -15v-102q0 -14 -14 -17q-73 -16 -204 -16q-47 0 -94 10q-50 11 -77 27q-70 -37 -172 -37q-55 0 -88 3q-30 1 -67 11q-48 15 -68.5 51.5
t-25.5 113.5q2 101 52 134q50 34 166 34l110 1v20q0 59 -76 59h-196q-8 0 -11 3t-3 12v102q0 9 2.5 11.5t11.5 4.5q83 17 196 17q114 0 172 -43q61 43 168 43zM617 422q-47 0 -66.5 -19.5t-19.5 -68.5h168q-1 50 -19 69t-63 19zM360 238h-100q-35 0 -49 -12t-14 -40
q0 -30 15 -42t55 -12q66 0 107 18q-14 39 -14 88z" />
    <glyph glyph-name="approxequal" unicode="&#xe7;" horiz-adv-x="521" 
d="M472 422h-169q-56 0 -74 -27q-17 -28 -17 -111t17 -112q18 -27 74 -27h169q18 0 18 -16v-97q0 -16 -17 -21q-53 -14 -130 -15q17 -57 17 -100q0 -78 -112 -78q-68 0 -89 8q-12 4 -12 18v74q0 13 13 13h36q28 0 41 3q18 4 18 21q0 22 -4 41q-130 7 -172 66q-41 59 -41 222
q0 135 29 200q26 51 77 68.5t159 19.5q107 0 170 -16q17 -5 17 -21v-97q0 -16 -18 -16z" />
    <glyph glyph-name="increment" unicode="&#xe8;" horiz-adv-x="586" 
d="M105 809h173q9 0 12 -6l73 -135q5 -9 -3 -14l-54 -31q-9 -5 -14 0l-192 157q-5 5 -5 12v7q0 10 10 10zM300 572q154 0 205 -57q52 -56 52 -229v-31q0 -16 -6.5 -21.5t-23.5 -5.5h-312q2 -53 21 -68q21 -15 83 -15h184q15 0 15 -15v-102q0 -14 -14 -17q-73 -16 -204 -16
q-158 0 -210 57q-53 59 -53 231q0 173 53 231q52 58 210 58zM300 422q-47 0 -66.5 -19.5t-19.5 -68.5h168q0 50 -18.5 69t-63.5 19z" />
    <glyph glyph-name="guillemotleft" unicode="&#xe9;" horiz-adv-x="586" 
d="M296 809h173q10 0 10 -10v-7q0 -7 -5 -12l-192 -157q-5 -5 -14 0l-54 31q-8 5 -3 14l73 135q3 6 12 6zM300 572q154 0 205 -57q52 -56 52 -229v-31q0 -16 -6.5 -21.5t-23.5 -5.5h-312q2 -53 21 -68q21 -15 83 -15h184q15 0 15 -15v-102q0 -14 -14 -17q-73 -16 -204 -16
q-158 0 -210 57q-53 59 -53 231q0 173 53 231q52 58 210 58zM300 422q-47 0 -66.5 -19.5t-19.5 -68.5h168q0 50 -18.5 69t-63.5 19z" />
    <glyph glyph-name="guillemotright" unicode="&#xea;" horiz-adv-x="586" 
d="M247 809h106q13 0 21 -9l100 -140q9 -11 -4 -17l-38 -19q-10 -7 -19 0l-113 76l-114 -76q-8 -6 -19 0l-38 19q-13 6 -4 17l100 140q7 9 22 9zM300 572q154 0 205 -57q52 -56 52 -229v-31q0 -16 -6.5 -21.5t-23.5 -5.5h-312q2 -53 21 -68q21 -15 83 -15h184q15 0 15 -15
v-102q0 -14 -14 -17q-73 -16 -204 -16q-158 0 -210 57q-53 59 -53 231q0 173 53 231q52 58 210 58zM300 422q-47 0 -66.5 -19.5t-19.5 -68.5h168q0 50 -18.5 69t-63.5 19z" />
    <glyph glyph-name="ellipsis" unicode="&#xeb;" horiz-adv-x="586" 
d="M181 794q41 0 63 -21t22 -58q0 -39 -22 -60t-63 -21q-86 0 -86 81q0 37 22 58t64 21zM504 715q0 -81 -85 -81t-85 81q0 37 22 58t63 21t63 -21t22 -58zM300 572q154 0 205 -57q52 -56 52 -229v-31q0 -16 -6.5 -21.5t-23.5 -5.5h-312q2 -53 21 -68q21 -15 83 -15h184
q15 0 15 -15v-102q0 -14 -14 -17q-73 -16 -204 -16q-158 0 -210 57q-53 59 -53 231q0 173 53 231q52 58 210 58zM300 422q-47 0 -66.5 -19.5t-19.5 -68.5h168q0 50 -18.5 69t-63.5 19z" />
    <glyph glyph-name="nbspace" unicode="&#xec;" horiz-adv-x="283" 
d="M-34 809h174q9 0 12 -6l73 -135q5 -9 -3 -14l-55 -31q-9 -5 -14 0l-192 157q-5 5 -5 12v7q0 10 10 10zM69 567h145q15 0 15 -16v-535q0 -16 -15 -16h-145q-15 0 -15 16v535q0 16 15 16z" />
    <glyph glyph-name="Agrave" unicode="&#xed;" horiz-adv-x="282" 
d="M150 809h174q10 0 10 -10v-7q0 -7 -5 -12l-192 -157q-6 -5 -14 0l-55 31q-8 5 -3 14l73 135q3 6 12 6zM69 567h144q15 0 15 -16v-535q0 -16 -15 -16h-144q-15 0 -15 16v535q0 16 15 16z" />
    <glyph glyph-name="Atilde" unicode="&#xee;" horiz-adv-x="282" 
d="M88 809h106q14 0 22 -9l100 -140q9 -11 -4 -17l-38 -19q-11 -6 -19 0l-113 76l-114 -76q-8 -6 -19 0l-38 19q-13 6 -4 17l100 140q7 9 21 9zM213 0h-144q-15 0 -15 16v535q0 16 15 16h144q15 0 15 -16v-535q0 -16 -15 -16z" />
    <glyph glyph-name="Otilde" unicode="&#xef;" horiz-adv-x="282" 
d="M22 794q41 0 63 -21t22 -58q0 -39 -22 -60t-63 -21q-86 0 -86 81q0 37 22 58t64 21zM345 715q0 -81 -85 -81t-85 81q0 37 22 58t63 21t63 -21t22 -58zM69 567h144q15 0 15 -16v-535q0 -16 -15 -16h-144q-15 0 -15 16v535q0 16 15 16z" />
    <glyph glyph-name="OE" unicode="&#xf0;" horiz-adv-x="601" 
d="M160 782l154 1q12 0 18 -10l22 -37l74 27q15 6 19 -9l10 -26q5 -14 -9 -19l-64 -23l154 -261q27 -44 27 -169q0 -156 -53 -209q-52 -52 -213 -52q-86 0 -134.5 11.5t-78.5 41.5t-42 77.5t-12 130.5q2 150 47 198q47 50 185 50q24 0 45 -3l-78 129l-84 -29q-15 -6 -19 9
l-10 26q-5 14 9 19l73 26l-50 83q-11 18 10 18zM299 367q-56 0 -74 -23q-17 -23 -17 -88t17 -88q18 -23 74 -23q55 0 73 23q18 22 18 88q0 65 -18 88t-73 23z" />
    <glyph glyph-name="oe.001" unicode="&#xf1;" horiz-adv-x="618" 
d="M227 794q28 0 82 -20q51 -19 65 -19q28 0 44 33q4 14 18 9l53 -14q13 -4 10 -20q-17 -72 -40.5 -98.5t-70.5 -26.5q-31 0 -82 19q-54 20 -64 20q-29 0 -44 -33q-6 -15 -18 -10l-53 15q-14 5 -11 20q18 72 41.5 98.5t69.5 26.5zM323 572q80 0 124 -10t72 -37t38.5 -71
t10.5 -125v-313q0 -16 -15 -16h-145q-14 0 -14 16v259q0 63 -2.5 86t-13.5 39t-25.5 19t-56.5 3h-67v-406q0 -16 -15 -16h-147q-14 0 -14 16v523q0 6 2 9t4 4t8 2q74 18 256 18z" />
    <glyph glyph-name="endash.001" unicode="&#xf2;" horiz-adv-x="606" 
d="M102 809h174q9 0 12 -6l73 -135q5 -9 -3 -14l-55 -31q-9 -5 -14 0l-192 157q-5 5 -5 12v7q0 10 10 10zM89 514q52 58 214 58q161 0 213 -58q53 -58 53 -231t-53 -231q-52 -57 -213 -57t-214 57q-52 56 -52 231t52 231zM376 395q-16 27 -73 27q-56 0 -74 -28
q-17 -28 -17 -111t17 -111q18 -27 74 -27q57 0 73 27q18 27 18 111q0 83 -18 112z" />
    <glyph glyph-name="emdash.001" unicode="&#xf3;" horiz-adv-x="606" 
d="M313 809h173q10 0 10 -10v-7q0 -9 -5 -12l-192 -157q-5 -5 -14 0l-54 31q-8 5 -3 14l73 135q3 6 12 6zM89 514q52 58 214 58q161 0 213 -58q53 -58 53 -231t-53 -231q-52 -57 -213 -57t-214 57q-52 56 -52 231t52 231zM376 395q-16 27 -73 27q-56 0 -74 -28
q-17 -28 -17 -111t17 -111q18 -27 74 -27q57 0 73 27q18 27 18 111q0 83 -18 112z" />
    <glyph glyph-name="quotedblleft" unicode="&#xf4;" horiz-adv-x="606" 
d="M250 809h106q14 0 22 -9l99 -140q10 -10 -3 -17l-38 -19q-11 -6 -19 0l-114 76l-114 -76q-7 -8 -18 0l-38 19q-15 6 -4 17l99 140q7 9 22 9zM89 514q52 58 214 58q161 0 213 -58q53 -58 53 -231t-53 -231q-52 -57 -213 -57t-214 57q-52 56 -52 231t52 231zM376 395
q-16 27 -73 27q-56 0 -74 -28q-17 -28 -17 -111t17 -111q18 -27 74 -27q57 0 73 27q18 27 18 111q0 83 -18 112z" />
    <glyph glyph-name="quotedblright.001" unicode="&#xf5;" horiz-adv-x="606" 
d="M223 794q29 0 81 -20q51 -19 65 -19q29 0 44 33q5 14 18 9l53 -14q14 -5 10 -20q-17 -72 -40.5 -98.5t-69.5 -26.5q-32 0 -83 19q-52 20 -64 20q-29 0 -44 -33q-6 -15 -18 -10l-53 15q-13 4 -10 20q17 72 40.5 98.5t70.5 26.5zM89 514q52 58 214 58q161 0 213 -58
q53 -58 53 -231t-53 -231q-52 -57 -213 -57t-214 57q-52 56 -52 231t52 231zM376 395q-16 27 -73 27q-56 0 -74 -28q-17 -28 -17 -111t17 -111q18 -27 74 -27q57 0 73 27q18 27 18 111q0 83 -18 112z" />
    <glyph glyph-name="quoteleft" unicode="&#xf6;" horiz-adv-x="606" 
d="M184 794q41 0 63 -21t22 -58q0 -81 -85 -81q-86 0 -86 81q0 37 22 58t64 21zM423 794q41 0 63 -21t22 -58q0 -39 -22 -60t-63 -21q-86 0 -86 81q0 37 22 58t64 21zM89 514q52 58 214 58q161 0 213 -58q53 -58 53 -231t-53 -231q-52 -57 -213 -57t-214 57q-52 56 -52 231
t52 231zM376 395q-16 27 -73 27q-56 0 -74 -28q-17 -28 -17 -111t17 -111q18 -27 74 -27q57 0 73 27q18 27 18 111q0 83 -18 112z" />
    <glyph glyph-name="quoteright.001" unicode="&#xf7;" horiz-adv-x="576" 
d="M289 636q47 0 73.5 -24t26.5 -67t-26.5 -67.5t-73.5 -24.5q-49 0 -75.5 24t-26.5 68q0 43 26.5 67t75.5 24zM43 407h490q16 0 16 -15v-131q0 -15 -16 -15h-490q-16 0 -16 15v131q0 15 16 15zM289 199q47 0 73.5 -24t26.5 -67t-26.5 -67.5t-73.5 -24.5q-49 0 -75.5 24
t-26.5 68q0 43 26.5 67t75.5 24z" />
    <glyph glyph-name="divide" unicode="&#xf8;" horiz-adv-x="606" 
d="M303 572q91 0 147 -17l24 35q11 14 21 4l34 -23q12 -7 3 -21l-21 -30q32 -30 45 -85.5t13 -151.5q0 -173 -53 -231q-52 -57 -213 -57q-97 0 -148 18l-26 -37q-9 -14 -20 -3l-34 24q-11 7 -4 20l23 32q-57 57 -57 234q0 175 52 231q52 58 214 58zM303 422q-56 0 -74 -28
q-17 -28 -17 -111q0 -37 3 -61l136 193q-15 7 -48 7zM390 348l-137 -195q18 -8 50 -8q57 0 73 27q18 27 18 111q0 45 -4 65z" />
    <glyph glyph-name="lozenge" unicode="&#xf9;" horiz-adv-x="618" 
d="M121 809h174q9 0 12 -6l73 -135q5 -9 -3 -14l-55 -31q-8 -5 -14 0l-192 157q-5 5 -5 12v7q0 10 10 10zM405 567h146q14 0 14 -16v-521q0 -9 -2.5 -12t-11.5 -5q-95 -18 -255 -18q-80 0 -124.5 10t-72.5 37t-38.5 71.5t-10.5 125.5v312q0 16 16 16h144q15 0 15 -16v-259
q-3 -94 15 -126q11 -13 29 -17.5t54 -3.5h67v406q0 16 15 16z" />
    <glyph glyph-name="ydieresis" unicode="&#xfa;" horiz-adv-x="618" 
d="M294 809h174q10 0 10 -10v-7q0 -7 -5 -12l-192 -157q-5 -5 -14 0l-55 31q-8 5 -3 14l73 135q3 6 12 6zM405 567h146q14 0 14 -16v-521q0 -9 -2.5 -12t-11.5 -5q-95 -18 -255 -18q-80 0 -124.5 10t-72.5 37t-38.5 71.5t-10.5 125.5v312q0 16 16 16h144q15 0 15 -16v-259
q-3 -94 15 -126q11 -13 29 -17.5t54 -3.5h67v406q0 16 15 16z" />
    <glyph glyph-name="Ydieresis.001" unicode="&#xfb;" horiz-adv-x="618" 
d="M255 809h106q17 0 21 -9l100 -140q10 -9 -4 -17l-38 -19q-10 -7 -19 0l-113 76l-114 -76q-8 -6 -19 0l-38 19q-13 6 -4 17l100 140q7 9 22 9zM405 567h146q14 0 14 -16v-521q0 -9 -2.5 -12t-11.5 -5q-95 -18 -255 -18q-80 0 -124.5 10t-72.5 37t-38.5 71.5t-10.5 125.5
v312q0 16 16 16h144q15 0 15 -16v-259q-3 -94 15 -126q11 -13 29 -17.5t54 -3.5h67v406q0 16 15 16z" />
    <glyph glyph-name="fraction" unicode="&#xfc;" horiz-adv-x="618" 
d="M177 794q41 0 63 -21t22 -58q0 -81 -85 -81q-86 0 -86 81q0 37 22 58t64 21zM416 794q41 0 62.5 -21t21.5 -58q0 -81 -84 -81q-86 0 -86 81q0 37 22 58t64 21zM405 567h146q14 0 14 -16v-521q0 -9 -2.5 -12t-11.5 -5q-95 -18 -255 -18q-80 0 -124.5 10t-72.5 37
t-38.5 71.5t-10.5 125.5v312q0 16 16 16h144q15 0 15 -16v-259q-3 -94 15 -126q11 -13 29 -17.5t54 -3.5h67v406q0 16 15 16z" />
    <glyph glyph-name="currency" unicode="&#xfd;" horiz-adv-x="634" 
d="M319 809h174q10 0 10 -10v-7q0 -7 -5 -12l-192 -157q-5 -5 -14 0l-55 31q-8 5 -3 14l73 135q3 6 12 6zM421 567h144q15 0 15 -15v-559q0 -82 -24 -125q-39 -77 -228 -77q-128 0 -207 16q-13 3 -13 16v93q0 15 14 15h188q57 0 76.5 14.5t19.5 55.5v7q-53 -13 -118 -13
q-132 0 -186 58q-53 59 -53 192v307q0 15 15 15h145q15 0 15 -15v-268q0 -87 21 -112q23 -26 89 -26q44 0 72 6v400q0 15 15 15z" />
    <glyph glyph-name="guilsinglleft.001" unicode="&#xfe;" horiz-adv-x="614" 
d="M69 783h145q15 0 15 -16v-201q60 6 118 6q133 0 181 -61q49 -61 49 -228q0 -92 -11.5 -143.5t-42.5 -85.5q-30 -33 -80.5 -46t-137.5 -13q-35 0 -76 3v-186q0 -15 -15 -15h-145q-15 0 -15 15v955q0 16 15 16zM301 421h-72v-269q32 -7 79 -7q63 0 78 28q16 28 16 110
q0 87 -18 113q-16 25 -83 25z" />
    <glyph glyph-name="guilsinglright.001" unicode="&#xff;" horiz-adv-x="634" 
d="M193 794q41 0 62.5 -21t21.5 -58q0 -81 -84 -81q-86 0 -86 81q0 37 22 58t64 21zM431 794q41 0 63 -21t22 -58q0 -81 -85 -81q-86 0 -86 81q0 37 22 58t64 21zM421 567h144q15 0 15 -15v-559q0 -82 -24 -125q-39 -77 -228 -77q-128 0 -207 16q-13 3 -13 16v93q0 15 14 15
h188q57 0 76.5 14.5t19.5 55.5v7q-53 -13 -118 -13q-132 0 -186 58q-53 59 -53 192v307q0 15 15 15h145q15 0 15 -15v-268q0 -87 21 -112q23 -26 89 -26q44 0 72 6v400q0 15 15 15z" />
    <glyph glyph-name="fi" unicode="&#x100;" horiz-adv-x="727" 
d="M210 956h306q15 0 15 -15v-71q0 -15 -15 -15h-306q-15 0 -15 15v71q0 15 15 15zM363 789q98 0 129 -20t53 -101l178 -652q3 -16 -13 -16h-153q-10 0 -14 16l-54 202h-251l-56 -202q-4 -16 -13 -16h-153q-16 0 -13 16l179 652q22 81 53 101t128 20zM362 635q-8 0 -10.5 -3
t-5.5 -13l-67 -250h169l-68 250q-3 10 -6 13t-12 3z" />
    <glyph glyph-name="fl.001" unicode="&#x101;" horiz-adv-x="578" 
d="M135 756h306q15 0 15 -15v-71q0 -15 -15 -15h-306q-15 0 -15 15v71q0 15 15 15zM277 572q80 0 131.5 -12.5t76.5 -38.5t34 -55t9 -74v-344q0 -26 -24 -32q-103 -21 -230 -21q-55 0 -88 3q-30 1 -67 11q-48 15 -68.5 51.5t-25.5 113.5q2 101 52 134q50 34 166 34l110 1v20
q0 59 -76 59h-196q-13 0 -13 15v102q0 13 13 16q85 17 196 17zM353 143v95h-93q-35 0 -49 -12t-14 -40q0 -30 15 -40.5t56 -10.5q50 0 85 8z" />
    <glyph glyph-name="daggerdbl.001" unicode="&#x102;" horiz-adv-x="727" 
d="M462 995h72q17 0 14 -15q-10 -80 -51 -112t-134 -32t-134 31.5t-51 111.5q-3 16 14 16h71q13 0 17 -12q11 -27 30 -37.5t53 -10.5t52.5 10.5t29.5 37.5q4 12 17 12zM363 789q98 0 129 -20t53 -101l178 -652q3 -16 -13 -16h-153q-10 0 -14 16l-54 202h-251l-56 -202
q-4 -16 -13 -16h-153q-16 0 -13 16l179 652q22 81 53 101t128 20zM362 635q-8 0 -10.5 -3t-5.5 -13l-67 -250h169l-68 250q-3 10 -6 13t-12 3z" />
    <glyph glyph-name="middot" unicode="&#x103;" horiz-adv-x="578" 
d="M388 795h71q17 0 14 -15q-10 -80 -51 -112t-134 -32t-134 31.5t-51 111.5q-3 16 14 16h71q12 0 17 -12q11 -27 30 -37.5t53 -10.5t52.5 10.5t30.5 37.5q5 12 17 12zM277 572q80 0 131.5 -12.5t76.5 -38.5t34 -55t9 -74v-344q0 -26 -24 -32q-103 -21 -230 -21q-55 0 -88 3
q-30 1 -67 11q-48 15 -68.5 51.5t-25.5 113.5q2 101 52 134q50 34 166 34l110 1v20q0 59 -76 59h-196q-13 0 -13 15v102q0 13 13 16q85 17 196 17zM353 143v95h-93q-35 0 -49 -12t-14 -40q0 -30 15 -40.5t56 -10.5q50 0 85 8z" />
    <glyph glyph-name="quotesinglbase.001" unicode="&#x104;" horiz-adv-x="727" 
d="M363 789q98 0 129 -20t53 -101l178 -652q3 -16 -13 -16h-81q-5 -33 -5 -45q0 -17 17 -21q15 -3 43 -3h35q13 0 13 -13v-74q0 -14 -12 -18q-21 -8 -89 -8q-112 0 -112 78q0 54 25 119l-55 203h-251l-56 -202q-4 -16 -13 -16h-153q-16 0 -13 16l179 652q22 81 53 101
t128 20zM362 635q-8 0 -10.5 -3t-5.5 -13l-67 -250h169l-68 250q-3 10 -6 13t-12 3z" />
    <glyph glyph-name="quotedblbase.001" unicode="&#x105;" horiz-adv-x="578" 
d="M504 16q-72 -12 -79 -13q-5 -27 -5 -48q0 -17 17 -21q15 -3 43 -3h35q13 0 13 -13v-74q0 -14 -12 -18q-21 -8 -89 -8q-112 0 -112 78q0 38 17 100q-15 -1 -58 -1q-55 0 -88 3q-30 1 -67 11q-48 15 -68.5 51.5t-25.5 113.5q2 101 52 134q50 34 166 34l110 1v20
q0 59 -76 59h-196q-13 0 -13 15v102q0 13 13 16q85 17 196 17q80 0 131.5 -12.5t76.5 -38.5t34 -55t9 -74v-344q0 -26 -24 -32zM268 135q50 0 85 8v95h-93q-35 0 -49 -12t-14 -40q0 -30 15 -40.5t56 -10.5z" />
    <glyph glyph-name="perthousand" unicode="&#x106;" horiz-adv-x="632" 
d="M335 1009h173q10 0 10 -10v-7q0 -7 -5 -12l-192 -157q-5 -5 -14 0l-54 31q-8 5 -3 14l73 135q3 6 12 6zM372 789q123 0 202 -18q15 -4 20.5 -10.5t5.5 -20.5v-97q0 -15 -15 -15h-213q-88 0 -116 -48q-27 -48 -27 -187t27 -188q28 -49 116 -49h213q15 0 15 -15v-97
q0 -25 -26 -31q-74 -18 -202 -18q-102 0 -163.5 19t-99.5 65q-37 47 -52 119.5t-15 194.5q0 232 67 314t263 82z" />
    <glyph glyph-name="Acircumflex" unicode="&#x107;" horiz-adv-x="521" 
d="M268 809h174q10 0 10 -10v-7q0 -7 -5 -12l-192 -157q-5 -5 -14 0l-55 31q-8 5 -3 14l73 135q3 6 12 6zM303 572q107 0 170 -16q17 -5 17 -21v-97q0 -16 -18 -16h-169q-56 0 -74 -27q-17 -28 -17 -111t17 -112q18 -27 74 -27h169q18 0 18 -16v-97q0 -16 -17 -21
q-63 -16 -170 -16q-89 0 -137.5 12.5t-77.5 45.5q-29 34 -39.5 85.5t-10.5 145.5q0 135 29 200q26 51 77 68.5t159 19.5z" />
    <glyph glyph-name="Ecircumflex" unicode="&#x108;" horiz-adv-x="632" 
d="M302 1009h106q14 0 22 -9l99 -140q10 -10 -3 -17l-38 -19q-11 -6 -19 0l-113 76l-115 -76q-7 -8 -18 0l-38 19q-13 8 -4 17l100 140q5 9 21 9zM372 789q123 0 202 -18q15 -4 20.5 -10.5t5.5 -20.5v-97q0 -15 -15 -15h-213q-88 0 -116 -48q-27 -48 -27 -187t27 -188
q28 -49 116 -49h213q15 0 15 -15v-97q0 -25 -26 -31q-74 -18 -202 -18q-102 0 -163.5 19t-99.5 65q-37 47 -52 119.5t-15 194.5q0 232 67 314t263 82z" />
    <glyph glyph-name="Aacute" unicode="&#x109;" horiz-adv-x="521" 
d="M230 809h106q14 0 22 -9l100 -140q9 -11 -4 -17l-38 -19q-11 -6 -19 0l-113 76l-114 -76q-9 -7 -19 0l-38 19q-13 8 -4 17l100 140q7 9 21 9zM303 572q107 0 170 -16q17 -5 17 -21v-97q0 -16 -18 -16h-169q-56 0 -74 -27q-17 -28 -17 -111t17 -112q18 -27 74 -27h169
q18 0 18 -16v-97q0 -16 -17 -21q-63 -16 -170 -16q-89 0 -137.5 12.5t-77.5 45.5q-29 34 -39.5 85.5t-10.5 145.5q0 135 29 200q26 51 77 68.5t159 19.5z" />
    <glyph glyph-name="Edieresis" unicode="&#x10a;" horiz-adv-x="632" 
d="M363 998q93 0 93 -83q0 -85 -93 -85q-45 0 -69 22t-24 63q0 40 24 61.5t69 21.5zM372 789q123 0 202 -18q15 -4 20.5 -10.5t5.5 -20.5v-97q0 -15 -15 -15h-213q-88 0 -116 -48q-27 -48 -27 -187t27 -188q28 -49 116 -49h213q15 0 15 -15v-97q0 -25 -26 -31
q-74 -18 -202 -18q-102 0 -163.5 19t-99.5 65q-37 47 -52 119.5t-15 194.5q0 232 67 314t263 82z" />
    <glyph glyph-name="Egrave" unicode="&#x10b;" horiz-adv-x="521" 
d="M281 798q45 0 68.5 -21.5t23.5 -61.5q0 -85 -92 -85q-94 0 -94 85q0 40 24 61.5t70 21.5zM303 572q107 0 170 -16q17 -5 17 -21v-97q0 -16 -18 -16h-169q-56 0 -74 -27q-17 -28 -17 -111t17 -112q18 -27 74 -27h169q18 0 18 -16v-97q0 -16 -17 -21q-63 -16 -170 -16
q-89 0 -137.5 12.5t-77.5 45.5q-29 34 -39.5 85.5t-10.5 145.5q0 135 29 200q26 51 77 68.5t159 19.5z" />
    <glyph glyph-name="Iacute" unicode="&#x10c;" horiz-adv-x="632" 
d="M449 1006l38 -19q13 -7 4 -17l-100 -139q-4 -10 -21 -10h-106q-15 0 -22 10l-100 139q-8 11 4 17l38 19q11 6 19 0l114 -76l113 76q9 7 19 0zM372 789q123 0 202 -18q15 -4 20.5 -10.5t5.5 -20.5v-97q0 -15 -15 -15h-213q-88 0 -116 -48q-27 -48 -27 -187t27 -188
q28 -49 116 -49h213q15 0 15 -15v-97q0 -25 -26 -31q-74 -18 -202 -18q-102 0 -163.5 19t-99.5 65q-37 47 -52 119.5t-15 194.5q0 232 67 314t263 82z" />
    <glyph glyph-name="Icircumflex" unicode="&#x10d;" horiz-adv-x="521" 
d="M417 806l37 -19q13 -6 4 -17l-99 -139q-7 -10 -22 -10h-106q-15 0 -22 10l-99 139q-9 11 4 17l38 19q10 8 18 0l114 -76l114 76q8 6 19 0zM303 572q107 0 170 -16q17 -5 17 -21v-97q0 -16 -18 -16h-169q-56 0 -74 -27q-17 -28 -17 -111t17 -112q18 -27 74 -27h169
q18 0 18 -16v-97q0 -16 -17 -21q-63 -16 -170 -16q-89 0 -137.5 12.5t-77.5 45.5q-29 34 -39.5 85.5t-10.5 145.5q0 135 29 200q26 51 77 68.5t159 19.5z" />
    <glyph glyph-name="Idieresis" unicode="&#x10e;" horiz-adv-x="749" 
d="M480 1006l38 -19q13 -7 4 -17l-100 -139q-4 -10 -21 -10h-106q-15 0 -22 10l-99 139q-9 11 3 17l38 19q11 6 19 0l114 -76l114 76q8 8 18 0zM378 789q179 0 255 -94q76 -92 76 -305q0 -211 -76 -303q-77 -92 -255 -92q-150 0 -297 12q-15 1 -15 12v744q0 13 15 14
q147 12 297 12zM375 628h-124v-472h127q78 0 111 54t33 180q0 127 -33.5 182.5t-113.5 55.5z" />
    <glyph glyph-name="Igrave" unicode="&#x10f;" horiz-adv-x="644" 
d="M652 788h157q10 0 10 -10v-7q0 -7 -5 -12l-144 -157q-5 -8 -14 0l-40 29q-8 5 -5 16l26 131q1 10 15 10zM400 783h144q15 0 15 -16v-722q0 -26 -23 -29q-128 -21 -227 -21q-87 0 -137 13t-82 46q-30 34 -41.5 86.5t-11.5 142.5q0 167 48 228t182 61q58 0 118 -6v201
q0 16 15 16zM385 152v269h-72q-66 0 -84 -26t-18 -112q0 -81 15 -110q16 -28 79 -28q48 0 80 7z" />
    <glyph glyph-name="Oacute" unicode="&#x110;" horiz-adv-x="764" 
d="M393 789q179 0 255 -94q76 -92 76 -305q0 -211 -76 -303q-77 -92 -255 -92q-150 0 -297 12q-15 1 -15 12v312h-64q-15 0 -15 15v71q0 15 15 15h64v331q0 13 15 14q147 12 297 12zM266 331v-175h127q78 0 111 54t33 180q0 128 -33.5 183t-113.5 55h-124v-196h115
q15 0 15 -15v-71q0 -15 -15 -15h-115z" />
    <glyph glyph-name="Ocircumflex" unicode="&#x111;" horiz-adv-x="612" 
d="M559 767v-49h59q15 0 15 -15v-38q0 -15 -15 -15h-59v-605q0 -26 -23 -29q-128 -21 -227 -21q-87 0 -137 13t-82 46q-30 34 -41.5 86.5t-11.5 142.5q0 167 48 228t182 61q58 0 118 -6v84h-107q-15 0 -15 15v38q0 15 15 15h107v49q0 16 15 16h144q15 0 15 -16zM385 152v269
h-72q-66 0 -84 -26t-18 -112q0 -81 15 -110q16 -28 79 -28q48 0 80 7z" />
    <glyph glyph-name="apple" unicode="&#x112;" horiz-adv-x="659" 
d="M175 956h305q15 0 15 -15v-71q0 -15 -15 -15h-305q-15 0 -15 15v71q0 15 15 15zM81 783h518q16 0 16 -15v-131q0 -15 -16 -15h-348v-156h319q16 0 16 -15v-124q0 -15 -16 -15h-319v-151h348q16 0 16 -15v-131q0 -15 -16 -15h-518q-15 0 -15 16v751q0 16 15 16z" />
    <glyph glyph-name="Ograve" unicode="&#x113;" horiz-adv-x="586" 
d="M147 756h306q15 0 15 -15v-71q0 -15 -15 -15h-306q-15 0 -15 15v71q0 15 15 15zM300 572q154 0 205 -57q52 -56 52 -229v-31q0 -16 -6.5 -21.5t-23.5 -5.5h-312q2 -53 21 -68q21 -15 83 -15h184q15 0 15 -15v-102q0 -14 -14 -17q-73 -16 -204 -16q-158 0 -210 57
q-53 59 -53 231q0 173 53 231q52 58 210 58zM300 422q-47 0 -66.5 -19.5t-19.5 -68.5h168q0 50 -18.5 69t-63.5 19z" />
    <glyph glyph-name="Uacute" unicode="&#x114;" horiz-adv-x="659" 
d="M442 995h71q17 0 14 -15q-10 -80 -51 -112t-134 -32t-134 31.5t-51 111.5q-3 16 14 16h71q12 0 17 -12q11 -27 30 -37.5t53 -10.5t52.5 10.5t30.5 37.5q5 12 17 12zM81 783h518q16 0 16 -15v-131q0 -15 -16 -15h-348v-156h319q16 0 16 -15v-124q0 -15 -16 -15h-319v-151
h348q16 0 16 -15v-131q0 -15 -16 -15h-518q-15 0 -15 16v751q0 16 15 16z" />
    <glyph glyph-name="Ucircumflex" unicode="&#x115;" horiz-adv-x="586" 
d="M399 795h72q17 0 14 -15q-10 -80 -51 -112t-134 -32t-134 31.5t-51 111.5q-3 16 14 16h71q12 0 17 -12q11 -27 30 -37.5t53 -10.5t52.5 10.5t29.5 37.5q4 12 17 12zM300 572q154 0 205 -57q52 -56 52 -229v-31q0 -16 -6.5 -21.5t-23.5 -5.5h-312q2 -53 21 -68
q21 -15 83 -15h184q15 0 15 -15v-102q0 -14 -14 -17q-73 -16 -204 -16q-158 0 -210 57q-53 59 -53 231q0 173 53 231q52 58 210 58zM300 422q-47 0 -66.5 -19.5t-19.5 -68.5h168q0 50 -18.5 69t-63.5 19z" />
    <glyph glyph-name="Ugrave" unicode="&#x116;" horiz-adv-x="659" 
d="M328 998q45 0 68.5 -21.5t23.5 -61.5q0 -85 -92 -85q-94 0 -94 85q0 40 24 61.5t70 21.5zM81 783h518q16 0 16 -15v-131q0 -15 -16 -15h-348v-156h319q16 0 16 -15v-124q0 -15 -16 -15h-319v-151h348q16 0 16 -15v-131q0 -15 -16 -15h-518q-15 0 -15 16v751q0 16 15 16z
" />
    <glyph glyph-name="dotlessi" unicode="&#x117;" horiz-adv-x="586" 
d="M300 798q45 0 69 -21.5t24 -61.5q0 -41 -24 -63t-69 -22q-94 0 -94 85q0 40 24 61.5t70 21.5zM300 572q154 0 205 -57q52 -56 52 -229v-31q0 -16 -6.5 -21.5t-23.5 -5.5h-312q2 -53 21 -68q21 -15 83 -15h184q15 0 15 -15v-102q0 -14 -14 -17q-73 -16 -204 -16
q-158 0 -210 57q-53 59 -53 231q0 173 53 231q52 58 210 58zM300 422q-47 0 -66.5 -19.5t-19.5 -68.5h168q0 50 -18.5 69t-63.5 19z" />
    <glyph glyph-name="circumflex" unicode="&#x118;" horiz-adv-x="659" 
d="M81 783h518q16 0 16 -15v-131q0 -15 -16 -15h-348v-156h319q16 0 16 -15v-124q0 -15 -16 -15h-319v-151h348q16 0 16 -15v-131q0 -15 -16 -15h-98q-5 -33 -5 -45q0 -17 17 -21q15 -3 43 -3h35q13 0 13 -13v-74q0 -14 -12 -18q-21 -8 -89 -8q-112 0 -112 78q0 47 19 104
h-329q-15 0 -15 16v751q0 16 15 16z" />
    <glyph glyph-name="tilde.001" unicode="&#x119;" horiz-adv-x="586" 
d="M300 572q154 0 205 -57q52 -56 52 -229v-31q0 -16 -6.5 -21.5t-23.5 -5.5h-312q2 -53 21 -68q21 -15 83 -15h184q15 0 15 -15v-102q0 -14 -14 -17q-41 -9 -82 -11q-5 -33 -5 -45q0 -17 17 -21q15 -3 43 -3h35q13 0 13 -13v-74q0 -14 -12 -18q-21 -8 -89 -8
q-112 0 -112 78q0 45 18 99h-30q-158 0 -210 57q-53 59 -53 231q0 173 53 231q52 58 210 58zM300 422q-47 0 -66.5 -19.5t-19.5 -68.5h168q0 50 -18.5 69t-63.5 19z" />
    <glyph glyph-name="overscore" unicode="&#x11a;" horiz-adv-x="659" 
d="M460 1006l38 -19q12 -6 3 -17l-99 -139q-7 -10 -22 -10h-106q-17 0 -21 10l-100 139q-9 11 4 17l38 19q11 8 18 0l115 -76l113 76q8 6 19 0zM81 783h518q16 0 16 -15v-131q0 -15 -16 -15h-348v-156h319q16 0 16 -15v-124q0 -15 -16 -15h-319v-151h348q16 0 16 -15v-131
q0 -15 -16 -15h-518q-15 0 -15 16v751q0 16 15 16z" />
    <glyph glyph-name="breve" unicode="&#x11b;" horiz-adv-x="586" 
d="M432 806l38 -19q12 -6 4 -17l-100 -139q-7 -10 -21 -10h-106q-15 0 -22 10l-100 139q-8 11 4 17l38 19q11 6 19 0l114 -76l113 76q9 7 19 0zM300 572q154 0 205 -57q52 -56 52 -229v-31q0 -16 -6.5 -21.5t-23.5 -5.5h-312q2 -53 21 -68q21 -15 83 -15h184q15 0 15 -15
v-102q0 -14 -14 -17q-73 -16 -204 -16q-158 0 -210 57q-53 59 -53 231q0 173 53 231q52 58 210 58zM300 422q-47 0 -66.5 -19.5t-19.5 -68.5h168q0 50 -18.5 69t-63.5 19z" />
    <glyph glyph-name="dotaccent" unicode="&#x11c;" horiz-adv-x="696" 
d="M310 1009h106q15 0 22 -9l100 -140q9 -11 -4 -17l-38 -19q-11 -6 -19 0l-113 76l-114 -76q-8 -6 -19 0l-38 19q-13 6 -4 17l100 140q7 9 21 9zM372 789q150 0 224 -18q15 -4 20.5 -10.5t5.5 -20.5v-97q0 -15 -15 -15h-235q-88 0 -116 -49q-27 -48 -27 -187t27 -188
q28 -48 116 -48h111v212q0 17 15 17h143q15 0 15 -17v-276q0 -20 -6 -28q-18 -31 -97 -50q-76 -19 -181 -19q-196 0 -263 82t-67 315q0 123 15 195t52 118q38 47 99 65.5t164 18.5z" />
    <glyph glyph-name="ring.001" unicode="&#x11d;" horiz-adv-x="614" 
d="M253 809h106q17 0 21 -9l100 -140q10 -9 -4 -17l-38 -19q-10 -8 -18 0l-114 76l-114 -76q-8 -6 -19 0l-38 19q-13 7 -3 17l99 140q8 9 22 9zM311 572q105 0 227 -21q23 -3 23 -29v-529q0 -82 -24 -125q-39 -77 -228 -77q-126 0 -205 16q-13 3 -13 16v93q0 15 13 15h187
q57 0 76.5 14.5t19.5 55.5v7q-53 -13 -118 -13q-133 0 -183 63q-49 62 -49 237q0 164 55 220q56 57 219 57zM387 152v270h-85q-60 0 -76 -28q-15 -28 -15 -110q0 -88 19 -113t85 -25q43 0 72 6z" />
    <glyph glyph-name="cedilla" unicode="&#x11e;" horiz-adv-x="696" 
d="M442 995h71q17 0 14 -15q-10 -80 -51 -112t-134 -32t-134 31.5t-51 111.5q-3 16 14 16h71q12 0 17 -12q12 -27 30.5 -37.5t52.5 -10.5t52.5 10.5t30.5 37.5q5 12 17 12zM372 789q150 0 224 -18q15 -4 20.5 -10.5t5.5 -20.5v-97q0 -15 -15 -15h-235q-88 0 -116 -49
q-27 -48 -27 -187t27 -188q28 -48 116 -48h111v212q0 17 15 17h143q15 0 15 -17v-276q0 -20 -6 -28q-18 -31 -97 -50q-76 -19 -181 -19q-196 0 -263 82t-67 315q0 123 15 195t52 118q38 47 99 65.5t164 18.5z" />
    <glyph glyph-name="hungarumlaut" unicode="&#x11f;" horiz-adv-x="614" 
d="M406 795h71q17 0 14 -15q-10 -80 -51 -112t-134 -32t-134 31.5t-51 111.5q-3 16 14 16h71q12 0 17 -12q12 -27 30.5 -37.5t52.5 -10.5q35 0 53 10.5t30 37.5q5 12 17 12zM311 572q105 0 227 -21q23 -3 23 -29v-529q0 -82 -24 -125q-39 -77 -228 -77q-126 0 -205 16
q-13 3 -13 16v93q0 15 13 15h187q57 0 76.5 14.5t19.5 55.5v7q-53 -13 -118 -13q-133 0 -183 63q-49 62 -49 237q0 164 55 220q56 57 219 57zM387 152v270h-85q-60 0 -76 -28q-15 -28 -15 -110q0 -88 19 -113t85 -25q43 0 72 6z" />
    <glyph glyph-name="ogonek.001" unicode="&#x120;" horiz-adv-x="696" 
d="M435 915q0 -85 -93 -85t-93 85q0 83 93 83t93 -83zM372 789q150 0 224 -18q15 -4 20.5 -10.5t5.5 -20.5v-97q0 -15 -15 -15h-235q-88 0 -116 -49q-27 -48 -27 -187t27 -188q28 -48 116 -48h111v212q0 17 15 17h143q15 0 15 -17v-276q0 -20 -6 -28q-18 -31 -97 -50
q-76 -19 -181 -19q-196 0 -263 82t-67 315q0 123 15 195t52 118q38 47 99 65.5t164 18.5z" />
    <glyph glyph-name="caron" unicode="&#x121;" horiz-adv-x="614" 
d="M306 798q45 0 69 -21.5t24 -61.5q0 -41 -24 -63t-69 -22q-93 0 -93 85q0 83 93 83zM311 572q105 0 227 -21q23 -3 23 -29v-529q0 -82 -24 -125q-39 -77 -228 -77q-126 0 -205 16q-13 3 -13 16v93q0 15 13 15h187q57 0 76.5 14.5t19.5 55.5v7q-53 -13 -118 -13
q-133 0 -183 63q-49 62 -49 237q0 164 55 220q56 57 219 57zM387 152v270h-85q-60 0 -76 -28q-15 -28 -15 -110q0 -88 19 -113t85 -25q43 0 72 6z" />
    <glyph glyph-name="Lslash" unicode="&#x122;" horiz-adv-x="696" 
d="M372 789q150 0 224 -18q15 -4 20.5 -10.5t5.5 -20.5v-97q0 -15 -15 -15h-235q-88 0 -116 -49q-27 -48 -27 -187t27 -188q28 -48 116 -48h111v212q0 17 15 17h143q15 0 15 -17v-276q0 -20 -6 -28q-18 -31 -97 -50q-76 -19 -181 -19q-196 0 -263 82t-67 315q0 123 15 195
t52 118q38 47 99 65.5t164 18.5zM289 -40h149q10 0 10 -10v-7q0 -7 -5 -12l-168 -133q-5 -5 -14 0l-44 26q-8 5 -3 14l63 116q3 6 12 6z" />
    <glyph glyph-name="lslash" unicode="&#x123;" horiz-adv-x="614" 
d="M413 791l44 -25q8 -6 3 -14l-63 -117q-3 -6 -12 -6h-149q-10 0 -10 10v7q0 7 5 12l168 133q5 5 14 0zM311 572q105 0 227 -21q23 -3 23 -29v-529q0 -82 -24 -125q-39 -77 -228 -77q-126 0 -205 16q-13 3 -13 16v93q0 15 13 15h187q57 0 76.5 14.5t19.5 55.5v7
q-53 -13 -118 -13q-133 0 -183 63q-49 62 -49 237q0 164 55 220q56 57 219 57zM387 152v270h-85q-60 0 -76 -28q-15 -28 -15 -110q0 -88 19 -113t85 -25q43 0 72 6z" />
    <glyph glyph-name="Scaron.001" unicode="&#x124;" horiz-adv-x="795" 
d="M347 1009h106q13 0 21 -9l100 -140q10 -9 -4 -17l-38 -19q-10 -7 -19 0l-113 76l-114 -76q-8 -6 -19 0l-38 19q-13 6 -4 17l100 140q7 9 22 9zM559 783h155q15 0 15 -16v-750q0 -17 -15 -17h-155q-15 0 -15 17v291h-293v-291q0 -17 -15 -17h-155q-15 0 -15 17v750
q0 16 15 16h155q15 0 15 -16v-296h293v296q0 16 15 16z" />
    <glyph glyph-name="scaron.001" unicode="&#x125;" horiz-adv-x="619" 
d="M86 1005h106q15 0 22 -9l100 -140q9 -11 -4 -17l-38 -19q-11 -6 -19 0l-113 76l-114 -76q-9 -7 -19 0l-38 19q-13 7 -4 17l100 140q5 9 21 9zM68 783h145q15 0 15 -16v-200q55 5 95 5q80 0 124 -10t72 -37t38.5 -71t10.5 -125v-313q0 -16 -15 -16h-145q-14 0 -14 16v259
q3 94 -15 126q-20 22 -83 21h-67v-406q0 -16 -15 -16h-146q-15 0 -15 16v751q0 16 15 16z" />
    <glyph glyph-name="Zcaron" unicode="&#x126;" horiz-adv-x="819" 
d="M741 767v-86h53q15 0 15 -15v-40q0 -15 -15 -15h-53v-594q0 -17 -15 -17h-155q-15 0 -15 17v291h-293v-291q0 -17 -15 -17h-155q-15 0 -15 17v594h-55q-15 0 -15 15v40q0 15 15 15h55v86q0 16 15 16h155q15 0 15 -16v-86h293v86q0 16 15 16h155q15 0 15 -16zM263 471h293
v140h-293v-140z" />
    <glyph glyph-name="zcaron" unicode="&#x127;" horiz-adv-x="619" 
d="M324 572q80 0 124 -10t72 -37t38.5 -71t10.5 -125v-313q0 -16 -15 -16h-145q-14 0 -14 16v259q3 94 -15 126q-20 22 -83 21h-67v-406q0 -16 -15 -16h-146q-15 0 -15 16v634h-55q-15 0 -15 15v38q0 15 15 15h55v49q0 16 15 16h145q15 0 15 -16v-49h111q15 0 15 -15v-38
q0 -15 -15 -15h-111v-83q55 5 95 5z" />
    <glyph glyph-name="brokenbar" unicode="&#x128;" horiz-adv-x="317" 
d="M77 994q30 0 82 -20q51 -19 65 -19q29 0 44 33q4 14 18 9l53 -14q13 -4 10 -20q-17 -72 -40.5 -98.5t-70.5 -26.5q-31 0 -82 19q-52 20 -64 20q-29 0 -44 -33q-6 -15 -18 -10l-53 15q-15 5 -10 20q17 72 40.5 98.5t69.5 26.5zM81 783h155q15 0 15 -16v-750q0 -17 -15 -17
h-155q-15 0 -15 17v750q0 16 15 16z" />
    <glyph glyph-name="Eth" unicode="&#x129;" horiz-adv-x="283" 
d="M61 794q28 0 82 -20q51 -19 65 -19q28 0 44 33q4 14 18 9l53 -14q13 -4 10 -20q-17 -72 -40.5 -98.5t-70.5 -26.5q-32 0 -83 19q-52 20 -63 20q-17 0 -26.5 -7t-17.5 -26q-8 -14 -18 -10l-53 15q-14 5 -11 20q18 72 41.5 98.5t69.5 26.5zM69 567h145q15 0 15 -16v-535
q0 -16 -15 -16h-145q-15 0 -15 16v535q0 16 15 16z" />
    <glyph glyph-name="eth" unicode="&#x12a;" horiz-adv-x="317" 
d="M5 956h306q15 0 15 -15v-71q0 -15 -15 -15h-306q-15 0 -15 15v71q0 15 15 15zM81 783h155q15 0 15 -16v-750q0 -17 -15 -17h-155q-15 0 -15 17v750q0 16 15 16z" />
    <glyph glyph-name="Yacute" unicode="&#x12b;" horiz-adv-x="283" 
d="M-11 756h305q15 0 15 -15v-71q0 -15 -15 -15h-305q-15 0 -15 15v71q0 15 15 15zM69 567h145q15 0 15 -16v-535q0 -16 -15 -16h-145q-15 0 -15 16v535q0 16 15 16z" />
    <glyph glyph-name="yacute" unicode="&#x12e;" horiz-adv-x="317" 
d="M81 783h155q15 0 15 -16v-750q0 -17 -15 -17h-82q-5 -33 -5 -45q0 -17 17 -21q15 -3 43 -3h35q13 0 13 -13v-74q0 -14 -12 -18q-21 -8 -89 -8q-112 0 -112 78q0 46 22 118v753q0 16 15 16z" />
    <glyph glyph-name="Thorn" unicode="&#x12f;" horiz-adv-x="283" 
d="M142 798q45 0 69 -21.5t24 -61.5q0 -41 -24 -63t-69 -22q-94 0 -94 85q0 40 24 61.5t70 21.5zM69 567h145q15 0 15 -16v-535q0 -16 -15 -16h-73q-5 -33 -5 -45q0 -17 17 -21q15 -3 42 -3h36q13 0 13 -13v-74q0 -14 -12 -18q-21 -8 -89 -8q-112 0 -112 78q0 46 23 117v538
q0 16 15 16z" />
    <glyph glyph-name="thorn" unicode="&#x130;" horiz-adv-x="317" 
d="M158 998q45 0 69 -21.5t24 -61.5q0 -41 -24 -63t-69 -22q-93 0 -93 85q0 83 93 83zM81 783h155q15 0 15 -16v-750q0 -17 -15 -17h-155q-15 0 -15 17v750q0 16 15 16z" />
    <glyph glyph-name="minus.001" unicode="&#x131;" horiz-adv-x="283" 
d="M69 567h145q15 0 15 -16v-535q0 -16 -15 -16h-145q-15 0 -15 16v535q0 16 15 16z" />
    <glyph glyph-name="multiply" unicode="&#x132;" horiz-adv-x="914" 
d="M81 783h155q15 0 15 -16v-750q0 -17 -15 -17h-155q-15 0 -15 17v750q0 16 15 16zM486 783h354q15 0 15 -15v-391q0 -223 -69 -302q-69 -80 -264 -80q-92 0 -165 18q-26 6 -26 28v100q0 15 15 15h176q90 0 119 44q29 46 29 177v245h-184q-16 0 -16 15v131q0 15 16 15z" />
    <glyph glyph-name="onesuperior" unicode="&#x133;" horiz-adv-x="572" 
d="M142 812q47 0 73.5 -24t26.5 -67t-26.5 -67.5t-73.5 -24.5q-49 0 -75.5 24t-26.5 68q0 43 26.5 67t75.5 24zM69 567h144q15 0 15 -16v-535q0 -16 -15 -16h-144q-15 0 -15 16v535q0 16 15 16zM532 721q0 -44 -26.5 -68t-74.5 -24t-74.5 24t-26.5 68q0 43 26.5 67t74.5 24
t74.5 -24t26.5 -67zM358 567h145q15 0 15 -16v-614q0 -89 -37 -117q-38 -29 -120 -29q-60 0 -96 10q-17 6 -17 21v104q0 15 18 15h26q33 0 42 8.5t9 38.5v563q0 16 15 16z" />
    <glyph glyph-name="twosuperior" unicode="&#x134;" horiz-adv-x="589" 
d="M283 1009h106q13 0 21 -9l100 -140q9 -11 -4 -17l-38 -19q-11 -6 -19 0l-113 76l-114 -76q-8 -6 -19 0l-38 19q-13 6 -4 17l100 140q8 9 22 9zM161 783h354q15 0 15 -15v-391q0 -223 -69 -302q-69 -80 -264 -80q-91 0 -165 18q-26 6 -26 28v100q0 15 15 15h176
q90 0 119 44q29 46 29 177v245h-184q-16 0 -16 15v131q0 15 16 15z" />
    <glyph glyph-name="threesuperior" unicode="&#x135;" horiz-adv-x="290" 
d="M92 809h106q14 0 22 -9l100 -140q9 -11 -4 -17l-38 -19q-11 -6 -19 0l-113 76l-114 -76q-8 -6 -19 0l-38 19q-13 6 -4 17l100 140q7 9 21 9zM76 567h145q15 0 15 -16v-614q0 -89 -37 -117q-38 -29 -120 -29q-60 0 -96 10q-17 6 -17 21v104q0 15 18 15h26q33 0 42 8.5
t9 38.5v563q0 16 15 16z" />
    <glyph glyph-name="onehalf" unicode="&#x136;" horiz-adv-x="708" 
d="M502 783h171q21 0 9 -19l-242 -340l271 -397q19 -27 -17 -27h-171q-16 0 -22 11l-250 371v-366q0 -16 -15 -16h-155q-15 0 -15 16v751q0 16 15 16h155q15 0 15 -16v-319l230 325q7 10 21 10zM290 -40h149q10 0 10 -10v-7q0 -7 -5 -12l-168 -133q-5 -5 -14 0l-44 26
q-8 5 -3 14l63 116q3 6 12 6z" />
    <glyph glyph-name="onequarter" unicode="&#x137;" horiz-adv-x="585" 
d="M69 783h145q15 0 15 -16v-392l133 182q7 10 21 10h160q25 0 9 -19l-152 -205l189 -316q15 -27 -17 -27h-154q-14 0 -22 11l-167 293v-288q0 -16 -15 -16h-145q-15 0 -15 16v751q0 16 15 16zM240 -40h149q10 0 10 -10v-7q0 -7 -5 -12l-168 -133q-5 -5 -14 0l-44 26
q-8 5 -3 14l63 116q3 6 12 6z" />
    <glyph glyph-name="threequarters" unicode="&#x138;" horiz-adv-x="623" 
d="M430 567h170q22 0 9 -19l-181 -259l186 -264q17 -26 -15 -26h-175q-16 0 -22 11l-163 236v-230q0 -16 -15 -16h-155q-15 0 -15 16v535q0 16 15 16h155q15 0 15 -16v-239l170 245q7 10 21 10z" />
    <glyph glyph-name="franc" unicode="&#x139;" horiz-adv-x="593" 
d="M163 1009h173q10 0 10 -10v-7q0 -7 -5 -12l-192 -157q-5 -5 -14 0l-54 31q-8 5 -3 14l73 135q3 6 12 6zM81 783h155q15 0 15 -16v-606h311q15 0 15 -15v-131q0 -15 -15 -15h-481q-15 0 -15 16v751q0 16 15 16z" />
    <glyph glyph-name="Gbreve" unicode="&#x13a;" horiz-adv-x="282" 
d="M149 1006h173q10 0 10 -10v-7q0 -7 -5 -12l-192 -157q-5 -5 -14 0l-54 31q-8 5 -3 14l73 135q3 6 12 6zM69 783h144q15 0 15 -16v-751q0 -16 -15 -16h-144q-15 0 -15 16v751q0 16 15 16z" />
    <glyph glyph-name="gbreve" unicode="&#x13b;" horiz-adv-x="593" 
d="M81 783h155q15 0 15 -16v-606h311q15 0 15 -15v-131q0 -15 -15 -15h-481q-15 0 -15 16v751q0 16 15 16zM251 -40h149q10 0 10 -10v-7q0 -7 -5 -12l-168 -133q-5 -5 -14 0l-44 26q-8 5 -3 14l63 116q3 6 12 6z" />
    <glyph glyph-name="Idot" unicode="&#x13c;" horiz-adv-x="283" 
d="M69 783h145q15 0 15 -16v-751q0 -16 -15 -16h-145q-15 0 -15 16v751q0 16 15 16zM64 -40h149q10 0 10 -10v-7q0 -7 -5 -12l-168 -133q-5 -5 -14 0l-44 26q-8 5 -3 14l63 116q3 6 12 6z" />
    <glyph glyph-name="Scedilla.001" unicode="&#x13d;" horiz-adv-x="586" 
d="M373 788h157q10 0 10 -10v-7q0 -7 -5 -12l-144 -157q-5 -8 -14 0l-40 29q-8 5 -5 16l26 131q1 10 15 10zM81 783h155q15 0 15 -16v-606h311q15 0 15 -15v-131q0 -15 -15 -15h-481q-15 0 -15 16v751q0 16 15 16z" />
    <glyph glyph-name="scedilla.001" unicode="&#x13e;" horiz-adv-x="314" 
d="M321 788h157q10 0 10 -10v-7q0 -7 -5 -12l-144 -157q-5 -8 -14 0l-40 29q-7 4 -5 16l26 131q1 10 15 10zM69 783h145q15 0 15 -16v-751q0 -16 -15 -16h-145q-15 0 -15 16v751q0 16 15 16z" />
    <glyph glyph-name="Cacute" unicode="&#x13f;" horiz-adv-x="594" 
d="M81 783h155q15 0 15 -16v-606h311q15 0 15 -15v-131q0 -15 -15 -15h-481q-15 0 -15 16v751q0 16 15 16zM437 474q92 0 92 -83q0 -84 -92 -84q-94 0 -94 84q0 83 94 83z" />
    <glyph glyph-name="cacute" unicode="&#x140;" horiz-adv-x="488" 
d="M69 783h145q15 0 15 -16v-751q0 -16 -15 -16h-145q-15 0 -15 16v751q0 16 15 16zM386 474q93 0 93 -83q0 -84 -93 -84q-94 0 -94 84q0 83 94 83z" />
    <glyph glyph-name="Ccaron" unicode="&#x141;" horiz-adv-x="616" 
d="M274 412v-251h311q15 0 15 -15v-131q0 -15 -15 -15h-481q-15 0 -15 16v289l-62 -36q-14 -10 -19 6l-20 34q-8 13 5 20l96 55v383q0 16 15 16h155q15 0 15 -16v-276l111 64q15 8 21 -5l20 -34q8 -12 -6 -20z" />
    <glyph glyph-name="ccaron" unicode="&#x142;" horiz-adv-x="343" 
d="M85 783h145q15 0 15 -16v-290l54 31q15 8 21 -5l20 -34q8 -12 -6 -20l-89 -51v-382q0 -16 -15 -16h-145q-15 0 -15 16v281l-34 -20q-14 -10 -19 6l-20 35q-8 13 5 20l68 39v390q0 16 15 16z" />
    <glyph glyph-name="dslash" unicode="&#x143;" horiz-adv-x="794" 
d="M382 1009h174q10 0 10 -10v-7q0 -7 -5 -12l-192 -157q-6 -5 -14 0l-55 31q-8 5 -3 14l73 135q3 6 12 6zM558 783h155q15 0 15 -16v-750q0 -17 -15 -17h-109q-37 0 -58 29l-295 423v-435q0 -17 -15 -17h-155q-15 0 -15 17v750q0 16 15 16h114q28 0 38.5 -6.5t26.5 -28.5
l283 -404v423q0 16 15 16z" />
    <glyph glyph-name="nacute" unicode="&#x144;" horiz-adv-x="618" 
d="M293 809h174q10 0 10 -10v-7q0 -7 -5 -12l-192 -157q-5 -5 -14 0l-55 31q-8 5 -3 14l73 135q3 6 12 6zM323 572q80 0 124 -10t72 -37t38.5 -71t10.5 -125v-313q0 -16 -15 -16h-145q-14 0 -14 16v259q0 63 -2.5 86t-13.5 39t-25.5 19t-56.5 3h-67v-406q0 -16 -15 -16h-147
q-14 0 -14 16v523q0 6 2 9t4 4t8 2q74 18 256 18z" />
    <glyph glyph-name="uni0145" unicode="&#x145;" horiz-adv-x="794" 
d="M558 783h155q15 0 15 -16v-750q0 -17 -15 -17h-109q-37 0 -58 29l-295 423v-435q0 -17 -15 -17h-155q-15 0 -15 17v750q0 16 15 16h114q28 0 38.5 -6.5t26.5 -28.5l283 -404v423q0 16 15 16zM340 -40h148q10 0 10 -10v-7q0 -9 -5 -12l-167 -133q-6 -5 -14 0l-45 26
q-8 5 -3 14l64 116q3 6 12 6z" />
    <glyph glyph-name="uni0146" unicode="&#x146;" horiz-adv-x="618" 
d="M323 572q80 0 124 -10t72 -37t38.5 -71t10.5 -125v-313q0 -16 -15 -16h-145q-14 0 -14 16v259q0 63 -2.5 86t-13.5 39t-25.5 19t-56.5 3h-67v-406q0 -16 -15 -16h-147q-14 0 -14 16v523q0 6 2 9t4 4t8 2q74 18 256 18zM233 -40h149q10 0 10 -10v-7q0 -7 -5 -12l-168 -133
q-5 -5 -14 0l-44 26q-8 5 -3 14l63 116q3 6 12 6z" />
    <glyph glyph-name="Ncaron" unicode="&#x147;" horiz-adv-x="794" 
d="M529 1006l38 -19q12 -6 4 -17l-100 -139q-7 -10 -22 -10h-106q-14 0 -21 10l-100 139q-8 11 4 17l38 19q11 6 19 0l114 -76l113 76q8 6 19 0zM558 783h155q15 0 15 -16v-750q0 -17 -15 -17h-109q-37 0 -58 29l-295 423v-435q0 -17 -15 -17h-155q-15 0 -15 17v750
q0 16 15 16h114q28 0 38.5 -6.5t26.5 -28.5l283 -404v423q0 16 15 16z" />
    <glyph glyph-name="ncaron" unicode="&#x148;" horiz-adv-x="618" 
d="M440 806l38 -19q13 -7 4 -17l-100 -139q-4 -10 -21 -10h-106q-15 0 -22 10l-99 139q-9 11 3 17l38 19q11 6 19 0l114 -76l114 76q8 8 18 0zM323 572q80 0 124 -10t72 -37t38.5 -71t10.5 -125v-313q0 -16 -15 -16h-145q-14 0 -14 16v259q0 63 -2.5 86t-13.5 39t-25.5 19
t-56.5 3h-67v-406q0 -16 -15 -16h-147q-14 0 -14 16v523q0 6 2 9t4 4t8 2q74 18 256 18z" />
    <glyph glyph-name="napostrophe" unicode="&#x149;" horiz-adv-x="618" 
d="M-11 788h157q10 0 10 -10v-7q0 -7 -5 -12l-144 -157q-5 -8 -14 0l-40 29q-7 4 -5 16l26 131q1 10 15 10zM323 572q80 0 124 -10t72 -37t38.5 -71t10.5 -125v-313q0 -16 -15 -16h-145q-14 0 -14 16v259q0 63 -2.5 86t-13.5 39t-25.5 19t-56.5 3h-67v-406q0 -16 -15 -16
h-147q-14 0 -14 16v523q0 6 2 9t4 4t8 2q74 18 256 18z" />
    <glyph glyph-name="Eng" unicode="&#x14a;" horiz-adv-x="792" 
d="M558 783h155q15 0 15 -16v-589q-3 -220 -64.5 -300t-220.5 -82q-49 0 -106 12q-26 5 -26 28v106q0 15 15 15h78q67 0 99 26.5t32 85.5l-284 383v-435q0 -17 -15 -17h-155q-15 0 -15 17v750q0 16 15 16h114q28 0 38.5 -6.5t26.5 -28.5l283 -404v423q0 16 15 16z" />
    <glyph glyph-name="eng" unicode="&#x14b;" horiz-adv-x="618" 
d="M323 572q80 0 124 -10t72 -37t38.5 -71t10.5 -125v-392q0 -89 -37 -117q-37 -29 -119 -29q-63 0 -96 10q-17 5 -17 21v104q0 15 17 15h26q33 0 42.5 8.5t9.5 38.5v287q0 63 -2.5 86t-13.5 39t-25.5 19t-56.5 3h-67v-406q0 -16 -15 -16h-147q-14 0 -14 16v523q0 6 2 9t4 4
t8 2q74 18 256 18z" />
    <glyph glyph-name="Omacron" unicode="&#x14c;" horiz-adv-x="751" 
d="M222 956h306q15 0 15 -15v-71q0 -15 -15 -15h-306q-15 0 -15 15v71q0 15 15 15zM375 789q195 0 264 -84q70 -82 70 -314q0 -121 -15.5 -193.5t-54.5 -118.5q-38 -46 -100 -65t-164 -19q-193 0 -264 83q-69 83 -69 313q0 121 15.5 194t53.5 119q39 47 100.5 66t163.5 19z
M375 628q-88 0 -117 -50t-29 -187q0 -136 29 -186q28 -49 117 -49t117 49q29 50 29 186q0 137 -29 187t-117 50z" />
    <glyph glyph-name="omacron" unicode="&#x14d;" horiz-adv-x="606" 
d="M151 756h305q15 0 15 -15v-71q0 -15 -15 -15h-305q-15 0 -15 15v71q0 15 15 15zM89 514q52 58 214 58q161 0 213 -58q53 -58 53 -231t-53 -231q-52 -57 -213 -57t-214 57q-52 56 -52 231t52 231zM376 395q-16 27 -73 27q-56 0 -74 -28q-17 -28 -17 -111t17 -111
q18 -27 74 -27q57 0 73 27q18 27 18 111q0 83 -18 112z" />
    <glyph glyph-name="Obreve" unicode="&#x14e;" horiz-adv-x="751" 
d="M475 995h71q17 0 14 -15q-10 -80 -51 -112t-134 -32t-134 31.5t-51 111.5q-3 16 14 16h71q13 0 17 -12q12 -27 30.5 -37.5t52.5 -10.5t52.5 10.5t30.5 37.5q4 12 17 12zM375 789q195 0 264 -84q70 -82 70 -314q0 -121 -15.5 -193.5t-54.5 -118.5q-38 -46 -100 -65
t-164 -19q-193 0 -264 83q-69 83 -69 313q0 121 15.5 194t53.5 119q39 47 100.5 66t163.5 19zM375 628q-88 0 -117 -50t-29 -187q0 -136 29 -186q28 -49 117 -49t117 49q29 50 29 186q0 137 -29 187t-117 50z" />
    <glyph glyph-name="obreve" unicode="&#x14f;" horiz-adv-x="606" 
d="M403 795h71q17 0 14 -15q-10 -80 -51 -112t-134 -32q-94 0 -134 31q-39 31 -50 112q-3 16 14 16h70q13 0 17 -12q12 -27 30.5 -37.5t52.5 -10.5q35 0 53 10.5t30 37.5q4 12 17 12zM89 514q52 58 214 58q161 0 213 -58q53 -58 53 -231t-53 -231q-52 -57 -213 -57t-214 57
q-52 56 -52 231t52 231zM376 395q-16 27 -73 27q-56 0 -74 -28q-17 -28 -17 -111t17 -111q18 -27 74 -27q57 0 73 27q18 27 18 111q0 83 -18 112z" />
    <glyph glyph-name="Ohungarumlaut" unicode="&#x150;" horiz-adv-x="751" 
d="M325 1009h105q10 0 10 -10v-7q0 -9 -5 -12l-152 -146q-7 -6 -14 0l-26 20q-8 6 -3 14l73 135q3 6 12 6zM516 1009h106q10 0 10 -10v-7q0 -7 -5 -12l-152 -146q-7 -6 -14 0l-27 20q-8 6 -3 14l73 135q3 6 12 6zM375 789q195 0 264 -84q70 -82 70 -314q0 -121 -15.5 -193.5
t-54.5 -118.5q-38 -46 -100 -65t-164 -19q-193 0 -264 83q-69 83 -69 313q0 121 15.5 194t53.5 119q39 47 100.5 66t163.5 19zM375 628q-88 0 -117 -50t-29 -187q0 -136 29 -186q28 -49 117 -49t117 49q29 50 29 186q0 137 -29 187t-117 50z" />
    <glyph glyph-name="ohungarumlaut" unicode="&#x151;" horiz-adv-x="606" 
d="M249 809h105q10 0 10 -10v-7q0 -9 -5 -12l-152 -146q-7 -6 -14 0l-26 20q-8 6 -3 14l73 135q3 6 12 6zM441 809h105q10 0 10 -10v-7q0 -7 -5 -12l-152 -146q-7 -6 -14 0l-26 20q-8 6 -3 14l73 135q3 6 12 6zM89 514q52 58 214 58q161 0 213 -58q53 -58 53 -231t-53 -231
q-52 -57 -213 -57t-214 57q-52 56 -52 231t52 231zM376 395q-16 27 -73 27q-56 0 -74 -28q-17 -28 -17 -111t17 -111q18 -27 74 -27q57 0 73 27q18 27 18 111q0 83 -18 112z" />
    <glyph glyph-name="OE.001" unicode="&#x152;" horiz-adv-x="1079" 
d="M376 789l349 -6h294q16 0 16 -15v-131q0 -15 -16 -15h-337v-156h308q16 0 16 -15v-124q0 -15 -16 -15h-308v-151h337q16 0 16 -15v-131q0 -15 -16 -15l-643 -5q-103 -1 -164.5 17.5t-100.5 65.5q-38 47 -53.5 119.5t-15.5 193.5q0 233 70 316q70 85 264 82zM497 156v472
h-121q-89 0 -118 -50q-28 -49 -28 -187q0 -137 28 -186t118 -49h121z" />
    <glyph glyph-name="oe" unicode="&#x153;" horiz-adv-x="947" 
d="M660 572q155 0 206 -57q50 -56 52 -229v-31q0 -16 -6.5 -21.5t-23.5 -5.5h-312q2 -53 21 -68q21 -15 82 -15h184q15 0 15 -15v-102q0 -14 -14 -17q-73 -16 -204 -16q-120 0 -176 46q-58 -46 -181 -46q-87 2 -134.5 13t-78.5 44.5t-41 85t-12 145.5q0 93 11.5 145.5
t41.5 85.5t78.5 45.5t134.5 12.5q123 0 181 -46q58 46 176 46zM303 422q-57 0 -73 -28q-17 -28 -17 -111t17 -111q16 -27 73 -27t74 27q18 27 18 111t-18 111q-16 28 -74 28zM660 422q-46 0 -65.5 -19t-20.5 -69h168q0 50 -18.5 69t-63.5 19z" />
    <glyph glyph-name="Racute" unicode="&#x154;" horiz-adv-x="709" 
d="M347 1009h173q10 0 10 -10v-7q0 -9 -5 -12l-192 -157q-5 -5 -14 0l-54 31q-8 5 -3 14l73 135q3 6 12 6zM374 789q162 0 226 -58q64 -57 64 -205q0 -111 -33.5 -164t-114.5 -71l170 -271q6 -8 2.5 -14t-14.5 -6h-156q-25 0 -40 22l-163 257h-64v-263q0 -10 -3 -13t-12 -3
h-155q-9 0 -12 3t-3 13v747q0 13 15 14q147 12 293 12zM354 628h-103v-211h103q71 0 97 20q25 21 25 83t-25.5 85t-96.5 23z" />
    <glyph glyph-name="racute" unicode="&#x155;" horiz-adv-x="415" 
d="M228 809h173q10 0 10 -10v-7q0 -7 -5 -12l-192 -157q-5 -5 -14 0l-54 31q-8 5 -3 14l73 135q3 6 12 6zM244 572q88 0 143 -12q17 -3 17 -21v-102q0 -15 -17 -15h-99q-35 0 -48 -10t-13 -40v-356q0 -16 -15 -16h-145q-15 0 -15 16v403q0 91 49 122t143 31z" />
    <glyph glyph-name="uni0156" unicode="&#x156;" horiz-adv-x="709" 
d="M374 789q162 0 226 -58q64 -57 64 -205q0 -111 -33.5 -164t-114.5 -71l170 -271q6 -8 2.5 -14t-14.5 -6h-156q-25 0 -40 22l-163 257h-64v-263q0 -10 -3 -13t-12 -3h-155q-9 0 -12 3t-3 13v747q0 13 15 14q147 12 293 12zM354 628h-103v-211h103q71 0 97 20q25 21 25 83
t-25.5 85t-96.5 23zM307 -40h149q10 0 10 -10v-7q0 -7 -5 -12l-168 -133q-5 -5 -14 0l-44 26q-8 5 -3 14l63 116q3 6 12 6z" />
    <glyph glyph-name="uni0157" unicode="&#x157;" horiz-adv-x="415" 
d="M244 572q88 0 143 -12q17 -3 17 -21v-102q0 -15 -17 -15h-99q-35 0 -48 -10t-13 -40v-356q0 -16 -15 -16h-145q-15 0 -15 16v403q0 91 49 122t143 31zM63 -40h149q10 0 10 -10v-7q0 -7 -5 -12l-168 -133q-5 -5 -14 0l-44 26q-8 5 -3 14l63 116q3 6 12 6z" />
    <glyph glyph-name="Rcaron" unicode="&#x158;" horiz-adv-x="709" 
d="M483 1006l38 -19q12 -6 3 -17l-99 -139q-7 -10 -22 -10h-106q-17 0 -21 10l-100 139q-9 11 4 17l38 19q10 8 18 0l115 -76l113 76q8 6 19 0zM374 789q162 0 226 -58q64 -57 64 -205q0 -111 -33.5 -164t-114.5 -71l170 -271q6 -8 2.5 -14t-14.5 -6h-156q-25 0 -40 22
l-163 257h-64v-263q0 -10 -3 -13t-12 -3h-155q-9 0 -12 3t-3 13v747q0 13 15 14q147 12 293 12zM354 628h-103v-211h103q71 0 97 20q25 21 25 83t-25.5 85t-96.5 23z" />
    <glyph glyph-name="rcaron" unicode="&#x159;" horiz-adv-x="415" 
d="M344 806l38 -19q13 -7 4 -17l-100 -139q-4 -10 -21 -10h-106q-15 0 -22 10l-100 139q-8 11 4 17l38 19q11 6 19 0l114 -76l113 76q9 7 19 0zM244 572q88 0 143 -12q17 -3 17 -21v-102q0 -15 -17 -15h-99q-35 0 -48 -10t-13 -40v-356q0 -16 -15 -16h-145q-15 0 -15 16v403
q0 91 49 122t143 31z" />
    <glyph glyph-name="Sacute" unicode="&#x15a;" horiz-adv-x="634" 
d="M308 1009h174q10 0 10 -10v-7q0 -7 -5 -12l-192 -157q-6 -5 -14 0l-55 31q-8 5 -3 14l73 135q3 6 12 6zM333 789q105 0 215 -23q20 -8 20 -21v-97q0 -20 -20 -20h-243q-74 0 -74 -53v-12q0 -43 51 -63l173 -64q81 -31 115 -75q35 -44 35 -139v-26q0 -104 -75 -152.5
t-225 -48.5q-115 0 -249 25q-19 4 -19 25v90q0 21 21 21h289q71 0 71 49v10q0 26 -15 40.5t-55 29.5l-173 63q-69 25 -100 74t-31 145v22q0 106 69 153t220 47z" />
    <glyph glyph-name="sacute" unicode="&#x15b;" horiz-adv-x="514" 
d="M278 809h174q10 0 10 -10v-7q0 -7 -5 -12l-192 -157q-5 -5 -14 0l-55 31q-8 5 -3 14l73 135q3 6 12 6zM283 572q84 0 161 -16q16 -4 16 -16v-92q0 -16 -17 -16h-179q-51 0 -51 -28v-9q0 -20 41 -34l125 -41q57 -18 82 -56t25 -99v-18q0 -152 -217 -152q-133 0 -220 10
q-17 0 -17 15v100q0 16 17 16h216q30 0 40.5 5t10.5 19v7q0 21 -54 38l-114 38q-105 35 -105 157v18q0 79 58.5 116.5t181.5 37.5z" />
    <glyph glyph-name="Scircumflex" unicode="&#x15c;" horiz-adv-x="634" 
d="M262 1009h106q14 0 22 -9l100 -140q9 -11 -4 -17l-38 -19q-11 -6 -19 0l-113 76l-114 -76q-9 -7 -19 0l-38 19q-13 8 -4 17l100 140q5 9 21 9zM333 789q105 0 215 -23q20 -8 20 -21v-97q0 -20 -20 -20h-243q-74 0 -74 -53v-12q0 -43 51 -63l173 -64q81 -31 115 -75
q35 -44 35 -139v-26q0 -104 -75 -152.5t-225 -48.5q-115 0 -249 25q-19 4 -19 25v90q0 21 21 21h289q71 0 71 49v10q0 26 -15 40.5t-55 29.5l-173 63q-69 25 -100 74t-31 145v22q0 106 69 153t220 47z" />
    <glyph glyph-name="scircumflex" unicode="&#x15d;" horiz-adv-x="514" 
d="M214 809h106q14 0 21 -9l100 -140q9 -9 -4 -17l-38 -19q-10 -7 -19 0l-113 76l-114 -76q-8 -6 -19 0l-38 19q-13 6 -4 17l100 140q8 9 22 9zM283 572q84 0 161 -16q16 -4 16 -16v-92q0 -16 -17 -16h-179q-51 0 -51 -28v-9q0 -20 41 -34l125 -41q57 -18 82 -56t25 -99v-18
q0 -152 -217 -152q-133 0 -220 10q-17 0 -17 15v100q0 16 17 16h216q30 0 40.5 5t10.5 19v7q0 21 -54 38l-114 38q-105 35 -105 157v18q0 79 58.5 116.5t181.5 37.5z" />
    <glyph glyph-name="Scedilla" unicode="&#x15e;" horiz-adv-x="634" 
d="M333 789q105 0 215 -23q20 -8 20 -21v-97q0 -20 -20 -20h-243q-74 0 -74 -53v-12q0 -43 51 -63l173 -64q81 -31 115 -75q35 -44 35 -139v-26q0 -165 -200 -195q20 -63 20 -105q0 -78 -112 -78q-69 0 -90 8q-12 4 -12 18v74q0 13 14 13h35q28 0 41 3q18 4 18 21
q0 21 -4 40h-10q-115 0 -249 25q-19 4 -19 25v90q0 21 21 21h289q71 0 71 49v10q0 26 -15 40.5t-55 29.5l-173 63q-69 25 -100 74t-31 145v22q0 106 69 153t220 47z" />
    <glyph glyph-name="scedilla" unicode="&#x15f;" horiz-adv-x="514" 
d="M254 361l125 -41q57 -18 82 -56t25 -99v-18q0 -118 -130 -145q20 -63 20 -106q0 -78 -112 -78q-68 0 -89 8q-12 4 -12 18v74q0 13 13 13h35q29 0 42 3q18 4 18 21q0 13 -4 40q-131 0 -218 10q-17 0 -17 15v100q0 16 17 16h216q30 0 40.5 5t10.5 19v7q0 21 -54 38l-114 38
q-105 35 -105 157v18q0 79 58.5 116.5t181.5 37.5q84 0 161 -16q16 -4 16 -16v-92q0 -16 -17 -16h-179q-51 0 -51 -28v-9q0 -20 41 -34z" />
    <glyph glyph-name="Scaron" unicode="&#x160;" horiz-adv-x="634" 
d="M448 1006l38 -19q12 -6 4 -17l-100 -139q-7 -10 -22 -10h-106q-17 0 -21 10l-100 139q-9 10 4 17l38 19q10 7 19 0l114 -76l113 76q8 6 19 0zM333 789q105 0 215 -23q20 -8 20 -21v-97q0 -20 -20 -20h-243q-74 0 -74 -53v-12q0 -43 51 -63l173 -64q81 -31 115 -75
q35 -44 35 -139v-26q0 -104 -75 -152.5t-225 -48.5q-115 0 -249 25q-19 4 -19 25v90q0 21 21 21h289q71 0 71 49v10q0 26 -15 40.5t-55 29.5l-173 63q-69 25 -100 74t-31 145v22q0 106 69 153t220 47z" />
    <glyph glyph-name="scaron" unicode="&#x161;" horiz-adv-x="514" 
d="M399 806l38 -19q13 -7 4 -17l-100 -139q-7 -10 -21 -10h-106q-15 0 -22 10l-100 139q-8 11 4 17l38 19q11 6 19 0l114 -76l113 76q9 7 19 0zM283 572q84 0 161 -16q16 -4 16 -16v-92q0 -16 -17 -16h-179q-51 0 -51 -28v-9q0 -20 41 -34l125 -41q57 -18 82 -56t25 -99v-18
q0 -152 -217 -152q-133 0 -220 10q-17 0 -17 15v100q0 16 17 16h216q30 0 40.5 5t10.5 19v7q0 21 -54 38l-114 38q-105 35 -105 157v18q0 79 58.5 116.5t181.5 37.5z" />
    <glyph glyph-name="uni0162" unicode="&#x162;" horiz-adv-x="649" 
d="M31 783h586q16 0 16 -15v-131q0 -15 -16 -15h-201v-606q24 -76 24 -120q0 -78 -112 -78q-69 0 -90 8q-12 4 -12 18v74q0 13 14 13h35q28 0 41 3q18 4 18 21q0 22 -4 45h-84q-15 0 -15 16v606h-200q-15 0 -15 15v131q0 15 15 15z" />
    <glyph glyph-name="uni0163" unicode="&#x163;" horiz-adv-x="397" 
d="M324 145h38q17 0 17 -15v-104q0 -17 -17 -20q-32 -6 -70 -10q18 -58 18 -100q0 -78 -112 -78q-69 0 -90 8q-12 4 -12 18v74q0 13 14 13h35q28 0 41 3q18 4 18 21q0 23 -4 42q-56 6 -81.5 36t-25.5 99v303h-60q-17 0 -17 16v97q0 15 17 15h60v106q0 11 14 16l145 38
q7 2 11 -2.5t4 -13.5v-144h86q17 0 17 -15v-97q0 -16 -17 -16h-86v-240q0 -30 12 -40t45 -10z" />
    <glyph glyph-name="Tcaron" unicode="&#x164;" horiz-adv-x="649" 
d="M456 1006l38 -19q12 -6 4 -17l-100 -139q-7 -10 -22 -10h-106q-14 0 -21 10l-100 139q-9 10 4 17l38 19q10 7 19 0l114 -76l113 76q8 6 19 0zM31 783h586q16 0 16 -15v-131q0 -15 -16 -15h-201v-606q0 -16 -15 -16h-155q-15 0 -15 16v606h-200q-15 0 -15 15v131
q0 15 15 15z" />
    <glyph glyph-name="tcaron" unicode="&#x165;" horiz-adv-x="420" 
d="M381 788h157q10 0 10 -10v-7q0 -7 -5 -12l-143 -144q-4 -7 -15 -2l-40 18q-7 4 -5 16l25 130q3 11 16 11zM107 685l145 38q7 2 11 -2.5t4 -13.5v-144h86q17 0 17 -15v-97q0 -16 -17 -16h-86v-240q0 -30 12 -40t45 -10h38q17 0 17 -15v-104q0 -17 -17 -20q-61 -11 -99 -11
q-44 0 -68 3q-23 3 -51 15q-51 24 -51 119v303h-60q-17 0 -17 16v97q0 15 17 15h60v106q0 11 14 16z" />
    <glyph glyph-name="Tbar" unicode="&#x166;" horiz-adv-x="666" 
d="M40 783h586q16 0 16 -15v-131q0 -15 -16 -15h-201v-197h139q15 0 15 -15v-66q0 -15 -15 -15h-139v-313q0 -16 -15 -16h-155q-15 0 -15 16v313h-137q-15 0 -15 15v66q0 15 15 15h137v197h-200q-16 0 -16 15v131q0 15 16 15z" />
    <glyph glyph-name="tbar" unicode="&#x167;" horiz-adv-x="397" 
d="M324 145h38q17 0 17 -15v-104q0 -17 -17 -20q-61 -11 -99 -11q-44 0 -68 3q-23 3 -51 15q-51 24 -51 119v128h-35q-15 0 -15 15v56q0 15 15 15h35v89h-60q-17 0 -17 16v97q0 15 17 15h60v106q0 11 14 16l145 38q7 2 11 -2.5t4 -13.5v-144h86q17 0 17 -15v-97
q0 -16 -17 -16h-86v-89h62q15 0 15 -15v-56q0 -15 -15 -15h-62v-65q0 -30 12 -40t45 -10z" />
    <glyph glyph-name="Utilde" unicode="&#x168;" horiz-adv-x="769" 
d="M304 994q28 0 82 -20q51 -19 65 -19q16 0 25.5 7t17.5 26q8 14 18 9l53 -14q14 -5 11 -20q-18 -72 -41.5 -98.5t-69.5 -26.5q-31 0 -82 19q-54 20 -65 20q-16 0 -25.5 -7t-17.5 -26q-8 -14 -19 -10l-53 15q-13 4 -10 20q17 72 40.5 98.5t70.5 26.5zM540 783h155
q15 0 15 -15v-377q0 -128 -14 -199.5t-52 -117.5q-37 -45 -96 -62t-163 -17t-163.5 17t-97.5 62q-37 46 -51 118t-14 199v377q0 15 15 15h155q15 0 15 -15v-377q0 -142 28 -188q29 -47 113 -47q83 0 112 47q28 46 28 188v377q0 15 15 15z" />
    <glyph glyph-name="utilde" unicode="&#x169;" horiz-adv-x="618" 
d="M215 794q28 0 82 -20q51 -19 65 -19q28 0 44 33q4 14 18 9l53 -14q13 -4 10 -20q-17 -72 -40.5 -98.5t-70.5 -26.5q-31 0 -82 19q-54 20 -64 20q-29 0 -44 -33q-6 -15 -18 -10l-53 15q-15 5 -10 20q17 72 40.5 98.5t69.5 26.5zM405 567h146q14 0 14 -16v-521
q0 -9 -2.5 -12t-11.5 -5q-95 -18 -255 -18q-80 0 -124.5 10t-72.5 37t-38.5 71.5t-10.5 125.5v312q0 16 16 16h144q15 0 15 -16v-259q-3 -94 15 -126q11 -13 29 -17.5t54 -3.5h67v406q0 16 15 16z" />
    <glyph glyph-name="Umacron" unicode="&#x16a;" horiz-adv-x="769" 
d="M232 956h305q15 0 15 -15v-71q0 -15 -15 -15h-305q-15 0 -15 15v71q0 15 15 15zM540 783h155q15 0 15 -15v-377q0 -128 -14 -199.5t-52 -117.5q-37 -45 -96 -62t-163 -17t-163.5 17t-97.5 62q-37 46 -51 118t-14 199v377q0 15 15 15h155q15 0 15 -15v-377q0 -142 28 -188
q29 -47 113 -47q83 0 112 47q28 46 28 188v377q0 15 15 15z" />
    <glyph glyph-name="umacron" unicode="&#x16b;" horiz-adv-x="618" 
d="M143 756h306q15 0 15 -15v-71q0 -15 -15 -15h-306q-15 0 -15 15v71q0 15 15 15zM405 567h146q14 0 14 -16v-521q0 -9 -2.5 -12t-11.5 -5q-95 -18 -255 -18q-80 0 -124.5 10t-72.5 37t-38.5 71.5t-10.5 125.5v312q0 16 16 16h144q15 0 15 -16v-259q-3 -94 15 -126
q11 -13 29 -17.5t54 -3.5h67v406q0 16 15 16z" />
    <glyph glyph-name="Ubreve" unicode="&#x16c;" horiz-adv-x="769" 
d="M484 995h72q17 0 14 -15q-10 -80 -51 -112t-134 -32t-134 31.5t-51 111.5q-3 16 14 16h70q12 0 17 -12q12 -27 30.5 -37.5t53.5 -10.5q34 0 52.5 10.5t29.5 37.5q5 12 17 12zM540 783h155q15 0 15 -15v-377q0 -128 -14 -199.5t-52 -117.5q-37 -45 -96 -62t-163 -17
t-163.5 17t-97.5 62q-37 46 -51 118t-14 199v377q0 15 15 15h155q15 0 15 -15v-377q0 -142 28 -188q29 -47 113 -47q83 0 112 47q28 46 28 188v377q0 15 15 15z" />
    <glyph glyph-name="ubreve" unicode="&#x16d;" horiz-adv-x="618" 
d="M396 795h71q17 0 14 -15q-10 -80 -51 -112t-134 -32t-134 31.5t-51 111.5q-3 16 14 16h71q12 0 17 -12q12 -27 30.5 -37.5t52.5 -10.5t52.5 10.5t30.5 37.5q5 12 17 12zM405 567h146q14 0 14 -16v-521q0 -9 -2.5 -12t-11.5 -5q-95 -18 -255 -18q-80 0 -124.5 10t-72.5 37
t-38.5 71.5t-10.5 125.5v312q0 16 16 16h144q15 0 15 -16v-259q-3 -94 15 -126q11 -13 29 -17.5t54 -3.5h67v406q0 16 15 16z" />
    <glyph glyph-name="Uring" unicode="&#x16e;" horiz-adv-x="769" 
d="M507 934q0 -118 -122 -118t-122 118q0 117 122 117t122 -117zM447 934q0 62 -62 62t-62 -62t62 -62t62 62zM540 783h155q15 0 15 -15v-377q0 -128 -14 -199.5t-52 -117.5q-37 -45 -96 -62t-163 -17t-163.5 17t-97.5 62q-37 46 -51 118t-14 199v377q0 15 15 15h155
q15 0 15 -15v-377q0 -142 28 -188q29 -47 113 -47q83 0 112 47q28 46 28 188v377q0 15 15 15z" />
    <glyph glyph-name="uring" unicode="&#x16f;" horiz-adv-x="618" 
d="M418 734q0 -118 -122 -118t-122 118q0 117 122 117t122 -117zM358 734q0 62 -62 62t-62 -62t62 -62t62 62zM405 567h146q14 0 14 -16v-521q0 -9 -2.5 -12t-11.5 -5q-95 -18 -255 -18q-80 0 -124.5 10t-72.5 37t-38.5 71.5t-10.5 125.5v312q0 16 16 16h144q15 0 15 -16
v-259q-3 -94 15 -126q11 -13 29 -17.5t54 -3.5h67v406q0 16 15 16z" />
    <glyph glyph-name="Uhungarumlaut" unicode="&#x170;" horiz-adv-x="769" 
d="M307 1009h105q10 0 10 -10v-7q0 -9 -5 -12l-152 -146q-7 -6 -14 0l-26 20q-8 6 -3 14l73 135q3 6 12 6zM499 1009h105q10 0 10 -10v-7q0 -7 -5 -12l-152 -146q-7 -6 -14 0l-26 20q-8 6 -3 14l73 135q3 6 12 6zM540 783h155q15 0 15 -15v-377q0 -128 -14 -199.5
t-52 -117.5q-37 -45 -96 -62t-163 -17t-163.5 17t-97.5 62q-37 46 -51 118t-14 199v377q0 15 15 15h155q15 0 15 -15v-377q0 -142 28 -188q29 -47 113 -47q83 0 112 47q28 46 28 188v377q0 15 15 15z" />
    <glyph glyph-name="uhungarumlaut" unicode="&#x171;" horiz-adv-x="618" 
d="M235 809h105q10 0 10 -10v-7q0 -9 -5 -12l-152 -146q-7 -6 -14 0l-26 20q-8 6 -3 14l73 135q3 6 12 6zM427 809h105q10 0 10 -10v-7q0 -9 -5 -12l-152 -146q-7 -6 -14 0l-26 20q-8 6 -3 14l73 135q3 6 12 6zM405 567h146q14 0 14 -16v-521q0 -9 -2.5 -12t-11.5 -5
q-95 -18 -255 -18q-80 0 -124.5 10t-72.5 37t-38.5 71.5t-10.5 125.5v312q0 16 16 16h144q15 0 15 -16v-259q-3 -94 15 -126q11 -13 29 -17.5t54 -3.5h67v406q0 16 15 16z" />
    <glyph glyph-name="Uogonek" unicode="&#x172;" horiz-adv-x="769" 
d="M540 783h155q15 0 15 -15v-377q0 -221 -56 -304t-214 -90q-4 -21 -4 -42q0 -17 17 -21q15 -3 42 -3h36q13 0 13 -13v-74q0 -14 -12 -18q-21 -8 -89 -8q-112 0 -112 78q0 43 17 100q-172 4 -231 86q-58 82 -58 309v377q0 15 15 15h155q15 0 15 -15v-377q0 -142 28 -188
q29 -47 113 -47q83 0 112 47q28 46 28 188v377q0 15 15 15z" />
    <glyph glyph-name="uogonek" unicode="&#x173;" horiz-adv-x="618" 
d="M405 567h146q14 0 14 -16v-521q0 -9 -2.5 -12t-11.5 -5q-28 -5 -82 -11q-5 -32 -5 -47q0 -17 17 -21q15 -3 42 -3h35q14 0 14 -13v-74q0 -14 -12 -18q-21 -8 -89 -8q-112 0 -112 78q0 43 17 100q-18 -1 -80 -1q-80 0 -124.5 10t-72.5 37t-38.5 71.5t-10.5 125.5v312
q0 16 16 16h144q15 0 15 -16v-259q-3 -94 15 -126q11 -13 29 -17.5t54 -3.5h67v406q0 16 15 16z" />
    <glyph glyph-name="Wcircumflex" unicode="&#x174;" horiz-adv-x="1105" 
d="M499 1009h106q17 0 21 -9l100 -140q10 -9 -4 -17l-38 -19q-10 -8 -18 0l-114 76l-114 -76q-8 -6 -19 0l-38 19q-13 7 -3 17l99 140q7 9 22 9zM913 783h159q18 0 15 -17l-119 -650q-15 -81 -43 -101t-117 -20q-59 0 -84 3.5t-44 16.5t-27 32t-21 69l-80 340l-80 -340
q-13 -58 -28.5 -81t-46 -31.5t-101.5 -8.5q-89 0 -118 20q-27 21 -41 101l-119 650q-3 17 14 17h159q11 0 15 -17l98 -559q4 -18 15 -18q8 0 11 3t6 15l126 534q5 17 22 17h137q16 0 21 -17l126 -534q3 -12 10 -16.5t14 0t9 16.5l97 559q4 17 15 17z" />
    <glyph glyph-name="wcircumflex" unicode="&#x175;" horiz-adv-x="906" 
d="M399 809h107q14 0 21 -9l100 -140q9 -11 -4 -17l-38 -19q-11 -6 -19 0l-113 76l-114 -76q-8 -6 -19 0l-38 19q-13 6 -4 17l100 140q8 9 21 9zM722 567h154q14 0 12 -14l-85 -464q-11 -60 -41 -77q-29 -17 -107 -17q-95 0 -122 15q-26 15 -39 79l-41 192l-41 -192
q-13 -64 -40 -79q-26 -15 -122 -15q-77 0 -108 17q-30 17 -40 77l-84 464q-3 14 12 14h154q8 0 11 -14l62 -405q1 -7 6 -10t10 0t6 10l91 389q3 12 16 12h134q13 0 16 -12l91 -389q2 -11 10 -11q10 0 12 11l62 405q2 14 11 14z" />
    <glyph glyph-name="Ycircumflex" unicode="&#x176;" horiz-adv-x="741" 
d="M318 1009h106q14 0 22 -9l100 -140q9 -11 -4 -17l-38 -19q-11 -6 -19 0l-113 76l-114 -76q-9 -7 -19 0l-38 19q-13 8 -4 17l100 140q7 9 21 9zM557 783h173q23 0 11 -22l-278 -503v-241q0 -17 -15 -17h-155q-15 0 -15 17v243l-277 501q-12 22 11 22h174q15 0 27 -16
l158 -328l159 328q7 16 27 16z" />
    <glyph glyph-name="ycircumflex" unicode="&#x177;" horiz-adv-x="634" 
d="M258 809h106q14 0 22 -9l100 -140q9 -11 -4 -17l-38 -19q-11 -6 -19 0l-113 76l-114 -76q-9 -7 -19 0l-38 19q-13 6 -4 17l100 140q7 9 21 9zM421 567h144q15 0 15 -15v-559q0 -82 -24 -125q-39 -77 -228 -77q-128 0 -207 16q-13 3 -13 16v93q0 15 14 15h188
q57 0 76.5 14.5t19.5 55.5v7q-53 -13 -118 -13q-132 0 -186 58q-53 59 -53 192v307q0 15 15 15h145q15 0 15 -15v-268q0 -87 21 -112q23 -26 89 -26q44 0 72 6v400q0 15 15 15z" />
    <glyph glyph-name="Ydieresis" unicode="&#x178;" horiz-adv-x="741" 
d="M253 994q41 0 62.5 -21t21.5 -58q0 -81 -84 -81q-86 0 -86 81q0 37 22 58t64 21zM491 994q41 0 63 -21t22 -58q0 -39 -22 -60t-63 -21q-86 0 -86 81q0 37 22 58t64 21zM557 783h173q23 0 11 -22l-278 -503v-241q0 -17 -15 -17h-155q-15 0 -15 17v243l-277 501
q-12 22 11 22h174q15 0 27 -16l158 -328l159 328q7 16 27 16z" />
    <glyph glyph-name="Zacute" unicode="&#x179;" horiz-adv-x="703" 
d="M336 1009h174q10 0 10 -10v-7q0 -7 -5 -12l-192 -157q-5 -5 -14 0l-55 31q-8 5 -3 14l73 135q3 6 12 6zM56 783h592q15 0 15 -16v-120q0 -13 -7 -20l-381 -466h381q16 0 16 -15v-130q0 -16 -16 -16h-611q-15 0 -15 16l-1 119q0 12 7 20l380 467h-359q-16 0 -16 15l-1 130
q0 16 16 16z" />
    <glyph glyph-name="zacute" unicode="&#x17a;" horiz-adv-x="552" 
d="M263 809h174q10 0 10 -10v-7q0 -7 -5 -12l-192 -157q-5 -5 -14 0l-55 31q-8 5 -3 14l73 135q3 6 12 6zM57 567h435q18 0 18 -16v-90q0 -8 -8 -19l-221 -292h226q17 0 17 -16v-118q0 -16 -17 -16h-461q-17 0 -17 16v85q0 12 7 19l235 301h-214q-18 0 -18 15v115
q0 16 18 16z" />
    <glyph glyph-name="Zdotaccent" unicode="&#x17b;" horiz-adv-x="703" 
d="M351 998q45 0 69 -21.5t24 -61.5q0 -41 -24 -63t-69 -22q-93 0 -93 85q0 83 93 83zM56 783h592q15 0 15 -16v-120q0 -13 -7 -20l-381 -466h381q16 0 16 -15v-130q0 -16 -16 -16h-611q-15 0 -15 16l-1 119q0 12 7 20l380 467h-359q-16 0 -16 15l-1 130q0 16 16 16z" />
    <glyph glyph-name="zdotaccent" unicode="&#x17c;" horiz-adv-x="552" 
d="M278 798q45 0 69 -21.5t24 -61.5q0 -41 -24 -63t-69 -22q-93 0 -93 85q0 83 93 83zM57 567h435q18 0 18 -16v-90q0 -8 -8 -19l-221 -292h226q17 0 17 -16v-118q0 -16 -17 -16h-461q-17 0 -17 16v85q0 12 7 19l235 301h-214q-18 0 -18 15v115q0 16 18 16z" />
    <glyph glyph-name="Zcaron.001" unicode="&#x17d;" horiz-adv-x="703" 
d="M483 1006l38 -19q13 -7 4 -17l-100 -139q-4 -10 -21 -10h-106q-15 0 -22 10l-99 139q-9 11 3 17l38 19q11 6 19 0l114 -76l114 76q7 8 18 0zM56 783h592q15 0 15 -16v-120q0 -13 -7 -20l-381 -466h381q16 0 16 -15v-130q0 -16 -16 -16h-611q-15 0 -15 16l-1 119
q0 12 7 20l380 467h-359q-16 0 -16 15l-1 130q0 16 16 16z" />
    <glyph glyph-name="zcaron.001" unicode="&#x17e;" horiz-adv-x="552" 
d="M410 806l38 -19q13 -7 4 -17l-100 -139q-4 -10 -21 -10h-106q-15 0 -22 10l-99 139q-9 11 3 17l38 19q11 6 19 0l114 -76l114 76q8 8 18 0zM57 567h435q18 0 18 -16v-90q0 -8 -8 -19l-221 -292h226q17 0 17 -16v-118q0 -16 -17 -16h-461q-17 0 -17 16v85q0 12 7 19
l235 301h-214q-18 0 -18 15v115q0 16 18 16z" />
    <glyph glyph-name="florin" unicode="&#x192;" horiz-adv-x="627" 
d="M480 788q63 0 116 -13q24 -1 21 -24l-14 -99q-3 -14 -19 -14h-86q-47 0 -52 -38l-14 -97h108q15 0 15 -15v-104q0 -15 -15 -15h-126l-32 -225q-14 -97 -71 -126q-47 -23 -132 -23q-63 0 -116 13q-24 1 -22 24l15 103q1 7 3 8.5t11 1.5h90q47 0 53 38l26 186h-57
q-18 0 -18 21v98q0 15 15 15h79l19 137q13 95 70 123q49 25 133 25z" />
    <glyph glyph-name="uni01CD" unicode="&#x1cd;" horiz-adv-x="727" 
d="M495 1006l38 -19q12 -6 4 -17l-100 -139q-7 -10 -21 -10h-107q-14 0 -21 10l-100 139q-8 11 4 17l38 19q11 6 19 0l114 -76l113 76q8 6 19 0zM363 789q98 0 129 -20t53 -101l178 -652q3 -16 -13 -16h-153q-10 0 -14 16l-54 202h-251l-56 -202q-4 -16 -13 -16h-153
q-16 0 -13 16l179 652q22 81 53 101t128 20zM362 635q-8 0 -11 -3t-5 -13l-68 -250h170l-69 250q-2 10 -5 13t-12 3z" />
    <glyph glyph-name="uni01CE" unicode="&#x1ce;" horiz-adv-x="578" 
d="M420 806l38 -19q12 -6 4 -17l-100 -139q-7 -10 -21 -10h-106q-15 0 -22 10l-100 139q-8 11 4 17l38 19q11 6 19 0l114 -76l113 76q9 7 19 0zM277 572q80 0 131.5 -12.5t76.5 -38.5t34 -55t9 -74v-344q0 -26 -24 -32q-103 -21 -230 -21q-55 0 -88 3q-30 1 -67 11
q-48 15 -68.5 51.5t-25.5 113.5q2 101 52 134q50 34 166 34l110 1v20q0 59 -76 59h-196q-13 0 -13 15v102q0 13 13 16q85 17 196 17zM353 143v95h-93q-35 0 -49 -12t-14 -40q0 -30 15 -40.5t56 -10.5q50 0 85 8z" />
    <glyph glyph-name="uni01CF" unicode="&#x1cf;" horiz-adv-x="317" 
d="M290 1006l38 -19q13 -6 4 -17l-100 -139q-4 -10 -21 -10h-106q-15 0 -22 10l-99 139q-9 11 3 17l38 19q11 6 19 0l114 -76l114 76q8 8 18 0zM81 783h155q15 0 15 -16v-750q0 -17 -15 -17h-155q-15 0 -15 17v750q0 16 15 16z" />
    <glyph glyph-name="uni01D0" unicode="&#x1d0;" horiz-adv-x="283" 
d="M274 806l38 -19q13 -7 4 -17l-100 -139q-7 -10 -21 -10h-106q-15 0 -22 10l-100 139q-8 11 4 17l38 19q11 6 19 0l114 -76l113 76q9 7 19 0zM69 567h145q15 0 15 -16v-535q0 -16 -15 -16h-145q-15 0 -15 16v535q0 16 15 16z" />
    <glyph glyph-name="uni01D1" unicode="&#x1d1;" horiz-adv-x="751" 
d="M507 1006l38 -19q13 -7 4 -17l-100 -139q-4 -10 -21 -10h-106q-15 0 -22 10l-99 139q-9 11 3 17l38 19q11 6 19 0l114 -76l114 76q7 8 18 0zM375 789q195 0 264 -84q70 -82 70 -314q0 -121 -15.5 -193.5t-54.5 -118.5q-38 -46 -100 -65t-164 -19q-193 0 -264 83
q-69 83 -69 313q0 121 15.5 194t53.5 119q39 47 100.5 66t163.5 19zM375 628q-88 0 -117 -50t-29 -187q0 -136 29 -186q28 -49 117 -49t117 49q29 50 29 186q0 137 -29 187t-117 50z" />
    <glyph glyph-name="uni01D2" unicode="&#x1d2;" horiz-adv-x="606" 
d="M436 806l38 -19q12 -6 3 -17l-99 -139q-7 -10 -22 -10h-106q-15 0 -22 10l-99 139q-9 11 4 17l38 19q11 8 18 0l114 -76l114 76q8 6 19 0zM89 514q52 58 214 58q161 0 213 -58q53 -58 53 -231t-53 -231q-52 -57 -213 -57t-214 57q-52 56 -52 231t52 231zM376 395
q-16 27 -73 27q-56 0 -74 -28q-17 -28 -17 -111t17 -111q18 -27 74 -27q57 0 73 27q18 27 18 111q0 83 -18 112z" />
    <glyph glyph-name="uni01D3" unicode="&#x1d3;" horiz-adv-x="769" 
d="M517 1006l38 -19q12 -6 4 -17l-100 -139q-7 -10 -22 -10h-106q-14 0 -21 10l-100 139q-9 10 4 17l38 19q10 7 19 0l114 -76l113 76q8 6 19 0zM540 783h155q15 0 15 -15v-377q0 -128 -14 -199.5t-52 -117.5q-37 -45 -96 -62t-163 -17t-163.5 17t-97.5 62q-37 46 -51 118
t-14 199v377q0 15 15 15h155q15 0 15 -15v-377q0 -142 28 -188q29 -47 113 -47q83 0 112 47q28 46 28 188v377q0 15 15 15z" />
    <glyph glyph-name="uni01D4" unicode="&#x1d4;" horiz-adv-x="618" 
d="M428 806l38 -19q13 -7 4 -17l-100 -139q-4 -10 -21 -10h-106q-15 0 -22 10l-99 139q-9 11 3 17l38 19q11 6 19 0l114 -76l114 76q8 8 18 0zM405 567h146q14 0 14 -16v-521q0 -9 -2.5 -12t-11.5 -5q-95 -18 -255 -18q-80 0 -124.5 10t-72.5 37t-38.5 71.5t-10.5 125.5v312
q0 16 16 16h144q15 0 15 -16v-259q-3 -94 15 -126q11 -13 29 -17.5t54 -3.5h67v406q0 16 15 16z" />
    <glyph glyph-name="uni01D5" unicode="&#x1d5;" horiz-adv-x="769" 
d="M232 1161h305q15 0 15 -15v-71q0 -15 -15 -15h-305q-15 0 -15 15v71q0 15 15 15zM266 994q41 0 62.5 -21t21.5 -58q0 -81 -84 -81q-86 0 -86 81q0 37 22 58t64 21zM504 994q41 0 63 -21t22 -58q0 -39 -22 -60t-63 -21q-86 0 -86 81q0 37 22 58t64 21zM540 783h155
q15 0 15 -15v-377q0 -128 -14 -199.5t-52 -117.5q-37 -45 -96 -62t-163 -17t-163.5 17t-97.5 62q-37 46 -51 118t-14 199v377q0 15 15 15h155q15 0 15 -15v-377q0 -142 28 -188q29 -47 113 -47q83 0 112 47q28 46 28 188v377q0 15 15 15z" />
    <glyph glyph-name="uni01D6" unicode="&#x1d6;" horiz-adv-x="618" 
d="M143 945h306q15 0 15 -15v-71q0 -15 -15 -15h-306q-15 0 -15 15v71q0 15 15 15zM177 794q41 0 63 -21t22 -58q0 -81 -85 -81q-86 0 -86 81q0 37 22 58t64 21zM416 794q41 0 62.5 -21t21.5 -58q0 -81 -84 -81q-86 0 -86 81q0 37 22 58t64 21zM405 567h146q14 0 14 -16
v-521q0 -9 -2.5 -12t-11.5 -5q-95 -18 -255 -18q-80 0 -124.5 10t-72.5 37t-38.5 71.5t-10.5 125.5v312q0 16 16 16h144q15 0 15 -16v-259q-3 -94 15 -126q11 -13 29 -17.5t54 -3.5h67v406q0 16 15 16z" />
    <glyph glyph-name="uni01D7" unicode="&#x1d7;" horiz-adv-x="769" 
d="M420 1194h174q10 0 10 -10v-7q0 -7 -5 -12l-192 -157q-5 -5 -14 0l-55 31q-8 5 -3 14l73 135q3 6 12 6zM266 994q41 0 62.5 -21t21.5 -58q0 -81 -84 -81q-86 0 -86 81q0 37 22 58t64 21zM504 994q41 0 63 -21t22 -58q0 -39 -22 -60t-63 -21q-86 0 -86 81q0 37 22 58
t64 21zM540 783h155q15 0 15 -15v-377q0 -128 -14 -199.5t-52 -117.5q-37 -45 -96 -62t-163 -17t-163.5 17t-97.5 62q-37 46 -51 118t-14 199v377q0 15 15 15h155q15 0 15 -15v-377q0 -142 28 -188q29 -47 113 -47q83 0 112 47q28 46 28 188v377q0 15 15 15z" />
    <glyph glyph-name="uni01D8" unicode="&#x1d8;" horiz-adv-x="618" 
d="M328 1000h173q10 0 10 -10v-7q0 -7 -5 -12l-192 -156q-5 -5 -14 0l-54 31q-8 5 -3 14l73 134q3 6 12 6zM177 794q41 0 63 -21t22 -58q0 -81 -85 -81q-86 0 -86 81q0 37 22 58t64 21zM416 794q41 0 62.5 -21t21.5 -58q0 -81 -84 -81q-86 0 -86 81q0 37 22 58t64 21z
M405 567h146q14 0 14 -16v-521q0 -9 -2.5 -12t-11.5 -5q-95 -18 -255 -18q-80 0 -124.5 10t-72.5 37t-38.5 71.5t-10.5 125.5v312q0 16 16 16h144q15 0 15 -16v-259q-3 -94 15 -126q11 -13 29 -17.5t54 -3.5h67v406q0 16 15 16z" />
    <glyph glyph-name="uni01D9" unicode="&#x1d9;" horiz-adv-x="769" 
d="M517 1200l38 -19q12 -6 4 -17l-100 -139q-7 -10 -22 -10h-106q-14 0 -21 10l-100 139q-9 10 4 17l38 19q10 7 19 0l114 -76l113 76q8 6 19 0zM266 994q41 0 62.5 -21t21.5 -58q0 -81 -84 -81q-86 0 -86 81q0 37 22 58t64 21zM504 994q41 0 63 -21t22 -58q0 -39 -22 -60
t-63 -21q-86 0 -86 81q0 37 22 58t64 21zM540 783h155q15 0 15 -15v-377q0 -128 -14 -199.5t-52 -117.5q-37 -45 -96 -62t-163 -17t-163.5 17t-97.5 62q-37 46 -51 118t-14 199v377q0 15 15 15h155q15 0 15 -15v-377q0 -142 28 -188q29 -47 113 -47q83 0 112 47
q28 46 28 188v377q0 15 15 15z" />
    <glyph glyph-name="uni01DA" unicode="&#x1da;" horiz-adv-x="618" 
d="M428 1002l38 -19q13 -7 4 -17l-100 -139q-4 -9 -21 -9h-106q-16 0 -22 9l-99 139q-9 11 3 17l38 19q11 6 19 0l114 -76l114 76q8 8 18 0zM177 794q41 0 63 -21t22 -58q0 -81 -85 -81q-86 0 -86 81q0 37 22 58t64 21zM416 794q41 0 62.5 -21t21.5 -58q0 -81 -84 -81
q-86 0 -86 81q0 37 22 58t64 21zM405 567h146q14 0 14 -16v-521q0 -9 -2.5 -12t-11.5 -5q-95 -18 -255 -18q-80 0 -124.5 10t-72.5 37t-38.5 71.5t-10.5 125.5v312q0 16 16 16h144q15 0 15 -16v-259q-3 -94 15 -126q11 -13 29 -17.5t54 -3.5h67v406q0 16 15 16z" />
    <glyph glyph-name="uni01DB" unicode="&#x1db;" horiz-adv-x="769" 
d="M191 1194h174q9 0 12 -6l73 -135q5 -9 -3 -14l-55 -31q-9 -5 -14 0l-192 157q-5 5 -5 12v7q0 10 10 10zM266 994q41 0 62.5 -21t21.5 -58q0 -81 -84 -81q-86 0 -86 81q0 37 22 58t64 21zM504 994q41 0 63 -21t22 -58q0 -39 -22 -60t-63 -21q-86 0 -86 81q0 37 22 58
t64 21zM540 783h155q15 0 15 -15v-377q0 -128 -14 -199.5t-52 -117.5q-37 -45 -96 -62t-163 -17t-163.5 17t-97.5 62q-37 46 -51 118t-14 199v377q0 15 15 15h155q15 0 15 -15v-377q0 -142 28 -188q29 -47 113 -47q83 0 112 47q28 46 28 188v377q0 15 15 15z" />
    <glyph glyph-name="uni01DC" unicode="&#x1dc;" horiz-adv-x="618" 
d="M87 1000h173q9 0 12 -6l73 -134q5 -9 -3 -14l-54 -31q-9 -5 -14 0l-192 156q-5 5 -5 12v7q0 10 10 10zM177 794q41 0 63 -21t22 -58q0 -81 -85 -81q-86 0 -86 81q0 37 22 58t64 21zM416 794q41 0 62.5 -21t21.5 -58q0 -81 -84 -81q-86 0 -86 81q0 37 22 58t64 21z
M405 567h146q14 0 14 -16v-521q0 -9 -2.5 -12t-11.5 -5q-95 -18 -255 -18q-80 0 -124.5 10t-72.5 37t-38.5 71.5t-10.5 125.5v312q0 16 16 16h144q15 0 15 -16v-259q-3 -94 15 -126q11 -13 29 -17.5t54 -3.5h67v406q0 16 15 16z" />
    <glyph glyph-name="Aringacute" unicode="&#x1fa;" horiz-adv-x="727" 
d="M379 1159h174q10 0 10 -10v-7q0 -7 -5 -12l-138 -88q65 -24 65 -108q0 -118 -122 -118t-122 118q0 87 67 109l59 110q3 6 12 6zM425 934q0 62 -62 62t-62 -62t62 -62t62 62zM363 789q98 0 129 -20t53 -101l178 -652q3 -16 -13 -16h-153q-10 0 -14 16l-54 202h-251
l-56 -202q-4 -16 -13 -16h-153q-16 0 -13 16l179 652q22 81 53 101t128 20zM362 635q-8 0 -10.5 -3t-5.5 -13l-67 -250h169l-68 250q-3 10 -6 13t-12 3z" />
    <glyph glyph-name="aringacute" unicode="&#x1fb;" horiz-adv-x="578" 
d="M305 959h173q10 0 10 -10v-7q0 -7 -5 -12l-138 -88q65 -23 65 -108q0 -118 -122 -118t-122 118q0 87 67 109l60 110q3 6 12 6zM350 734q0 62 -62 62t-62 -62t62 -62t62 62zM277 572q80 0 131.5 -12.5t76.5 -38.5t34 -55t9 -74v-344q0 -26 -24 -32q-103 -21 -230 -21
q-55 0 -88 3q-30 1 -67 11q-48 15 -68.5 51.5t-25.5 113.5q2 101 52 134q50 34 166 34l110 1v20q0 59 -76 59h-196q-13 0 -13 15v102q0 13 13 16q85 17 196 17zM353 143v95h-93q-35 0 -49 -12t-14 -40q0 -30 15 -40.5t56 -10.5q50 0 85 8z" />
    <glyph glyph-name="AEacute" unicode="&#x1fc;" horiz-adv-x="1051" 
d="M594 1009h174q10 0 10 -10v-7q0 -7 -5 -12l-192 -157q-5 -5 -14 0l-55 31q-8 5 -3 14l73 135q3 6 12 6zM363 789l298 -6h331q15 0 15 -15v-131q0 -15 -15 -15h-336v-156h307q16 0 16 -15v-124q0 -15 -16 -15h-307v-151h336q15 0 15 -15v-131q0 -15 -15 -15h-506
q-15 0 -15 16v202h-233l-55 -202q-4 -16 -14 -16h-153q-16 0 -13 16l180 652q22 82 52 101q32 20 128 20zM471 369v266h-85q-21 0 -31 -7.5t-15 -28.5l-61 -230h192z" />
    <glyph glyph-name="aeacute" unicode="&#x1fd;" horiz-adv-x="903" 
d="M462 809h174q10 0 10 -10v-7q0 -7 -5 -12l-192 -157q-6 -5 -14 0l-55 31q-8 5 -3 14l73 135q3 6 12 6zM617 572q154 0 205 -57q52 -56 52 -229v-31q0 -16 -6.5 -21.5t-23.5 -5.5h-312q2 -53 21 -68q21 -15 83 -15h184q15 0 15 -15v-102q0 -14 -14 -17q-73 -16 -204 -16
q-47 0 -94 10q-50 11 -77 27q-70 -37 -172 -37q-55 0 -88 3q-30 1 -67 11q-48 15 -68.5 51.5t-25.5 113.5q2 101 52 134q50 34 166 34l110 1v20q0 59 -76 59h-196q-8 0 -11 3t-3 12v102q0 9 2.5 11.5t11.5 4.5q83 17 196 17q114 0 172 -43q61 43 168 43zM617 422
q-47 0 -66.5 -19.5t-19.5 -68.5h168q-1 50 -19 69t-63 19zM360 238h-100q-35 0 -49 -12t-14 -40q0 -30 15 -42t55 -12q66 0 107 18q-14 39 -14 88z" />
    <glyph glyph-name="Oslashacute" unicode="&#x1fe;" horiz-adv-x="751" 
d="M391 1009h174q10 0 10 -10v-7q0 -7 -5 -12l-192 -157q-5 -5 -14 0l-55 31q-8 5 -3 14l73 135q3 6 12 6zM709 391q0 -121 -15.5 -193.5t-54.5 -118.5q-38 -46 -100 -65t-164 -19q-137 0 -208 38l-31 -44q-9 -14 -20 -3l-34 24q-11 7 -4 20l34 47q-70 82 -70 314
q0 121 15.5 194t53.5 119q39 47 100.5 66t163.5 19q139 0 209 -39l29 42q11 14 21 4l34 -23q12 -7 3 -21l-33 -46q71 -83 71 -315zM375 628q-88 0 -117 -50t-29 -187q0 -88 10 -132l237 339q-30 30 -101 30zM521 391q0 94 -10 133l-237 -338q32 -30 101 -30q89 0 117 49
q29 50 29 186z" />
    <glyph glyph-name="oslashacute" unicode="&#x1ff;" horiz-adv-x="606" 
d="M323 809h173q10 0 10 -10v-7q0 -7 -5 -12l-192 -157q-5 -5 -14 0l-54 31q-8 5 -3 14l73 135q3 6 12 6zM569 283q0 -173 -53 -231q-52 -57 -213 -57q-97 0 -148 18l-26 -37q-9 -14 -20 -3l-34 24q-11 7 -4 20l23 32q-57 57 -57 234q0 175 52 231q52 58 214 58
q91 0 147 -17l24 35q11 14 21 4l34 -23q12 -7 3 -21l-21 -30q32 -30 45 -85.5t13 -151.5zM303 422q-56 0 -74 -28q-17 -28 -17 -111q0 -37 3 -61l136 193q-15 7 -48 7zM390 348l-137 -195q18 -8 50 -8q57 0 73 27q18 27 18 111q0 45 -4 65z" />
    <glyph glyph-name="uni0218" unicode="&#x218;" horiz-adv-x="634" 
d="M333 789q105 0 215 -23q20 -8 20 -21v-97q0 -20 -20 -20h-243q-74 0 -74 -53v-12q0 -43 51 -63l173 -64q81 -31 115 -75q35 -44 35 -139v-26q0 -104 -75 -152.5t-225 -48.5q-115 0 -249 25q-19 4 -19 25v90q0 21 21 21h289q71 0 71 49v10q0 26 -15 40.5t-55 29.5l-173 63
q-69 25 -100 74t-31 145v22q0 106 69 153t220 47zM231 -40h149q10 0 10 -10v-7q0 -7 -5 -12l-168 -133q-5 -5 -14 0l-44 26q-8 5 -3 14l63 116q3 6 12 6z" />
    <glyph glyph-name="uni0219" unicode="&#x219;" horiz-adv-x="514" 
d="M283 572q84 0 161 -16q16 -4 16 -16v-92q0 -16 -17 -16h-179q-51 0 -51 -28v-9q0 -20 41 -34l125 -41q57 -18 82 -56t25 -99v-18q0 -152 -217 -152q-133 0 -220 10q-17 0 -17 15v100q0 16 17 16h216q30 0 40.5 5t10.5 19v7q0 21 -54 38l-114 38q-105 35 -105 157v18
q0 79 58.5 116.5t181.5 37.5zM181 -40h149q10 0 10 -10v-7q0 -7 -5 -12l-168 -133q-5 -5 -14 0l-44 26q-8 5 -3 14l63 116q3 6 12 6z" />
    <glyph glyph-name="uni021A" unicode="&#x21a;" horiz-adv-x="649" 
d="M31 783h586q16 0 16 -15v-131q0 -15 -16 -15h-201v-606q0 -16 -15 -16h-155q-15 0 -15 16v606h-200q-15 0 -15 15v131q0 15 15 15zM250 -40h148q10 0 10 -10v-7q0 -7 -5 -12l-167 -133q-6 -5 -14 0l-45 26q-8 5 -3 14l64 116q3 6 12 6z" />
    <glyph glyph-name="uni021B" unicode="&#x21b;" horiz-adv-x="397" 
d="M107 685l145 38q7 2 11 -2.5t4 -13.5v-144h86q17 0 17 -15v-97q0 -16 -17 -16h-86v-240q0 -30 12 -40t45 -10h38q17 0 17 -15v-104q0 -17 -17 -20q-61 -11 -99 -11q-44 0 -68 3q-23 3 -51 15q-51 24 -51 119v303h-60q-17 0 -17 16v97q0 15 17 15h60v106q0 11 14 16z
M152 -40h149q10 0 10 -10v-7q0 -7 -5 -12l-168 -133q-5 -5 -14 0l-44 26q-8 5 -3 14l63 116q3 6 12 6z" />
    <glyph glyph-name="circumflex.001" unicode="&#x2c6;" horiz-adv-x="596" 
d="M245 809h106q17 0 21 -9l100 -140q10 -9 -4 -17l-38 -19q-10 -8 -18 0l-114 76l-114 -76q-8 -6 -19 0l-38 19q-13 7 -3 17l99 140q7 9 22 9z" />
    <glyph glyph-name="caron.001" unicode="&#x2c7;" horiz-adv-x="596" 
d="M430 806l38 -19q13 -7 4 -17l-100 -139q-4 -10 -21 -10h-106q-15 0 -22 10l-99 139q-9 11 3 17l38 19q11 6 19 0l114 -76l114 76q8 8 18 0z" />
    <glyph glyph-name="breve.001" unicode="&#x2d8;" horiz-adv-x="611" 
d="M405 795h72q17 0 14 -15q-10 -80 -51 -112t-134 -32t-134 31.5t-51 111.5q-3 16 14 16h71q12 0 17 -12q11 -27 30 -37.5t53 -10.5t52.5 10.5t29.5 37.5q4 12 17 12z" />
    <glyph glyph-name="dotaccent.001" unicode="&#x2d9;" horiz-adv-x="426" 
d="M214 798q45 0 68.5 -21.5t23.5 -61.5q0 -85 -92 -85q-94 0 -94 85q0 40 24 61.5t70 21.5z" />
    <glyph glyph-name="ring" unicode="&#x2da;" horiz-adv-x="484" 
d="M364 734q0 -118 -122 -118t-122 118q0 117 122 117t122 -117zM304 734q0 62 -62 62t-62 -62t62 -62t62 62z" />
    <glyph glyph-name="ogonek" unicode="&#x2db;" horiz-adv-x="435" 
d="M161 25h57q16 0 13 -16q-6 -41 -6 -54q0 -17 17 -21q15 -3 43 -3h35q13 0 13 -13v-74q0 -14 -12 -18q-21 -8 -89 -8q-112 0 -112 78q0 51 24 117q4 12 17 12z" />
    <glyph glyph-name="tilde" unicode="&#x2dc;" horiz-adv-x="625" 
d="M232 794q28 0 82 -20q51 -19 64 -19q17 0 26.5 7t17.5 26q8 14 18 9l53 -14q14 -5 11 -20q-18 -72 -41.5 -98.5t-69.5 -26.5q-31 0 -82 19q-54 20 -65 20q-28 0 -44 -33q-6 -14 -18 -10l-53 15q-13 4 -10 20q17 72 40.5 98.5t70.5 26.5z" />
    <glyph glyph-name="hungarumlaut.001" unicode="&#x2dd;" horiz-adv-x="634" 
d="M207 809h105q10 0 10 -10v-7q0 -9 -5 -12l-152 -146q-7 -6 -14 0l-26 20q-8 6 -3 14l73 135q3 6 12 6zM399 809h105q10 0 10 -10v-7q0 -7 -5 -12l-152 -146q-7 -6 -14 0l-26 20q-8 6 -3 14l73 135q3 6 12 6z" />
    <glyph glyph-name="uni0326" unicode="&#x326;" horiz-adv-x="0" 
d="M186 -40h149q10 0 10 -10v-7q0 -7 -5 -12l-168 -133q-5 -5 -14 0l-44 26q-8 5 -3 14l63 116q3 6 12 6z" />
    <glyph glyph-name="pi" unicode="&#x3c0;" horiz-adv-x="711" 
d="M33 568h646q15 0 15 -15v-131q0 -15 -15 -15h-87v-392q0 -15 -15 -15h-138q-15 0 -15 15v392h-130q0 -201 -30 -392q-2 -15 -15 -15h-137q-18 0 -15 15q29 197 29 392h-93q-15 0 -15 15v131q0 15 15 15z" />
    <glyph glyph-name="uni0401" unicode="&#x401;" horiz-adv-x="657" 
d="M208 994q41 0 63 -21t22 -58q0 -81 -85 -81q-86 0 -86 81q0 37 22 58t64 21zM447 994q41 0 63 -21t22 -58q0 -39 -22 -60t-63 -21q-86 0 -86 81q0 37 22 58t64 21zM81 783h518q16 0 16 -15v-131q0 -15 -16 -15h-348v-156h319q16 0 16 -15v-124q0 -15 -16 -15h-319v-151
h348q16 0 16 -15v-131q0 -15 -16 -15h-518q-15 0 -15 16v751q0 16 15 16z" />
    <glyph glyph-name="uni0410" unicode="&#x410;" horiz-adv-x="727" 
d="M363 789q98 0 129 -20t53 -101l178 -652q3 -16 -13 -16h-153q-10 0 -14 16l-54 202h-251l-56 -202q-4 -16 -13 -16h-153q-16 0 -13 16l179 652q22 81 53 101t128 20zM362 635q-8 0 -10.5 -3t-5.5 -13l-67 -250h169l-68 250q-3 10 -6 13t-12 3z" />
    <glyph glyph-name="uni0411" unicode="&#x411;" horiz-adv-x="706" 
d="M251 622v-133h140q153 0 218 -48q64 -48 64 -168v-62q0 -120 -64 -168q-65 -48 -218 -48q-163 0 -310 12q-15 1 -15 14v747q0 15 16 15h536q15 0 15 -15v-131q0 -15 -15 -15h-367zM485 239v10q0 47 -25 65.5t-85 18.5h-124v-177h123q61 0 86 18t25 65z" />
    <glyph glyph-name="uni0412" unicode="&#x412;" horiz-adv-x="709" 
d="M372 789q155 0 219 -49q65 -50 65 -168q0 -87 -28 -127.5t-96 -51.5v-3q77 -7 109 -48t32 -131q0 -120 -64 -168q-65 -48 -218 -48q-163 0 -310 12q-15 1 -15 14v742q0 13 15 14q147 12 291 12zM352 628h-101v-171h92q72 0 98.5 17.5t26.5 66.5t-26 68t-90 19zM375 328
h-124v-172h123q61 0 86 18t25 65q0 49 -25 69t-85 20z" />
    <glyph glyph-name="uni0413" unicode="&#x413;" horiz-adv-x="568" 
d="M236 0h-155q-15 0 -15 16v751q0 16 15 16h460q16 0 16 -15v-131q0 -15 -16 -15h-290v-606q0 -16 -15 -16z" />
    <glyph glyph-name="uni0414" unicode="&#x414;" horiz-adv-x="747" 
d="M202 783h429q15 0 15 -16v-606h56q15 0 15 -15v-274q0 -17 -15 -17h-147q-15 0 -15 17v128h-342v-128q0 -17 -15 -17h-147q-15 0 -15 17v278q0 11 15 11h40q57 23 67 149l44 457q1 16 15 16zM461 161v461h-105l-34 -366q-9 -65 -17 -95h156z" />
    <glyph glyph-name="uni0415" unicode="&#x415;" horiz-adv-x="657" 
d="M81 783h518q16 0 16 -15v-131q0 -15 -16 -15h-348v-156h319q16 0 16 -15v-124q0 -15 -16 -15h-319v-151h348q16 0 16 -15v-131q0 -15 -16 -15h-518q-15 0 -15 16v751q0 16 15 16z" />
    <glyph glyph-name="uni0416" unicode="&#x416;" horiz-adv-x="1064" 
d="M1038 764l-238 -340l267 -397q19 -27 -17 -27h-171q-16 0 -22 11l-232 371v-366q0 -16 -15 -16h-155q-15 0 -15 16v366l-232 -371q-6 -11 -22 -11h-172q-34 0 -17 27l268 397l-238 340q-13 19 9 19h171q14 0 21 -10l212 -325v319q0 16 15 16h155q15 0 15 -16v-319
l212 325q7 10 21 10h171q21 0 9 -19z" />
    <glyph glyph-name="uni0417" unicode="&#x417;" horiz-adv-x="648" 
d="M298 789q114 0 181 -22q120 -36 120 -172v-57q0 -126 -105 -146q105 -21 105 -145v-57q0 -92 -54 -139q-74 -58 -247 -56q-156 0 -236 18q-15 4 -20.5 10t-5.5 18v101q0 14 15 14h226q85 0 111 14q26 15 26 61v10q0 46 -24 62.5t-95 16.5h-192q-15 0 -15 15v114
q0 15 15 15h192q73 0 95 16q24 16 24 63v13q0 44 -27 58q-28 14 -112 14h-224q-15 0 -15 14v100q0 22 26 29q80 18 236 18z" />
    <glyph glyph-name="uni0418" unicode="&#x418;" horiz-adv-x="794" 
d="M81 783h155q15 0 15 -16v-423l283 404l12.5 17.5t10 9t15.5 6t26 2.5h115q15 0 15 -16v-750q0 -17 -15 -17h-155q-15 0 -15 17v435l-296 -423q-21 -29 -57 -29h-109q-15 0 -15 17v750q0 16 15 16z" />
    <glyph glyph-name="uni0419" unicode="&#x419;" horiz-adv-x="794" 
d="M492 995h71q17 0 14 -15q-10 -80 -51 -112t-133 -32q-93 0 -134 31.5t-51 111.5q-3 16 14 16h70q12 0 17 -12q12 -27 30.5 -37.5t53.5 -10.5q34 0 52 10.5t30 37.5q4 12 17 12zM81 783h155q15 0 15 -16v-423l283 404l12.5 17.5t10 9t15.5 6t26 2.5h115q15 0 15 -16v-750
q0 -17 -15 -17h-155q-15 0 -15 17v435l-296 -423q-21 -29 -57 -29h-109q-15 0 -15 17v750q0 16 15 16z" />
    <glyph glyph-name="uni041A" unicode="&#x41a;" horiz-adv-x="708" 
d="M502 783h171q21 0 9 -19l-242 -340l271 -397q19 -27 -17 -27h-171q-16 0 -22 11l-250 371v-366q0 -16 -15 -16h-155q-15 0 -15 16v751q0 16 15 16h155q15 0 15 -16v-319l230 325q7 10 21 10z" />
    <glyph glyph-name="uni041B" unicode="&#x41b;" horiz-adv-x="722" 
d="M212 783h429q15 0 15 -16v-751q0 -16 -15 -16h-155q-15 0 -15 16v606h-105l-37 -402q-12 -115 -60.5 -170t-147.5 -55q-45 0 -80 11q-26 9 -26 31v104q0 15 15 15h26q49 0 68.5 26t25.5 92l47 493q1 16 15 16z" />
    <glyph glyph-name="uni041C" unicode="&#x41c;" horiz-adv-x="1002" 
d="M735 784h143q10 0 12 -17l76 -750q2 -17 -15 -17h-155q-13 0 -15 17l-43 436l-161 -413q-7 -16 -22 -16h-107q-16 0 -22 16l-161 413l-44 -436q-2 -17 -15 -17h-155q-17 0 -15 17l76 750q1 16 13 16h142q28 0 41.5 -8.5t22.5 -31.5l170 -447l170 448q10 24 23.5 32
t40.5 8z" />
    <glyph glyph-name="uni041D" unicode="&#x41d;" horiz-adv-x="795" 
d="M559 783h155q15 0 15 -16v-750q0 -17 -15 -17h-155q-15 0 -15 17v291h-293v-291q0 -17 -15 -17h-155q-15 0 -15 17v750q0 16 15 16h155q15 0 15 -16v-296h293v296q0 16 15 16z" />
    <glyph glyph-name="uni041E" unicode="&#x41e;" horiz-adv-x="751" 
d="M375 789q195 0 264 -84q70 -82 70 -314q0 -121 -15.5 -193.5t-54.5 -118.5q-38 -46 -100 -65t-164 -19q-193 0 -264 83q-69 83 -69 313q0 121 15.5 194t53.5 119q39 47 100.5 66t163.5 19zM375 628q-88 0 -117 -50t-29 -187q0 -136 29 -186q28 -49 117 -49t117 49
q29 50 29 186q0 137 -29 187t-117 50z" />
    <glyph glyph-name="uni041F" unicode="&#x41f;" horiz-adv-x="716" 
d="M81 783h554q15 0 15 -16v-751q0 -16 -15 -16h-155q-15 0 -15 16v606h-214v-606q0 -16 -15 -16h-155q-15 0 -15 16v751q0 16 15 16z" />
    <glyph glyph-name="uni0420" unicode="&#x420;" horiz-adv-x="689" 
d="M374 789q162 0 226 -58q64 -57 64 -205q0 -146 -62 -197q-62 -50 -228 -50h-123v-263q0 -10 -3 -13t-12 -3h-155q-9 0 -12 3t-3 13v747q0 13 15 14q147 12 293 12zM354 628h-103v-211h103q71 0 97 20q25 21 25 83t-25.5 85t-96.5 23z" />
    <glyph glyph-name="uni0421" unicode="&#x421;" horiz-adv-x="632" 
d="M372 789q123 0 202 -18q15 -4 20.5 -10.5t5.5 -20.5v-97q0 -15 -15 -15h-213q-88 0 -116 -48q-27 -48 -27 -187t27 -188q28 -49 116 -49h213q15 0 15 -15v-97q0 -25 -26 -31q-74 -18 -202 -18q-102 0 -163.5 19t-99.5 65q-37 47 -52 119.5t-15 194.5q0 232 67 314t263 82
z" />
    <glyph glyph-name="uni0422" unicode="&#x422;" horiz-adv-x="649" 
d="M31 783h586q16 0 16 -15v-131q0 -15 -16 -15h-201v-606q0 -16 -15 -16h-155q-15 0 -15 16v606h-200q-15 0 -15 15v131q0 15 15 15z" />
    <glyph glyph-name="uni0423" unicode="&#x423;" horiz-adv-x="628" 
d="M460 783h165q20 0 12 -17l-200 -573q-36 -103 -95.5 -150.5t-150.5 -47.5q-47 0 -104 16q-28 7 -28 32v98q0 15 15 15h77q41 0 61.5 14t36.5 50l-248 545q-8 18 11 18h171q12 0 17 -11l137 -300l106 299q5 12 17 12z" />
    <glyph glyph-name="uni0424" unicode="&#x424;" horiz-adv-x="850" 
d="M351 790h147q15 0 15 -17v-70q181 -8 245 -72q65 -63 65 -236t-65 -236q-65 -64 -245 -71v-71q0 -17 -15 -17h-147q-15 0 -15 17v71q-179 8 -244 71t-65 236t65 236q64 64 244 72v70q0 17 15 17zM336 252v286q-73 -7 -98 -38q-24 -30 -24 -105t24 -105q26 -31 98 -38z
M513 538v-286q74 8 98 38t24 105t-24 105q-23 30 -98 38z" />
    <glyph glyph-name="uni0425" unicode="&#x425;" horiz-adv-x="730" 
d="M526 783h173q24 0 11 -22l-237 -354l259 -386q15 -22 -11 -22h-173q-17 0 -27 16l-156 251l-156 -250q-12 -16 -27 -16h-173q-26 0 -11 22l259 385l-237 354q-13 22 11 22h173q17 0 27 -16l134 -219l134 219q10 16 27 16z" />
    <glyph glyph-name="uni0426" unicode="&#x426;" horiz-adv-x="755" 
d="M652 767v-606h64q16 0 16 -15v-274q0 -17 -15 -17h-147q-15 0 -15 17v128h-474q-15 0 -15 16v751q0 16 15 16h155q15 0 15 -16v-606h216v606q0 16 15 16h155q15 0 15 -16z" />
    <glyph glyph-name="uni0427" unicode="&#x427;" horiz-adv-x="696" 
d="M460 783h155q15 0 15 -16v-750q0 -17 -15 -17h-155q-15 0 -15 17v246h-112q-87 0 -139 11t-87 38t-49.5 74t-13.5 124v258q0 15 15 15h156q15 0 15 -15v-241q0 -63 25 -82q26 -20 97 -20h93v342q0 16 15 16z" />
    <glyph glyph-name="uni0428" unicode="&#x428;" horiz-adv-x="997" 
d="M761 783h155q15 0 15 -16v-751q0 -16 -15 -16h-835q-15 0 -15 16v751q0 16 15 16h155q15 0 15 -16v-606h155v606q0 16 15 16h155q15 0 15 -16v-606h155v606q0 16 15 16z" />
    <glyph glyph-name="uni0429" unicode="&#x429;" horiz-adv-x="1034" 
d="M931 767v-606h65q15 0 15 -15v-274q0 -17 -15 -17h-147q-15 0 -15 17v128h-753q-15 0 -15 16v751q0 16 15 16h155q15 0 15 -16v-606h155v606q0 16 15 16h155q15 0 15 -16v-606h155v606q0 16 15 16h155q15 0 15 -16z" />
    <glyph glyph-name="uni042A" unicode="&#x42a;" horiz-adv-x="774" 
d="M326 768v-279h141q153 0 217 -48t64 -168v-62q0 -120 -64 -168t-217 -48q-164 0 -311 12q-15 1 -15 14v601h-109q-16 0 -16 15v131q0 15 16 15h279q15 0 15 -15zM561 239v10q0 47 -25 65.5t-86 18.5h-124v-177h123q63 0 87.5 18t24.5 65z" />
    <glyph glyph-name="uni042B" unicode="&#x42b;" horiz-adv-x="1003" 
d="M251 768v-279h140q153 0 218 -48q64 -48 64 -168v-62q0 -120 -64 -168q-65 -48 -218 -48q-163 0 -310 12q-15 1 -15 14v747q0 15 15 15h155q15 0 15 -15zM767 783h155q15 0 15 -16v-750q0 -17 -15 -17h-155q-15 0 -15 17v750q0 16 15 16zM485 239v10q0 47 -25 65.5
t-85 18.5h-124v-177h123q61 0 86 18t25 65z" />
    <glyph glyph-name="uni042C" unicode="&#x42c;" horiz-adv-x="699" 
d="M251 768v-279h140q153 0 218 -48q64 -48 64 -168v-62q0 -120 -64 -168q-65 -48 -218 -48q-163 0 -310 12q-15 1 -15 14v747q0 15 15 15h155q15 0 15 -15zM485 239v10q0 47 -25 65.5t-85 18.5h-124v-177h123q61 0 86 18t25 65z" />
    <glyph glyph-name="uni042D" unicode="&#x42d;" horiz-adv-x="658" 
d="M286 789q103 0 163.5 -18.5t98.5 -65.5q38 -46 53 -117.5t15 -194.5q0 -232 -68 -315t-262 -83q-154 0 -228 18q-26 6 -26 31v97q0 15 15 15h239q76 0 105 35q30 35 35 127h-267q-16 0 -16 15v119q0 15 16 15h267q-4 91 -35 126q-29 35 -105 35h-239q-15 0 -15 15v97
q0 14 5.5 20.5t20.5 10.5q80 18 228 18z" />
    <glyph glyph-name="uni042E" unicode="&#x42e;" horiz-adv-x="1039" 
d="M664 789q102 0 163.5 -19t99.5 -66q39 -46 54.5 -119t15.5 -194q0 -231 -70 -313q-69 -83 -263 -83q-178 0 -249 67q-73 68 -83 246h-81v-291q0 -17 -15 -17h-155q-15 0 -15 17v750q0 16 15 16h155q15 0 15 -16v-296h82q11 181 81 249q72 69 250 69zM664 628
q-89 0 -118 -50t-29 -187q0 -136 29 -186q28 -49 118 -49q89 0 117 49q29 50 29 186q0 137 -29 187t-117 50z" />
    <glyph glyph-name="uni042F" unicode="&#x42f;" horiz-adv-x="709" 
d="M335 789q146 0 293 -12q15 -1 15 -14v-747q0 -10 -3 -13t-12 -3h-155q-9 0 -12 3t-3 13v263h-64l-163 -257q-15 -22 -40 -22h-156q-11 0 -14.5 6t2.5 14l170 271q-82 18 -115 71q-33 52 -33 164q0 148 63 205q64 58 227 58zM458 417v211h-103q-71 0 -97 -23t-26 -85
t25 -83q26 -20 98 -20h103z" />
    <glyph glyph-name="uni0430" unicode="&#x430;" horiz-adv-x="579" 
d="M278 572q159 0 207 -51q44 -41 44 -129v-344q0 -26 -25 -32q-102 -21 -229 -21q-102 0 -155 13q-48 13 -68.5 46t-25.5 100v26q2 98 52 129q51 33 166 33l110 1v20q0 59 -76 59h-196q-8 0 -11 3t-3 12v102q0 9 2.5 11.5t11.5 4.5q83 17 196 17zM354 143v95h-93
q-38 0 -50.5 -10t-12.5 -36v-11q0 -27 14.5 -36.5t53.5 -9.5q53 0 88 8z" />
    <glyph glyph-name="uni0431" unicode="&#x431;" horiz-adv-x="616" 
d="M477 789h51q18 0 18 -41q0 -71 -31 -101.5t-103 -36.5q-115 -12 -158 -34q-44 -23 -51 -82q43 38 143 38q131 0 182 -54q52 -53 52 -195q0 -173 -53 -231q-53 -57 -213 -57q-162 0 -214 57q-53 60 -52 231v100q0 197 69 276q38 42 91 64.5t138 33.5q80 11 95 16q1 1 5 4
t7.5 5.5t10 4.5t13.5 2zM223 283q0 -83 17 -111q18 -27 74 -27q57 0 73 27q18 27 18 111q0 64 -18.5 86.5t-72.5 22.5t-72.5 -22.5t-18.5 -86.5z" />
    <glyph glyph-name="uni0432" unicode="&#x432;" horiz-adv-x="572" 
d="M299 572q123 0 174.5 -36t51.5 -121q0 -66 -23 -94.5t-81 -36.5v-2q66 -5 91 -32t25 -96q0 -85 -51.5 -122t-173.5 -37q-142 0 -246 11q-12 2 -12 13v530q0 11 12 12q118 11 233 11zM282 431h-52v-91h50q82 0 82 46q0 45 -80 45zM295 230h-65v-91l65 -1q44 1 62 11.5
t18 34.5q0 46 -80 46z" />
    <glyph glyph-name="uni0433" unicode="&#x433;" horiz-adv-x="473" 
d="M68 567h374q14 0 14 -14v-133q0 -14 -14 -14h-203v-392q0 -14 -14 -14h-157q-14 0 -14 14v539q0 14 14 14z" />
    <glyph glyph-name="uni0434" unicode="&#x434;" horiz-adv-x="608" 
d="M156 567h352q15 0 15 -14v-407h46q14 0 14 -14v-213q0 -15 -14 -15h-131q-14 0 -14 15v81h-247v-81q0 -15 -14 -15h-131q-14 0 -14 15v213q0 14 14 14h29q41 17 52 115l28 293q1 13 15 13zM354 146v275h-58l-20 -209q-2 -23 -11 -66h89z" />
    <glyph glyph-name="uni0435" unicode="&#x435;" horiz-adv-x="586" 
d="M300 572q154 0 205 -57q52 -56 52 -229v-31q0 -16 -6.5 -21.5t-23.5 -5.5h-312q2 -53 21 -68q21 -15 83 -15h184q15 0 15 -15v-102q0 -14 -14 -17q-73 -16 -204 -16q-158 0 -210 57q-53 59 -53 231q0 173 53 231q52 58 210 58zM300 422q-47 0 -66.5 -19.5t-19.5 -68.5
h168q-1 50 -19 69t-63 19z" />
    <glyph glyph-name="uni0436" unicode="&#x436;" horiz-adv-x="926" 
d="M899 551l-160 -242l190 -291q8 -18 -11 -18h-183q-12 0 -17 8l-166 260v-253q0 -15 -15 -15h-147q-15 0 -15 15v253l-166 -260q-5 -8 -17 -8h-183q-19 0 -11 18l189 291l-160 242q-5 7 -1.5 11.5t13.5 4.5h171q12 0 16 -7l149 -232v224q0 15 15 15h147q15 0 15 -15v-224
l149 232q3 7 16 7h171q9 0 12.5 -4.5t-1.5 -11.5z" />
    <glyph glyph-name="uni0437" unicode="&#x437;" horiz-adv-x="534" 
d="M260 572q231 0 231 -133v-65q0 -79 -90 -91q90 -12 90 -93v-63q0 -132 -231 -132q-137 0 -201 19q-24 8 -24 32v87q0 16 14 16h194q39 0 53.5 7t14.5 25v8q0 19 -12 26t-45 7h-158q-15 0 -15 16v90q0 15 15 15h158q57 0 57 32v11q0 19 -14 25.5t-55 6.5h-193
q-14 0 -14 16v89q0 24 24 30q60 19 201 19z" />
    <glyph glyph-name="uni0438" unicode="&#x438;" horiz-adv-x="641" 
d="M472 567h103q12 0 12 -13v-541q0 -13 -12 -13h-148q-11 0 -11 13v263l-197 -252q-18 -24 -54 -24h-99q-12 0 -12 13v541q0 13 12 13h148q12 0 12 -13v-267l193 252q21 28 53 28z" />
    <glyph glyph-name="uni0439" unicode="&#x439;" horiz-adv-x="641" 
d="M418 795h71q17 0 14 -15q-10 -80 -51 -112t-134 -32t-134 31.5t-51 111.5q-3 16 14 16h71q12 0 17 -12q12 -27 30.5 -37.5t52.5 -10.5t52.5 10.5t30.5 37.5q5 12 17 12zM472 567h103q12 0 12 -13v-541q0 -13 -12 -13h-148q-11 0 -11 13v263l-197 -252q-18 -24 -54 -24
h-99q-12 0 -12 13v541q0 13 12 13h148q12 0 12 -13v-267l193 252q21 28 53 28z" />
    <glyph glyph-name="uni043A" unicode="&#x43a;" horiz-adv-x="613" 
d="M404 567h171q10 0 13.5 -4.5t-1.5 -11.5l-161 -242l190 -291q8 -18 -11 -18h-183q-12 0 -17 8l-166 260v-253q0 -15 -15 -15h-155q-15 0 -15 15v537q0 15 15 15h155q15 0 15 -15v-224l149 232q4 7 16 7z" />
    <glyph glyph-name="uni043B" unicode="&#x43b;" horiz-adv-x="594" 
d="M156 567h373q11 0 11 -12v-543q0 -12 -11 -12h-150q-11 0 -11 12v405h-67l-21 -242q-16 -180 -176 -180q-42 0 -70 9q-15 5 -19.5 10.5t-4.5 18.5v103q0 10 12 10h24q34 0 48.5 18.5t18.5 59.5l31 330q1 13 12 13z" />
    <glyph glyph-name="uni043C" unicode="&#x43c;" horiz-adv-x="823" 
d="M588 567h128q12 0 13 -12l63 -542q1 -13 -12 -13h-153q-11 0 -12 13l-32 294l-105 -277q-6 -13 -18 -13h-98q-12 0 -18 13l-104 277l-33 -294q-1 -13 -12 -13h-153q-14 0 -12 12l64 542q1 13 14 13h126q27 0 40 -6t20 -24l117 -290l117 291q7 17 20 23t40 6z" />
    <glyph glyph-name="uni043D" unicode="&#x43d;" horiz-adv-x="651" 
d="M427 567h155q15 0 15 -15v-537q0 -15 -15 -15h-155q-15 0 -15 15v179h-173v-179q0 -15 -15 -15h-155q-15 0 -15 15v537q0 15 15 15h155q15 0 15 -15v-194h173v194q0 15 15 15z" />
    <glyph glyph-name="uni043E" unicode="&#x43e;" horiz-adv-x="607" 
d="M570 283q-2 -94 -12 -145.5t-41.5 -85t-79 -44.5t-134.5 -13q-161 0 -214 57q-52 56 -52 231t52 231q52 58 214 58t214 -58q53 -58 53 -231zM303 422q-56 0 -74 -28q-17 -28 -17 -111t17 -111q18 -27 74 -27q57 0 74 27q18 27 18 111t-18 111q-16 28 -74 28z" />
    <glyph glyph-name="uni043F" unicode="&#x43f;" horiz-adv-x="593" 
d="M69 567h455q15 0 15 -15v-537q0 -15 -15 -15h-155q-15 0 -15 15v391h-115v-391q0 -15 -15 -15h-155q-15 0 -15 15v537q0 15 15 15z" />
    <glyph glyph-name="uni0440" unicode="&#x440;" horiz-adv-x="614" 
d="M303 572q163 0 219 -57q56 -58 56 -220q0 -175 -49 -237q-49 -63 -183 -63q-66 0 -119 6v-189q0 -15 -15 -15h-144q-15 0 -15 15v710q0 24 24 29q126 21 226 21zM312 422h-85v-271q32 -5 72 -5q66 0 85 25t19 113q0 82 -16 110q-15 28 -75 28z" />
    <glyph glyph-name="uni0441" unicode="&#x441;" horiz-adv-x="524" 
d="M303 572q107 0 170 -16q17 -5 17 -21v-97q0 -16 -17 -16h-170q-56 0 -74 -27q-17 -28 -17 -111t17 -112q18 -27 74 -27h170q17 0 17 -16v-97q0 -16 -17 -21q-63 -16 -170 -16q-89 0 -137.5 12.5t-77.5 45.5q-29 34 -39.5 85.5t-10.5 145.5q0 135 29 200q26 51 77 68.5
t159 19.5z" />
    <glyph glyph-name="uni0442" unicode="&#x442;" horiz-adv-x="533" 
d="M33 567h467q15 0 15 -15v-131q0 -15 -15 -15h-141v-391q0 -15 -15 -15h-155q-15 0 -15 15v391h-141q-15 0 -15 15v131q0 15 15 15z" />
    <glyph glyph-name="uni0443" unicode="&#x443;" horiz-adv-x="634" 
d="M420 567h145q15 0 15 -15v-559q0 -82 -24 -125q-39 -77 -228 -77q-128 0 -207 16q-13 3 -13 16v93q0 15 13 15h189q56 0 75.5 14.5t19.5 55.5v7q-53 -13 -118 -13q-131 0 -185 58q-53 59 -53 192v307q0 15 15 15h144q15 0 15 -15v-268q0 -85 21 -112q23 -26 90 -26
q42 0 71 6v400q0 15 15 15z" />
    <glyph glyph-name="uni0444" unicode="&#x444;" horiz-adv-x="834" 
d="M599 572q199 0 199 -289q0 -288 -199 -288q-72 0 -96 21v-204q0 -15 -15 -15h-144q-15 0 -15 15v204q-24 -21 -96 -21q-198 0 -198 288q0 289 198 289q56 0 96 -22v217q0 16 15 16h144q15 0 15 -16v-217q40 22 96 22zM329 159v249q-20 12 -46 12q-44 0 -58.5 -30
t-14.5 -107t14.5 -107t58.5 -30q27 0 46 13zM549 146q44 0 58.5 29.5t14.5 107.5t-14.5 107.5t-58.5 29.5q-25 0 -45 -12v-249q19 -13 45 -13z" />
    <glyph glyph-name="uni0445" unicode="&#x445;" horiz-adv-x="600" 
d="M399 567h174q10 0 12.5 -5.5t-4.5 -13.5l-172 -253l188 -276q6 -7 3 -13t-12 -6h-175q-9 0 -16 10l-97 150l-98 -150q-7 -10 -16 -10h-174q-9 0 -12 6t3 13l188 276l-173 253q-7 8 -4.5 13.5t12.5 5.5h175q11 0 18 -10l81 -126l81 126q7 10 18 10z" />
    <glyph glyph-name="uni0446" unicode="&#x446;" horiz-adv-x="624" 
d="M537 552v-391h47q15 0 15 -15v-224q0 -15 -15 -15h-149q-15 0 -15 15v78h-351q-15 0 -15 15v537q0 15 15 15h155q15 0 15 -15v-391h113v391q0 15 15 15h155q15 0 15 -15z" />
    <glyph glyph-name="uni0447" unicode="&#x447;" horiz-adv-x="594" 
d="M370 567h155q15 0 15 -17v-533q0 -17 -15 -17h-155q-15 0 -15 17v144h-42q-164 0 -222 49t-58 198v144q0 15 15 15h157q15 0 15 -15v-127q0 -63 21 -83q20 -19 92 -19h22v227q0 17 15 17z" />
    <glyph glyph-name="uni0448" unicode="&#x448;" horiz-adv-x="824" 
d="M600 567h155q15 0 15 -15v-537q0 -15 -15 -15h-686q-15 0 -15 15v537q0 15 15 15h155q15 0 15 -15v-398h89v398q0 15 15 15h139q15 0 15 -15v-398h88v398q0 15 15 15z" />
    <glyph glyph-name="uni0449" unicode="&#x449;" horiz-adv-x="846" 
d="M759 552v-391h47q15 0 15 -15v-226q0 -15 -15 -15h-148q-15 0 -15 15v80h-574q-15 0 -15 15v537q0 15 15 15h155q15 0 15 -15v-391h75v391q0 15 15 15h155q15 0 15 -15v-391h75v391q0 15 15 15h155q15 0 15 -15z" />
    <glyph glyph-name="uni044A" unicode="&#x44a;" horiz-adv-x="645" 
d="M306 556v-192h89q129 0 178 -37q50 -36 50 -120v-54q0 -84 -50 -122q-49 -36 -178 -36q-150 0 -252 12q-12 1 -12 9v394h-102q-13 0 -13 11v135q0 11 13 11h265q12 0 12 -11zM450 179v15q0 37 -55 37h-89v-87h69q45 0 60 7.5t15 27.5z" />
    <glyph glyph-name="uni044B" unicode="&#x44b;" horiz-adv-x="831" 
d="M230 556v-192h88q129 0 178 -37q50 -36 50 -120v-54q0 -84 -50 -122q-50 -36 -178 -36q-150 0 -252 12q-12 1 -12 9v540q0 11 12 11h152q12 0 12 -11zM617 567h145q15 0 15 -16v-535q0 -16 -15 -16h-145q-15 0 -15 16v535q0 16 15 16zM373 179v15q0 37 -55 37h-88v-87h69
q44 0 59 7.5t15 27.5z" />
    <glyph glyph-name="uni044C" unicode="&#x44c;" horiz-adv-x="568" 
d="M230 553v-189h88q129 0 178 -37q50 -36 50 -120v-54q0 -84 -50 -122q-50 -36 -178 -36q-150 0 -252 12q-12 1 -12 12v535q0 13 14 13h147q15 0 15 -14zM373 179v15q0 37 -55 37h-88v-87h69q44 0 59 7.5t15 27.5z" />
    <glyph glyph-name="uni044D" unicode="&#x44d;" horiz-adv-x="541" 
d="M240 572q155 0 210 -61q55 -59 55 -226q0 -168 -55 -229t-210 -61q-114 0 -181 18q-13 3 -18.5 9t-5.5 18v90q0 12 12 12h193q45 0 66 19t27 61h-205q-13 0 -13 10v104q0 10 13 10h205q-5 43 -26.5 61.5t-66.5 18.5h-193q-12 0 -12 11v91q0 12 5 17.5t19 9.5
q60 17 181 17z" />
    <glyph glyph-name="uni044E" unicode="&#x44e;" horiz-adv-x="863" 
d="M559 572q162 0 214 -58q53 -58 53 -231q-2 -94 -12 -145.5t-41.5 -85t-79 -44.5t-134.5 -13q-139 0 -195 41q-57 43 -67 158h-58v-179q0 -15 -15 -15h-155q-15 0 -15 15v537q0 15 15 15h155q15 0 15 -15v-194h57q9 127 64 170q56 44 199 44zM485 172q18 -27 74 -27
q57 0 73 27q18 27 18 111t-18 111q-16 28 -73 28q-56 0 -74 -28q-17 -28 -17 -111t17 -111z" />
    <glyph glyph-name="uni044F" unicode="&#x44f;" horiz-adv-x="581" 
d="M284 572q127 0 230 -10q12 -2 12 -9v-541q0 -8 -2 -10t-10 -2h-152q-11 0 -11 12v182h-26l-127 -179q-10 -15 -31 -15h-148q-20 0 -9 14l133 191q-59 16 -84.5 55t-25.5 113q0 105 58 152t193 47zM351 312v106h-75q-36 0 -49.5 -12t-13.5 -42q0 -28 14 -40t49 -12h75z
" />
    <glyph glyph-name="uni0451" unicode="&#x451;" horiz-adv-x="586" 
d="M181 794q41 0 63 -21t22 -58q0 -39 -22 -60t-63 -21q-86 0 -86 81q0 37 22 58t64 21zM504 715q0 -81 -85 -81t-85 81q0 37 22 58t63 21t63 -21t22 -58zM300 572q154 0 205 -57q52 -56 52 -229v-31q0 -16 -6.5 -21.5t-23.5 -5.5h-312q2 -53 21 -68q21 -15 83 -15h184
q15 0 15 -15v-102q0 -14 -14 -17q-73 -16 -204 -16q-158 0 -210 57q-53 59 -53 231q0 173 53 231q52 58 210 58zM300 422q-47 0 -66.5 -19.5t-19.5 -68.5h168q-1 50 -19 69t-63 19z" />
    <glyph glyph-name="Wgrave" unicode="&#x1e80;" horiz-adv-x="1105" 
d="M352 1009h174q9 0 12 -6l73 -135q5 -9 -3 -14l-55 -31q-8 -5 -14 0l-192 157q-5 5 -5 12v7q0 10 10 10zM913 783h159q18 0 15 -17l-119 -650q-15 -81 -43 -101t-117 -20q-59 0 -84 3.5t-44 16.5t-27 32t-21 69l-80 340l-80 -340q-13 -58 -28.5 -81t-46 -31.5t-101.5 -8.5
q-89 0 -118 20q-27 21 -41 101l-119 650q-3 17 14 17h159q11 0 15 -17l98 -559q4 -18 15 -18q8 0 11 3t6 15l126 534q5 17 22 17h137q16 0 21 -17l126 -534q3 -12 10 -16.5t14 0t9 16.5l97 559q4 17 15 17z" />
    <glyph glyph-name="wgrave" unicode="&#x1e81;" horiz-adv-x="906" 
d="M249 809h174q9 0 12 -6l73 -135q5 -9 -3 -14l-55 -31q-9 -5 -14 0l-192 157q-5 5 -5 12v7q0 10 10 10zM722 567h154q14 0 12 -14l-85 -464q-11 -60 -41 -77q-29 -17 -107 -17q-95 0 -122 15q-26 15 -39 79l-41 192l-41 -192q-13 -64 -40 -79q-26 -15 -122 -15
q-77 0 -108 17q-30 17 -40 77l-84 464q-3 14 12 14h154q8 0 11 -14l62 -405q1 -7 6 -10t10 0t6 10l91 389q3 12 16 12h134q13 0 16 -12l91 -389q2 -11 10 -11q10 0 12 11l62 405q2 14 11 14z" />
    <glyph glyph-name="Wacute" unicode="&#x1e82;" horiz-adv-x="1105" 
d="M564 1009h174q10 0 10 -10v-7q0 -7 -5 -12l-192 -157q-5 -5 -14 0l-55 31q-8 5 -3 14l73 135q3 6 12 6zM913 783h159q18 0 15 -17l-119 -650q-15 -81 -43 -101t-117 -20q-59 0 -84 3.5t-44 16.5t-27 32t-21 69l-80 340l-80 -340q-13 -58 -28.5 -81t-46 -31.5t-101.5 -8.5
q-89 0 -118 20q-27 21 -41 101l-119 650q-3 17 14 17h159q11 0 15 -17l98 -559q4 -18 15 -18q8 0 11 3t6 15l126 534q5 17 22 17h137q16 0 21 -17l126 -534q3 -12 10 -16.5t14 0t9 16.5l97 559q4 17 15 17z" />
    <glyph glyph-name="wacute" unicode="&#x1e83;" horiz-adv-x="906" 
d="M463 809h174q10 0 10 -10v-7q0 -7 -5 -12l-192 -157q-5 -5 -14 0l-55 31q-8 5 -3 14l73 135q3 6 12 6zM722 567h154q14 0 12 -14l-85 -464q-11 -60 -41 -77q-29 -17 -107 -17q-95 0 -122 15q-26 15 -39 79l-41 192l-41 -192q-13 -64 -40 -79q-26 -15 -122 -15
q-77 0 -108 17q-30 17 -40 77l-84 464q-3 14 12 14h154q8 0 11 -14l62 -405q1 -7 6 -10t10 0t6 10l91 389q3 12 16 12h134q13 0 16 -12l91 -389q2 -11 10 -11q10 0 12 11l62 405q2 14 11 14z" />
    <glyph glyph-name="Wdieresis" unicode="&#x1e84;" horiz-adv-x="1105" 
d="M433 994q41 0 63 -21t22 -58q0 -81 -85 -81q-86 0 -86 81q0 37 22 58t64 21zM756 915q0 -81 -85 -81t-85 81q0 37 22 58t63 21t63 -21t22 -58zM913 783h159q18 0 15 -17l-119 -650q-15 -81 -43 -101t-117 -20q-59 0 -84 3.5t-44 16.5t-27 32t-21 69l-80 340l-80 -340
q-13 -58 -28.5 -81t-46 -31.5t-101.5 -8.5q-89 0 -118 20q-27 21 -41 101l-119 650q-3 17 14 17h159q11 0 15 -17l98 -559q4 -18 15 -18q8 0 11 3t6 15l126 534q5 17 22 17h137q16 0 21 -17l126 -534q3 -12 10 -16.5t14 0t9 16.5l97 559q4 17 15 17z" />
    <glyph glyph-name="wdieresis" unicode="&#x1e85;" horiz-adv-x="906" 
d="M334 794q41 0 63 -21t22 -58q0 -39 -22 -60t-63 -21q-86 0 -86 81q0 37 22 58t64 21zM572 794q41 0 63 -21t22 -58q0 -81 -85 -81q-86 0 -86 81q0 37 22 58t64 21zM722 567h154q14 0 12 -14l-85 -464q-11 -60 -41 -77q-29 -17 -107 -17q-95 0 -122 15q-26 15 -39 79
l-41 192l-41 -192q-13 -64 -40 -79q-26 -15 -122 -15q-77 0 -108 17q-30 17 -40 77l-84 464q-3 14 12 14h154q8 0 11 -14l62 -405q1 -7 6 -10t10 0t6 10l91 389q3 12 16 12h134q13 0 16 -12l91 -389q2 -11 10 -11q10 0 12 11l62 405q2 14 11 14z" />
    <glyph glyph-name="Ygrave" unicode="&#x1ef2;" horiz-adv-x="741" 
d="M158 1009h173q9 0 12 -6l73 -135q5 -9 -3 -14l-54 -31q-9 -5 -14 0l-192 157q-5 5 -5 12v7q0 10 10 10zM557 783h173q23 0 11 -22l-278 -503v-241q0 -17 -15 -17h-155q-15 0 -15 17v243l-277 501q-12 22 11 22h174q15 0 27 -16l158 -328l159 328q7 16 27 16z" />
    <glyph glyph-name="ygrave" unicode="&#x1ef3;" horiz-adv-x="634" 
d="M125 809h174q9 0 12 -6l73 -135q5 -9 -3 -14l-55 -31q-9 -5 -14 0l-192 157q-5 5 -5 12v7q0 10 10 10zM421 567h144q15 0 15 -15v-559q0 -82 -24 -125q-39 -77 -228 -77q-128 0 -207 16q-13 3 -13 16v93q0 15 14 15h188q57 0 76.5 14.5t19.5 55.5v7q-53 -13 -118 -13
q-132 0 -186 58q-53 59 -53 192v307q0 15 15 15h145q15 0 15 -15v-268q0 -87 21 -112q23 -26 89 -26q44 0 72 6v400q0 15 15 15z" />
    <glyph glyph-name="uni1EF8" unicode="&#x1ef8;" horiz-adv-x="741" 
d="M291 994q29 0 81 -20q51 -19 65 -19q17 0 26.5 7t17.5 26q7 14 18 9l53 -14q14 -5 11 -20q-18 -72 -41.5 -98.5t-69.5 -26.5q-31 0 -82 19q-54 20 -65 20q-27 0 -44 -33q-6 -14 -18 -10l-53 15q-13 4 -10 20q17 72 40.5 98.5t70.5 26.5zM557 783h173q23 0 11 -22
l-278 -503v-241q0 -17 -15 -17h-155q-15 0 -15 17v243l-277 501q-12 22 11 22h174q15 0 27 -16l158 -328l159 328q7 16 27 16z" />
    <glyph glyph-name="uni1EF9" unicode="&#x1ef9;" horiz-adv-x="634" 
d="M231 794q28 0 82 -20q51 -19 65 -19q16 0 25.5 7t17.5 26q7 14 18 9l53 -14q14 -5 11 -20q-18 -73 -41 -99t-70 -26q-31 0 -82 19q-54 20 -65 20q-16 0 -25.5 -7t-17.5 -26q-8 -14 -19 -10l-53 15q-13 4 -10 20q17 72 40.5 98.5t70.5 26.5zM421 567h144q15 0 15 -15v-559
q0 -82 -24 -125q-39 -77 -228 -77q-128 0 -207 16q-13 3 -13 16v93q0 15 14 15h188q57 0 76.5 14.5t19.5 55.5v7q-53 -13 -118 -13q-132 0 -186 58q-53 59 -53 192v307q0 15 15 15h145q15 0 15 -15v-268q0 -87 21 -112q23 -26 89 -26q44 0 72 6v400q0 15 15 15z" />
    <glyph glyph-name="endash" unicode="&#x2013;" horiz-adv-x="615" 
d="M68 388h479q16 0 16 -15v-131q0 -15 -16 -15h-479q-16 0 -16 15v131q0 15 16 15z" />
    <glyph glyph-name="emdash" unicode="&#x2014;" horiz-adv-x="973" 
d="M68 388h837q16 0 16 -15v-131q0 -15 -16 -15h-837q-16 0 -16 15v131q0 15 16 15z" />
    <glyph glyph-name="quoteleft.001" unicode="&#x2018;" horiz-adv-x="319" 
d="M241 781l55 -30q6 -4 3 -14l-77 -266q-3 -9 -11 -9h-181q-10 0 -10 10v27q0 6 5 14l201 265q6 8 15 3z" />
    <glyph glyph-name="quoteright" unicode="&#x2019;" horiz-adv-x="311" 
d="M113 783h181q10 0 10 -10v-27q0 -7 -5 -15l-201 -264q-6 -7 -15 -3l-55 30q-6 4 -3 14l77 266q3 9 11 9z" />
    <glyph glyph-name="quotesinglbase" unicode="&#x201a;" horiz-adv-x="300" 
d="M73 130h181q10 0 10 -10v-27q0 -7 -5 -15l-201 -264q-8 -8 -15 -4l-55 31q-6 4 -3 14l77 266q3 9 11 9z" />
    <glyph glyph-name="quotedblleft.001" unicode="&#x201c;" horiz-adv-x="601" 
d="M241 781l55 -30q6 -4 3 -14l-77 -266q-3 -9 -11 -9h-181q-10 0 -10 10v27q0 6 5 14l201 265q6 8 15 3zM522 781l56 -30q6 -4 3 -14l-77 -266q-3 -9 -12 -9h-180q-10 0 -10 10v27q0 6 5 14l200 265q6 8 15 3z" />
    <glyph glyph-name="quotedblright" unicode="&#x201d;" horiz-adv-x="596" 
d="M113 783h181q10 0 10 -10v-27q0 -7 -5 -15l-201 -264q-6 -7 -15 -3l-55 30q-6 4 -3 14l77 266q3 9 11 9zM398 783h181q10 0 10 -10v-27q0 -7 -5 -15l-201 -264q-6 -7 -15 -3l-56 30q-6 4 -3 14l77 266q3 9 12 9z" />
    <glyph glyph-name="quotedblbase" unicode="&#x201e;" horiz-adv-x="576" 
d="M73 130h181q10 0 10 -10v-27q0 -7 -5 -15l-201 -264q-8 -8 -15 -4l-55 31q-6 4 -3 14l77 266q3 9 11 9zM350 130h180q10 0 10 -10v-27q0 -7 -5 -15l-200 -264q-8 -8 -15 -4l-56 31q-6 4 -3 14l77 266q3 9 12 9z" />
    <glyph glyph-name="dagger.001" unicode="&#x2020;" horiz-adv-x="523" 
d="M468 464h-119v-448q0 -16 -15 -16h-145q-15 0 -15 16v448h-119q-16 0 -16 15v115q0 15 16 15h119v158q0 16 15 16h145q15 0 15 -16v-158h119q16 0 16 -15v-115q0 -15 -16 -15z" />
    <glyph glyph-name="daggerdbl" unicode="&#x2021;" horiz-adv-x="523" 
d="M189 783h145q15 0 15 -16v-158h119q16 0 16 -15v-115q0 -15 -16 -15h-119v-146h119q16 0 16 -15v-116q0 -15 -16 -15h-119v-156q0 -16 -15 -16h-145q-15 0 -15 16v157h-119q-16 0 -16 15v115q0 15 16 15h119v146h-119q-16 0 -16 15v115q0 15 16 15h119v158q0 16 15 16z
" />
    <glyph glyph-name="bullet" unicode="&#x2022;" horiz-adv-x="560" 
d="M281 459q88 0 138 -45t50 -124q0 -80 -50 -125t-138 -45q-89 0 -139 45t-50 125q0 79 50 124t139 45z" />
    <glyph glyph-name="ellipsis.001" unicode="&#x2026;" horiz-adv-x="825" 
d="M135 178q47 0 73.5 -24t26.5 -67t-26.5 -67.5t-73.5 -24.5q-49 0 -75.5 24t-26.5 68q0 43 26.5 67t75.5 24zM410 178q47 0 73.5 -24t26.5 -67t-26.5 -67.5t-73.5 -24.5q-49 0 -75.5 24t-26.5 68q0 43 26.5 67t75.5 24zM692 178q47 0 73.5 -24t26.5 -67t-26.5 -67.5
t-73.5 -24.5q-48 0 -75 24.5t-27 67.5t27 67t75 24z" />
    <glyph glyph-name="perthousand.001" unicode="&#x2030;" horiz-adv-x="1388" 
d="M412 581q0 -123 -39 -165q-39 -41 -155 -41q-115 0 -154 41q-39 42 -39 165q0 124 39 166t154 42t154 -42q40 -41 40 -166zM648 784h59q15 0 6 -15l-395 -754q-8 -15 -23 -15h-60q-15 0 -7 15l396 754q8 15 24 15zM155 581q0 -56 13 -75.5t50 -19.5t50 19.5t13 75.5
q0 57 -13 76.5t-50 19.5t-50 -19.5t-13 -76.5zM920 201q0 -123 -39 -165q-39 -41 -154 -41t-154 41q-39 42 -39 165q0 124 39 166t154 42t154 -42t39 -166zM1363 201q0 -123 -39 -165q-39 -41 -155 -41q-115 0 -154 41q-39 42 -39 165q0 124 39 166t154 42t154 -42
q40 -41 40 -166zM664 201q0 -56 13 -75.5t50 -19.5t50 19.5t13 75.5q0 57 -13 76.5t-50 19.5t-50 -19.5t-13 -76.5zM1169 297q-37 0 -50 -19.5t-13 -76.5q0 -56 13 -75.5t50 -19.5q38 0 51 19.5t13 75.5q0 57 -13 76.5t-51 19.5z" />
    <glyph glyph-name="guilsinglleft" unicode="&#x2039;" horiz-adv-x="360" 
d="M165 488h144q15 0 15 -15v-7q0 -11 -7 -18l-135 -169l135 -168q7 -7 7 -18v-7q0 -15 -15 -15h-144q-11 0 -18 9l-107 140q-10 13 -10 29v61q0 15 10 28l107 141q7 9 18 9z" />
    <glyph glyph-name="guilsinglright" unicode="&#x203a;" horiz-adv-x="359" 
d="M51 488h143q10 0 18 -9l108 -141q10 -13 10 -28v-61q0 -16 -10 -29l-108 -140q-8 -9 -18 -9h-143q-15 0 -15 15v7q0 11 7 18l134 168l-134 169q-7 7 -7 18v7q0 15 15 15z" />
    <glyph glyph-name="fraction.001" unicode="&#x2044;" horiz-adv-x="140" 
d="M240 824h43q16 0 8 -17l-370 -837q-9 -17 -22 -17h-44q-17 0 -8 17l371 837q8 17 22 17z" />
    <glyph glyph-name="uni2070" unicode="&#x2070;" horiz-adv-x="381" 
d="M191 939q93 0 124 -43q32 -44 32 -166t-32 -166q-31 -43 -124 -43q-95 0 -126 43t-31 166t31 166t126 43zM244 834q-13 28 -53 28q-41 0 -54 -28q-13 -26 -13 -104t13 -104q13 -27 54 -27q39 0 53 27q14 28 14 104t-14 104z" />
    <glyph glyph-name="uni2074" unicode="&#x2074;" horiz-adv-x="391" 
d="M105 937h67q12 0 7 -14l-61 -228h92v98q0 11 9 15l66 25q15 5 15 -8v-130h61q13 0 13 -12v-55q0 -12 -13 -12h-61v-80q0 -12 -11 -12h-67q-12 0 -12 12v80h-179q-11 0 -11 12v32q0 8 4 20l67 249q3 8 14 8z" />
    <glyph glyph-name="uni2075" unicode="&#x2075;" horiz-adv-x="366" 
d="M56 937h261q11 0 11 -12v-54q0 -12 -11 -12h-186l-6 -74q23 4 48 4q98 0 129 -28q32 -27 32 -105v-4q-1 -43 -5.5 -64.5t-24 -38t-52.5 -21.5t-96 -7q-61 0 -111 8q-8 2 -8 10v53q0 7 11 7h112q52 0 68 9t16 39v11q0 32 -16.5 42t-67.5 10h-108q-15 0 -15 10v54l11 154
q0 9 8 9z" />
    <glyph glyph-name="uni2076" unicode="&#x2076;" horiz-adv-x="351" 
d="M152 937h74q16 0 8 -15l-69 -148q15 3 32 3q61 0 97 -28t36 -81v-38q0 -55 -36 -82t-116 -27q-78 0 -114.5 29t-38.5 92v20q2 37 13 61l100 206q6 8 14 8zM178 706q-36 0 -49.5 -10t-13.5 -38v-10q0 -28 14 -38.5t49 -10.5t48.5 10.5t13.5 38.5v10q0 27 -13.5 37.5
t-48.5 10.5z" />
    <glyph glyph-name="uni2077" unicode="&#x2077;" horiz-adv-x="342" 
d="M32 937h281q12 0 12 -12v-40q0 -7 -6 -18l-172 -335q-5 -8 -14 -8h-77q-16 0 -8 14l166 321h-182q-13 0 -13 10v56q0 12 13 12z" />
    <glyph glyph-name="uni2078" unicode="&#x2078;" horiz-adv-x="369" 
d="M181 939h9q70 0 103.5 -27t33.5 -85q0 -37 -12 -58t-41 -39q64 -22 64 -93q0 -59 -36 -87.5t-113 -28.5h-10q-150 0 -150 113q0 70 69 98q-54 19 -54 94q0 113 137 113zM189 862h-10q-42 0 -42 -44q0 -34 36 -45l31 -7q30 16 30 52q0 44 -45 44zM207 689l-40 10
q-45 -17 -45 -54q0 -46 58 -46h8q31 0 44.5 10t13.5 33q0 36 -39 47z" />
    <glyph glyph-name="uni2079" unicode="&#x2079;" horiz-adv-x="349" 
d="M172 940q78 0 114.5 -29t39.5 -92v-20q-2 -39 -14 -61l-100 -206q-5 -8 -14 -8h-74q-14 0 -8 14l70 148q-15 -3 -32 -3q-61 0 -97 28.5t-36 81.5v38q0 55 35.5 82t115.5 27zM172 861q-35 0 -48.5 -10.5t-13.5 -38.5v-9q0 -28 13.5 -38.5t48.5 -10.5q36 0 50 10.5t14 38.5
v9q0 28 -14 38.5t-50 10.5z" />
    <glyph glyph-name="uni207D" unicode="&#x207d;" horiz-adv-x="217" 
d="M134 969h69q3 0 3 -3v-6q0 -4 -2 -6q-65 -84 -78 -124q-13 -39 -13 -130v-18q0 -84 13 -123q14 -41 78 -114q2 -2 2 -6v-5q0 -3 -3 -3h-69q-7 0 -10 4q-62 85 -78 130q-15 45 -15 135q0 93 14 138q13 43 79 126q2 5 10 5z" />
    <glyph glyph-name="uni207E" unicode="&#x207e;" horiz-adv-x="218" 
d="M14 969h69q6 0 11 -5q62 -86 77 -130t15 -134q0 -93 -14 -140q-14 -44 -78 -125q-4 -4 -11 -4h-69q-3 0 -3 3v5q0 4 2 6q65 84 78 124q13 39 13 131v18q0 61 -4 84q-7 61 -87 152q-2 2 -2 6v6q0 3 3 3z" />
    <glyph glyph-name="lira" unicode="&#x20a4;" horiz-adv-x="663" 
d="M434 788q74 0 153 -18q26 -7 26 -29v-100q0 -15 -15 -15h-145q-85 0 -110 -18q-26 -17 -26 -65v-61h204q15 0 15 -15v-42q0 -15 -15 -15h-204v-70h204q15 0 15 -15v-42q0 -15 -15 -15h-204v-107h296q16 0 16 -15v-131q0 -15 -16 -15h-574q-15 0 -14 15l23 131q3 15 19 15
h65v107h-59q-16 0 -16 15v42q0 15 16 15h59v70h-59q-16 0 -16 15v42q0 15 16 15h59v108q0 118 85 161q75 37 217 37z" />
    <glyph glyph-name="Euro" unicode="&#x20ac;" horiz-adv-x="705" 
d="M626 628h-154q-70 0 -100 -29.5t-38 -105.5h241q17 0 12 -15l-11 -39q-3 -15 -19 -15h-227v-31v-22h212q15 0 12 -15l-10 -39q-4 -15 -20 -15h-191q8 -83 37 -114q30 -32 102 -32h160q15 0 15 -15v-97q0 -25 -26 -31q-73 -18 -149 -18q-176 0 -246 66q-69 65 -80 241
h-113q-15 0 -12 15l11 39q3 15 19 15h92v22v31h-77q-15 0 -12 15l10 39q5 15 20 15h62q12 169 82 232q70 64 244 64q97 0 176 -18q32 -9 25 -31l-29 -97q-6 -15 -18 -15z" />
    <glyph glyph-name="uni20B9" unicode="&#x20b9;" horiz-adv-x="731" 
d="M58 783h632q16 0 16 -15v-41q0 -15 -16 -15l-174 1q41 -50 47 -146h127q16 0 16 -15v-40q0 -15 -16 -15h-127q-4 -95 -37.5 -142.5t-109.5 -63.5l170 -271q6 -8 2.5 -14t-14.5 -6h-156q-25 0 -40 22l-163 257h-157q-15 0 -15 15v108q0 15 15 15h196q68 0 93 16.5t29 63.5
h-317q-16 0 -16 15v40q0 15 16 15h312q-7 34 -33.5 47.5t-83.5 13.5h-196q-15 0 -15 15v125q0 15 15 15z" />
    <glyph glyph-name="uni20BD" unicode="&#x20bd;" horiz-adv-x="748" 
d="M433 295h-123v-63h175q16 0 16 -15v-71q0 -15 -16 -15h-175v-115q0 -10 -3 -13t-12 -3h-155q-9 0 -12 3t-3 13v115h-76q-16 0 -16 15v71q0 15 16 15h76v101h-76q-16 0 -16 15v70q0 15 16 15h76v330q0 13 15 14q147 12 293 12q165 0 227 -53q63 -53 63 -200
q0 -77 -14.5 -123t-49.5 -72t-86.5 -36t-139.5 -10zM310 628v-195h103q74 0 98 18q25 19 25 80q0 60 -25 78q-25 19 -98 19h-103z" />
    <glyph glyph-name="uni2113" unicode="&#x2113;" horiz-adv-x="415" 
d="M211 789q84 0 127 -28.5t43 -99.5v-314q0 -72 -40 -100t-123 -28h-49v-62q0 -55 51 -55h107q15 0 15 -15v-70q0 -14 -14 -16q-56 -6 -114 -6q-83 0 -122.5 28t-39.5 100v538q0 128 159 128zM217 682q-28 0 -38 -9.5t-10 -34.5v-313h47q27 1 37.5 12.5t10.5 38.5v262
q0 25 -10 34.5t-37 9.5z" />
    <glyph glyph-name="uni2116" unicode="&#x2116;" horiz-adv-x="1142" 
d="M969 789q146 0 146 -140q0 -139 -146 -139q-145 0 -145 139q0 140 145 140zM564 783h155q15 0 15 -16v-750q0 -17 -15 -17h-109q-37 0 -58 29l-295 423v-435q0 -17 -15 -17h-155q-15 0 -15 17v750q0 16 15 16h114q28 0 38.5 -6.5t26.5 -28.5l283 -404v423q0 16 15 16z
M1030 649q0 61 -61 61t-61 -61t61 -61t61 61zM839 454h261q15 0 15 -15v-41q0 -15 -15 -15h-261q-15 0 -15 15v41q0 15 15 15z" />
    <glyph glyph-name="uni2117" unicode="&#x2117;" horiz-adv-x="836" 
d="M706 85q-92 -93 -288 -93t-288 93q-92 94 -92 290t92 290q92 93 288 93t288 -93q92 -94 92 -290t-92 -290zM418 696q-165 0 -242 -77.5t-77 -243.5t77.5 -243.5t241.5 -77.5t241.5 77.5t77.5 243.5t-77.5 243.5t-241.5 77.5zM446 558q80 0 112 -30t32 -104t-31 -99
t-113 -25h-64v-127q0 -8 -2 -10t-10 -2h-76q-7 0 -9 2t-2 10v367q0 7 2 9t9 2q66 7 152 7zM435 471h-53v-92h53q36 0 45.5 7.5t9.5 35.5t-11 38.5t-44 10.5z" />
    <glyph glyph-name="uni2120" unicode="&#x2120;" horiz-adv-x="1018" 
d="M234 786q52 0 121 -12q8 -3 8 -9v-64q0 -9 -9 -9h-148q-47 0 -47 -31v-12q0 -27 31 -39l112 -43q45 -16 65 -39q19 -22 19 -77v-21q0 -120 -180 -120q-75 0 -152 13q-8 2 -8 10v62q0 9 9 9h185q37 0 37 25v11q0 18 -9.5 27.5t-32.5 18.5l-125 45q-58 21 -58 120v17
q0 59 35 87q14 12 40 20q43 11 107 11zM838 784h87q7 0 8 -10l44 -448q1 -13 -13 -13h-82q-12 0 -13 13l-24 264l-99 -250q-3 -8 -12 -8h-73q-8 0 -13 8l-99 251l-24 -265q-1 -13 -12 -13h-83q-13 0 -13 13l45 447q1 10 8 10h87q15 0 21.5 -4.5t12.5 -19.5l106 -279l107 280
q5 14 11.5 19t22.5 5z" />
    <glyph glyph-name="trademark.001" unicode="&#x2122;" horiz-adv-x="1003" 
d="M36 784h349q13 0 13 -13v-68q0 -13 -13 -13h-121v-363q0 -13 -13 -13h-82q-12 0 -12 13v363h-121q-13 0 -13 13v68q0 13 13 13zM818 784h87q8 0 8 -10l44 -447q1 -13 -12 -13h-82q-12 0 -13 13l-24 264l-100 -250q-3 -8 -12 -8h-73q-9 0 -12 8l-99 250l-24 -264
q-1 -13 -13 -13h-83q-13 0 -13 13l45 447q1 10 8 10h88q15 0 21.5 -4.5t11.5 -19.5l106 -280l107 280q6 15 12.5 19.5t21.5 4.5z" />
    <glyph glyph-name="Omega" unicode="&#x2126;" horiz-adv-x="881" 
d="M440 788q206 0 303 -85.5t97 -266.5q0 -232 -164 -282h134q15 0 15 -15v-124q0 -15 -15 -15h-301q-15 0 -15 15v154q0 13 12 17q79 28 117.5 80t38.5 138q0 116 -53.5 170t-168.5 54q-113 0 -166.5 -54.5t-53.5 -169.5q0 -86 38.5 -138t117.5 -80q12 -4 12 -17v-154
q0 -15 -15 -15h-301q-15 0 -15 15v124q0 15 15 15h135q-166 49 -166 280q0 182 97.5 268t301.5 86z" />
    <glyph glyph-name="estimated" unicode="&#x212e;" horiz-adv-x="607" 
d="M310 575q125 0 198 -85q75 -84 75 -206h-429v-193q66 -63 152 -63q72 0 120 31t90 96l31 -19q-47 -72 -102.5 -106.5t-138.5 -34.5q-118 0 -195 84q-76 85 -76 206q0 123 75 206q75 84 200 84zM310 542q-96 0 -156 -62v-163h309v163q-68 62 -153 62z" />
    <glyph glyph-name="oneeighth" unicode="&#x215b;" horiz-adv-x="887" 
d="M605 824h43q16 0 8 -17l-369 -837q-9 -17 -23 -17h-44q-16 0 -8 17l371 837q8 17 22 17zM280 436v-55q0 -11 -12 -11h-224q-12 0 -12 11v55q0 12 12 12h71v229q0 18 -9 25t-36 7h-30q-13 0 -13 12v42q0 9 11 14q21 8 56 8q42 0 71 -11q38 -14 38 -66v-260h65q12 0 12 -12
zM798 206q65 -23 65 -93q0 -116 -149 -116h-10q-150 0 -150 113q0 69 69 99q-55 18 -55 93q0 58 33.5 86t104.5 28h9q137 0 137 -112q0 -38 -12.5 -59t-41.5 -39zM713 338h-9q-43 0 -43 -44q0 -33 36 -45l32 -7q30 16 30 52q0 44 -46 44zM705 75h7q59 0 59 43q0 38 -40 47
l-39 10q-45 -17 -45 -54q0 -46 58 -46z" />
    <glyph glyph-name="threeeighths" unicode="&#x215c;" horiz-adv-x="881" 
d="M600 824h43q16 0 8 -17l-370 -837q-9 -17 -22 -17h-44q-17 0 -8 17l371 837q8 17 22 17zM157 785q82 0 113.5 -24t31.5 -89v-9q0 -69 -53 -86q53 -12 53 -85v-12q0 -67 -32 -90t-113 -23q-64 0 -120 10q-8 2 -8 11v48q0 8 11 8h73q62 0 80.5 8t18.5 34v12q0 43 -64 43
h-87q-9 0 -9 9v53q0 8 9 8h87q38 0 51 9.5t13 36.5v9q0 26 -18.5 34t-80.5 8h-73q-11 0 -11 8v49q0 8 8 10q56 10 120 10zM700 416h9q137 0 137 -112q0 -38 -12.5 -59t-41.5 -39q65 -23 65 -93q0 -116 -149 -116h-10q-150 0 -150 113q0 69 69 99q-55 18 -55 93q0 58 33.5 86
t104.5 28zM707 338h-9q-43 0 -43 -44q0 -33 36 -45l32 -7q30 16 30 52q0 44 -46 44zM725 165l-39 10q-45 -17 -45 -54q0 -46 58 -46h7q59 0 59 43q0 38 -40 47z" />
    <glyph glyph-name="fiveeighths" unicode="&#x215d;" horiz-adv-x="914" 
d="M634 824h43q16 0 8 -17l-369 -837q-8 -17 -22 -17h-45q-17 0 -8 17l371 837q8 17 22 17zM51 783h261q11 0 11 -12v-54q0 -12 -11 -12h-186l-6 -74q23 4 48 4q98 0 129 -28q32 -27 32 -105v-4q-1 -43 -5.5 -64.5t-24 -38t-52.5 -21.5t-96 -7q-60 0 -110 8q-9 1 -9 10v53
q0 7 11 7h113q51 0 67.5 9t16.5 39v11q0 32 -16.5 42t-67.5 10h-109q-15 0 -15 10v54l11 154q0 9 8 9zM732 416h9q138 0 138 -112q0 -38 -12.5 -59t-41.5 -39q65 -23 65 -93q0 -59 -36.5 -87.5t-113.5 -28.5h-10q-150 0 -150 113q0 69 69 99q-54 18 -54 93q0 114 137 114z
M740 338h-10q-42 0 -42 -44q0 -33 36 -45l31 -7q31 16 31 52q0 44 -46 44zM758 165l-40 10q-45 -17 -45 -54q0 -46 59 -46h7q59 0 59 43q0 38 -40 47z" />
    <glyph glyph-name="seveneighths" unicode="&#x215e;" horiz-adv-x="840" 
d="M544 824h43q14 0 8 -17l-370 -837q-9 -17 -22 -17h-45q-16 0 -7 17l370 837q8 17 23 17zM36 783h281q12 0 12 -12v-40q0 -7 -6 -18l-172 -335q-5 -8 -14 -8h-77q-16 0 -8 14l166 321h-182q-13 0 -13 10v56q0 12 13 12zM657 416h9q137 0 137 -112q0 -38 -12.5 -59
t-41.5 -39q65 -23 65 -93q0 -116 -149 -116h-10q-150 0 -150 113q0 69 69 99q-55 18 -55 93q0 58 33.5 86t104.5 28zM664 338h-9q-43 0 -43 -44q0 -33 36 -45l32 -7q30 16 30 52q0 44 -46 44zM682 165l-39 10q-45 -17 -45 -54q0 -46 58 -46h7q59 0 59 43q0 38 -40 47z" />
    <glyph glyph-name="arrowleft" unicode="&#x2190;" horiz-adv-x="979" 
d="M429 520h29q11 0 11 -11v-164h424q16 0 16 -15v-92q0 -15 -16 -15h-424v-163q0 -11 -11 -11h-29q-5 0 -21 6l-336 194q-10 7 -10 22v26q0 14 10 21l337 195q15 7 20 7z" />
    <glyph glyph-name="arrowup" unicode="&#x2191;" horiz-adv-x="591" 
d="M283 707h26q15 0 21 -10l195 -336q6 -13 6 -21v-29q0 -11 -11 -11h-164v-424q0 -15 -15 -15h-92q-15 0 -15 15v424h-164q-10 0 -10 11v29q0 2 6 20l196 337q6 10 21 10z" />
    <glyph glyph-name="arrowright" unicode="&#x2192;" horiz-adv-x="979" 
d="M521 520h29q5 0 20 -7l336 -195q11 -6 11 -21v-26q0 -14 -11 -22l-335 -194q-17 -6 -21 -6h-29q-12 0 -12 11v163h-423q-16 0 -16 15v92q0 15 16 15h423v164q0 11 12 11z" />
    <glyph glyph-name="arrowdown" unicode="&#x2193;" horiz-adv-x="591" 
d="M249 707h92q15 0 15 -15v-424h164q11 0 11 -11v-29q0 -7 -7 -20l-195 -337q-6 -10 -22 -10h-26q-14 0 -21 10l-194 336q-6 13 -6 21v29q0 11 10 11h164v424q0 15 15 15z" />
    <glyph glyph-name="arrowboth" unicode="&#x2194;" horiz-adv-x="1276" 
d="M817 520h29q5 0 20 -7l336 -194q12 -9 12 -22v-26q-1 -16 -12 -22l-335 -194q-17 -6 -21 -6l-29 1q-12 -2 -12 10v163h-335v-163q0 -12 -11 -10l-29 -1q-8 0 -21 6l-336 194q-10 6 -11 22v26q0 14 11 22l337 194q13 7 20 7h29q10 0 11 -10v-165h335v165q1 10 12 10z" />
    <glyph glyph-name="arrowupdn" unicode="&#x2195;" horiz-adv-x="600" 
d="M287 860h26q16 -1 21 -11l195 -336q6 -13 6 -21l-1 -29q2 -11 -10 -11h-164v-336h164q12 0 10 -11l1 -29q0 -4 -6 -21l-195 -335q-4 -10 -21 -12h-26q-13 0 -22 12l-195 336l-3 8q-3 9 -3 12v29q0 11 10 11h164v336h-164q-10 1 -10 11v29q0 2 6 20l195 337q9 11 22 11z
" />
    <glyph glyph-name="uni2196" unicode="&#x2196;" horiz-adv-x="775" 
d="M114 610l375 -99q15 -7 19 -11l21 -21q7 -7 0 -15l-116 -116l299 -300q12 -10 1 -21l-65 -65q-11 -11 -22 0l-299 300l-116 -117q-8 -6 -15 1l-21 21q-5 5 -9 19l-100 376q-3 11 7 23l19 18q12 11 22 7z" />
    <glyph glyph-name="uni2197" unicode="&#x2197;" horiz-adv-x="776" 
d="M286 510l376 100q11 3 22 -8l18 -18q11 -11 8 -23l-99 -374q-9 -18 -11 -20l-21 -20q-6 -8 -15 -1l-116 116l-299 -300q-11 -11 -22 0l-65 65q-10 10 1 22l299 300l-116 116q-8 6 1 15l20 20q3 2 19 10z" />
    <glyph glyph-name="uni2198" unicode="&#x2198;" horiz-adv-x="774" 
d="M148 606l300 -299l116 116q8 6 15 -1l21 -21l9 -18l100 -377q3 -11 -7 -23l-19 -18q-12 -11 -22 -7l-375 99q-15 7 -19 11l-20 21q-10 7 -1 15l116 116l-300 299q-10 12 0 22l64 66q10 11 22 -1z" />
    <glyph glyph-name="uni2199" unicode="&#x2199;" horiz-adv-x="777" 
d="M649 606l65 -66q10 -10 -1 -21l-299 -300l116 -116q8 -6 -1 -15l-20 -20q-5 -6 -19 -10l-376 -100q-12 -3 -23 8l-18 18q-11 11 -7 22l99 376q3 10 10 19l21 20q7 7 16 1l116 -116l299 299q11 11 22 1z" />
    <glyph glyph-name="partialdiff" unicode="&#x2202;" horiz-adv-x="665" 
d="M330 782h163q12 0 16 -10l121 -387q9 -40 -1 -91l-17 -100q-21 -108 -104 -153.5t-233 -45.5q-131 0 -199 39q-73 43 -51 160l18 100q37 189 293 189q33 0 68 -5l-88 286q-4 18 14 18zM341 331q-67 0 -89 -18q-23 -18 -33 -67v-5q-11 -50 4 -67q15 -18 82 -18q69 0 94 18
q26 18 36 67l1 6q10 49 -8.5 66.5t-86.5 17.5z" />
    <glyph glyph-name="Delta" unicode="&#x2206;" horiz-adv-x="730" 
d="M288 716h161q13 0 18 -12l239 -625q3 -9 3 -17v-49q0 -13 -14 -13h-662q-13 0 -13 13v48q0 8 3 17l247 626q6 12 18 12zM476 163l-109 317l-109 -317h218z" />
    <glyph glyph-name="product.001" unicode="&#x220f;" horiz-adv-x="725" 
d="M24 794h677q15 0 15 -15v-130q0 -15 -15 -15h-87v-699q0 -15 -15 -15h-144q-15 0 -15 15v699h-155v-699q0 -15 -15 -15h-144q-15 0 -15 15v699h-87q-15 0 -15 15v130q0 15 15 15z" />
    <glyph glyph-name="summation.001" unicode="&#x2211;" horiz-adv-x="601" 
d="M33 794h507q15 0 15 -15v-138q0 -15 -15 -15h-280l165 -254q6 -10 6 -15v-6q0 -8 -6 -17l-170 -248h313q15 0 15 -15v-138q0 -15 -15 -15h-543q-15 0 -15 15v89q0 9 6 18l201 290q6 9 6 18v4q0 8 -5 16l-194 301q-6 11 -6 19v91q0 15 15 15z" />
    <glyph glyph-name="minus" unicode="&#x2212;" horiz-adv-x="532" 
d="M69 395h394q16 0 16 -15v-131q0 -15 -16 -15h-394q-16 0 -16 15v131q0 15 16 15z" />
    <glyph glyph-name="radical" unicode="&#x221a;" horiz-adv-x="669" 
d="M503 797h146q18 0 13 -17l-211 -914q-3 -13 -16 -13h-186q-13 0 -17 12l-121 361l-59 -19q-15 -5 -18 9l-39 122q-4 15 10 19l217 67q15 5 18 -10l92 -285l154 655q3 13 17 13z" />
    <glyph glyph-name="infinity.001" unicode="&#x221e;" horiz-adv-x="836" 
d="M603 504q107 0 151.5 -42t44.5 -144q0 -104 -44 -148q-43 -42 -152 -42q-43 0 -79 16.5t-79 56.5l-28 26l-22 -22q-46 -43 -82 -60t-80 -17q-109 0 -152 42q-44 44 -44 148q0 102 44.5 144t151.5 42q75 0 145 -61l40 -38l42 38q38 34 70 47.5t73 13.5zM229 371
q-32 0 -46 -12.5t-15 -41.5q1 -30 15 -42.5t46 -12.5q40 0 81 32l30 23l-30 23q-38 31 -81 31zM607 371q-43 0 -80 -30l-31 -24l31 -25q37 -30 80 -30q32 0 46 12.5t15 42.5q-1 29 -15 41.5t-46 12.5z" />
    <glyph glyph-name="integral.001" unicode="&#x222b;" horiz-adv-x="453" 
d="M308 798q54 0 118 -11q17 -3 17 -20v-103q0 -16 -18 -16h-90q-24 0 -33 -6.5t-9 -25.5q0 -92 21 -273t21 -273q0 -96 -56 -126q-48 -27 -134 -27q-57 0 -118 11q-17 3 -17 21v102q0 16 18 16h90q24 0 33 7t9 25q0 91 -21 273q-21 183 -21 273q0 96 56 126q48 27 134 27z
" />
    <glyph glyph-name="approxequal.001" unicode="&#x2248;" horiz-adv-x="667" 
d="M225 637q64 0 115 -36q56 -35 93 -35q52 0 82 50q7 10 20 2l83 -53q9 -6 3 -19q-23 -62 -72 -96.5t-113 -34.5q-53 0 -115 35t-92 35q-54 0 -82 -49q-6 -12 -18 -4l-83 54q-11 6 -5 19q23 63 72 97.5t112 34.5zM229 382q36 1 76 -17.5t74 -36.5t57 -17q52 0 82 50
q8 11 21 2l82 -53q10 -6 4 -19q-23 -62 -72.5 -96.5t-112.5 -34.5q-53 0 -115 35t-92 35q-54 0 -82 -49q-6 -12 -18 -4l-83 54q-11 6 -5 19q23 63 72 97.5t112 34.5z" />
    <glyph glyph-name="notequal.001" unicode="&#x2260;" horiz-adv-x="661" 
d="M456 621h54q15 0 7 -17l-34 -78h109q15 0 15 -15v-129q0 -15 -15 -15h-179l-48 -111h227q15 0 15 -15v-129q0 -15 -15 -15h-297l-33 -76q-8 -17 -22 -17h-55q-16 0 -8 17l33 76h-141q-15 0 -15 15v129q0 15 15 15h211l49 111h-260q-15 0 -15 15v129q0 15 15 15h330l34 78
q8 17 23 17z" />
    <glyph glyph-name="lessequal" unicode="&#x2264;" horiz-adv-x="619" 
d="M529 685h18q13 0 13 -13v-110q0 -13 -13 -16l-249 -71l249 -72q13 -3 13 -16v-110q0 -13 -13 -13h-18q-6 0 -15 3l-454 143q-12 4 -12 17v96q0 13 13 17l453 143q3 0 6.5 0.5t5.5 1t3 0.5zM63 213h480q15 0 15 -15v-99q0 -15 -15 -15h-480q-15 0 -15 15v99q0 15 15 15z
" />
    <glyph glyph-name="greaterequal" unicode="&#x2265;" horiz-adv-x="619" 
d="M72 685h18q1 0 3 -0.5t5.5 -1t6.5 -0.5l453 -143q13 -4 13 -17v-96q0 -13 -12 -17l-454 -143q-9 -3 -15 -3h-18q-13 0 -13 13v110q0 13 13 16l249 72l-249 71q-13 3 -13 16v110q0 13 13 13zM76 213h480q15 0 15 -15v-99q0 -15 -15 -15h-480q-15 0 -15 15v99q0 15 15 15z
" />
    <glyph glyph-name="uni2460" unicode="&#x2460;" horiz-adv-x="800" 
d="M400 757q180 0 273.5 -93.5t93.5 -273.5q0 -179 -94 -272.5t-273 -93.5t-273 93.5t-94 272.5t94 273t273 94zM400 77q313 0 313 313q0 314 -313 314q-314 0 -314 -314q0 -313 314 -313zM453 517v-260h65q13 0 13 -12v-55q0 -11 -13 -11h-223q-13 0 -13 12v54q0 12 13 12
h70v229q0 18 -9.5 25.5t-35.5 7.5h-30q-13 0 -13 11v42q0 8 12 15q22 8 55 8q39 0 71 -12q38 -14 38 -66z" />
    <glyph glyph-name="uni2461" unicode="&#x2461;" horiz-adv-x="800" 
d="M400 757q181 0 274 -94t93 -273t-94 -273q-95 -93 -273 -93t-273 93q-94 94 -94 273t94 273t273 94zM400 77q313 0 313 313q0 314 -313 314q-314 0 -314 -314q0 -313 314 -313zM404 595q26 0 44.5 -1.5t38.5 -7t32.5 -15t20.5 -27t8 -41.5v-51q0 -35 -11 -57t-40 -37
l-110 -57q-21 -10 -28 -17.5t-7 -19.5v-7h191q7 0 7 -5v-68q0 -5 -6 -5h-280q-14 0 -14 15v52q0 40 17.5 65t63.5 50l102 57q25 13 25 43v24q0 18 -10.5 25t-37.5 7h-124q-7 0 -7 8v49q0 9 7 10q58 11 118 11z" />
    <glyph glyph-name="uni2462" unicode="&#x2462;" horiz-adv-x="800" 
d="M400 757q180 0 273.5 -94.5t93.5 -272.5q0 -179 -94 -273q-95 -93 -273 -93t-273 93q-94 94 -94 273t94 273t273 94zM400 77q313 0 313 313q0 314 -313 314q-314 0 -314 -314q0 -313 314 -313zM392 595q80 0 112 -24q32 -23 32 -90v-8q0 -71 -52 -87q52 -10 52 -85v-12
q0 -65 -31 -89t-113 -24q-64 0 -120 10q-9 2 -9 11v48q0 9 11 9h74q61 0 80 8q18 8 18 34v11q2 43 -63 43h-87q-9 0 -9 9v53q0 8 9 8h86q38 0 51 9.5t13 36.5v9q0 27 -18 34q-19 8 -80 8h-74q-11 0 -11 8v49q0 8 9 10q58 11 120 11z" />
    <glyph glyph-name="uni2463" unicode="&#x2463;" horiz-adv-x="800" 
d="M400 757q180 0 273.5 -94.5t93.5 -272.5q0 -179 -94 -273q-95 -93 -273 -93t-273 93q-94 94 -94 273t94 273t273 94zM400 77q313 0 313 313q0 314 -313 314q-314 0 -314 -314q0 -313 314 -313zM308 592h67q11 0 8 -14l-62 -228h92v98q0 12 9 15l67 25q14 5 14 -8v-130h61
q13 0 13 -12v-55q0 -12 -13 -12h-61v-80q0 -12 -11 -12h-67q-12 0 -12 12v80h-179q-11 0 -11 13v31q0 9 4 20l67 249q2 8 14 8z" />
    <glyph glyph-name="uni2464" unicode="&#x2464;" horiz-adv-x="800" 
d="M400 757q180 0 273.5 -94.5t93.5 -272.5q0 -179 -94 -273q-95 -93 -273 -93t-273 93q-94 94 -94 273t94 273t273 94zM400 77q313 0 313 313q0 314 -313 314q-314 0 -314 -314q0 -313 314 -313zM270 592h261q11 0 11 -12v-54q0 -12 -11 -12h-186l-6 -74q23 4 48 4
q98 0 129 -28q32 -27 32 -105v-4q-1 -43 -5.5 -64.5t-24 -38t-52.5 -21.5t-96 -7q-61 0 -111 8q-8 2 -8 10v53q0 7 11 7h112q52 0 68 9t16 39v11q0 32 -17.5 42.5t-66.5 10.5h-108q-15 0 -15 9v54l11 155q0 8 8 8z" />
    <glyph glyph-name="uni2465" unicode="&#x2465;" horiz-adv-x="800" 
d="M400 757q180 0 273.5 -94.5t93.5 -272.5q0 -179 -94 -273q-95 -93 -273 -93t-273 93q-94 94 -94 273t94 273t273 94zM400 77q313 0 313 313q0 314 -313 314q-314 0 -314 -314q0 -313 314 -313zM375 592h74q14 0 8 -15l-70 -147q30 3 32 3q61 0 97 -28.5t36 -81.5v-38
q0 -55 -36 -82t-116 -27q-78 0 -114 29t-39 92v20q2 36 13 62l101 205q5 8 14 8zM337 313v-9q0 -28 14 -39t49 -11t49 11t14 39v9q0 28 -13.5 38t-49.5 10t-49.5 -10t-13.5 -38z" />
    <glyph glyph-name="uni2466" unicode="&#x2466;" horiz-adv-x="800" 
d="M400 757q180 0 273.5 -94.5t93.5 -272.5q0 -179 -94 -273q-95 -93 -273 -93t-273 93q-94 94 -94 273t94 273t273 94zM400 77q313 0 313 313q0 314 -313 314q-314 0 -314 -314q0 -313 314 -313zM260 592h281q11 0 11 -12v-40q0 -10 -5 -18l-173 -335q-3 -8 -14 -8h-77
q-14 0 -8 14l167 321h-182q-13 0 -13 10v56q0 12 13 12z" />
    <glyph glyph-name="uni2467" unicode="&#x2467;" horiz-adv-x="800" 
d="M400 757q180 0 273.5 -94.5t93.5 -272.5q0 -179 -94 -273q-95 -93 -273 -93t-273 93q-94 94 -94 273t94 273t273 94zM400 77q313 0 313 313q0 314 -313 314q-314 0 -314 -314q0 -313 314 -313zM397 595h9q137 0 137 -112q0 -38 -12 -59t-41 -39q64 -22 64 -93
q0 -59 -36 -87.5t-113 -28.5h-10q-150 0 -150 113q0 69 69 99q-54 18 -54 93q0 114 137 114zM403 517h-10q-42 0 -42 -44q0 -33 36 -45l31 -7q31 16 31 52q0 44 -46 44zM422 344l-39 10q-45 -16 -45 -54q0 -46 58 -46h8q58 0 58 43q0 37 -40 47z" />
    <glyph glyph-name="uni2468" unicode="&#x2468;" horiz-adv-x="800" 
d="M400 757q180 0 273.5 -94.5t93.5 -272.5q0 -179 -94 -273q-95 -93 -273 -93t-273 93q-94 94 -94 273t94 273t273 94zM400 77q313 0 313 313q0 314 -313 314q-314 0 -314 -314q0 -313 314 -313zM399 595q78 0 114.5 -29t38.5 -92v-20q-2 -37 -13 -61l-101 -206
q-5 -8 -14 -8h-73q-15 0 -8 15l69 148q-15 -3 -32 -3q-62 0 -97.5 28t-35.5 81v38q0 55 36 82t116 27zM337 468v-10q0 -28 13.5 -38t49.5 -10q35 0 49 10.5t14 37.5v10q0 28 -14 38.5t-49 10.5t-49 -10.5t-14 -38.5z" />
    <glyph glyph-name="uni24EA" unicode="&#x24ea;" horiz-adv-x="800" 
d="M400 757q181 0 274 -94t93 -273t-94 -273q-95 -93 -273 -93t-273 93q-94 94 -94 273t94 273t273 94zM714 390q0 314 -314 314t-314 -314q0 -313 314 -313t314 313zM557 385q0 -122 -32 -166q-31 -43 -125 -43t-125 43q-32 44 -32 166q0 123 31 166q32 44 126 44t125 -43
q32 -44 32 -167zM453 489q-13 28 -53 28q-41 0 -54 -28q-13 -26 -13 -104t13 -104q14 -26 54 -26q39 0 53 26q14 28 14 104t-14 104z" />
    <glyph glyph-name="uni24FF" unicode="&#x24ff;" horiz-adv-x="800" 
d="M400 710q168 0 254 -86t86 -254t-86 -254t-254 -86q-167 0 -255 86q-86 86 -86 254t86.5 254t254.5 86zM243 365q0 -122 32 -166q31 -43 125 -43t125 43q32 44 32 166q0 123 -32 167q-31 43 -125 43t-126 -44q-31 -43 -31 -166zM346 469q13 28 54 28q40 0 53 -28
q14 -28 14 -104t-14 -104q-14 -26 -53 -26q-40 0 -54 26q-13 26 -13 104t13 104z" />
    <glyph glyph-name="lozenge.001" unicode="&#x25ca;" horiz-adv-x="613" 
d="M252 719h108q12 0 18 -10l212 -347q6 -10 -1 -20l-213 -332q-6 -10 -18 -10h-104q-12 0 -18 10l-212 332q-7 10 -1 20l211 347q6 10 18 10zM395 363l-79 128q-10 16 -20 0l-80 -130q-7 -10 0 -20l79 -122q11 -17 21 0l79 124q7 10 0 20z" />
    <glyph glyph-name="uni261E" unicode="&#x261e;" horiz-adv-x="973" 
d="M692 604l154 -3q50 0 68 -15.5t18 -58.5q0 -44 -18 -59.5t-68 -15.5h-49q2 -8 2 -23q0 -28 -14 -42q14 -16 14 -45q0 -28 -14 -42q14 -16 14 -45q0 -31 -14 -44.5t-54 -20.5q-169 -23 -257 -22q-94 1 -214 30v-33q0 -12 -11 -12h-136q-8 1 -11 9v2q-60 196 0 392
q0 10 11 10h136q11 0 11 -11v-18q95 39 186 53q90 14 246 14zM572 498h274q25 0 33 5.5t8 23.5t-8 23t-36 5l-151 3q-159 0 -246 -15q-86 -13 -186 -57v-240q107 -29 195 -32q91 -3 257 18q26 4 33.5 8t7.5 15q0 14 -7.5 18t-33.5 4h-141q-11 0 -11 12v24q0 11 11 11h142
q25 0 32.5 3.5t7.5 14.5q0 15 -7.5 19t-33.5 4h-141q-11 0 -11 11v24q0 11 11 11h142q25 0 32.5 3.5t7.5 14.5q0 15 -7.5 19t-33.5 4h-140q-11 0 -11 11v24q0 11 11 11zM215 200v320h-77q-44 -148 -2 -320h79z" />
    <glyph glyph-name="uni267C" unicode="&#x267c;" horiz-adv-x="800" 
d="M754 380q0 -147 -104 -251q-103 -103 -250 -103t-250 103q-104 104 -104 251q0 146 104 250t250 104t250 -104t104 -250zM405 564l41 -69l-39 -24l129 1l63 112l-42 -25l-28 46q-16 25 -41 31l-8 1l-162 1q-35 -4 -52 -26l-4 -8l-57 -98l114 -65l71 125q10 10 15 -2z
M555 276l-81 -1v46l-64 -112l65 -112v49l54 1q28 0 47 21l5 6l81 140q16 33 4 58l-4 8l-57 97l-113 -64l72 -126q2 -5 -0.5 -8.5t-8.5 -2.5zM230 290l40 71l40 -23l-66 111l-128 -1l42 -24l-26 -47q-15 -27 -6 -51l3 -8l81 -140q24 -32 50 -32h8h113l-1 130h-144
q-14 2 -6 14z" />
    <glyph glyph-name="uni2776" unicode="&#x2776;" horiz-adv-x="800" 
d="M400 710q168 0 254 -86t86 -254t-86 -254t-254 -86q-167 0 -255 86q-86 86 -86 254t86.5 254t254.5 86zM518 237h-65v260q0 52 -38 66q-32 12 -71 12q-33 0 -55 -8q-12 -7 -12 -15v-42q0 -11 13 -11h30q26 0 35.5 -7.5t9.5 -25.5v-229h-70q-13 0 -13 -12v-54
q0 -12 13 -12h223q13 0 13 11v55q0 12 -13 12z" />
    <glyph glyph-name="uni2777" unicode="&#x2777;" horiz-adv-x="800" 
d="M400 710q168 0 254 -86t86 -254t-86 -254t-254 -86q-167 0 -255 86q-86 86 -86 254t86.5 254t254.5 86zM404 575q-60 0 -118 -11q-7 -1 -7 -10v-49q0 -8 7 -8h124q27 0 37.5 -7t10.5 -25v-24q0 -30 -25 -43l-102 -57q-46 -25 -63.5 -50t-17.5 -65v-52q0 -15 14 -15h280
q6 0 6 5v68q0 5 -7 5h-191v7q0 12 7 19.5t28 17.5l110 57q29 15 40 37t11 57v51q0 24 -8 41.5t-20.5 27t-32.5 15t-38.5 7t-44.5 1.5z" />
    <glyph glyph-name="uni2778" unicode="&#x2778;" horiz-adv-x="800" 
d="M400 710q168 0 254 -86t86 -254t-86 -254t-254 -86q-167 0 -255 86q-86 86 -86 254t86.5 254t254.5 86zM392 575q-62 0 -120 -11q-9 -2 -9 -10v-49q0 -8 11 -8h74q61 0 80 -8q18 -7 18 -34v-9q0 -27 -13 -36.5t-51 -9.5h-86q-9 0 -9 -8v-53q0 -9 9 -9h87q65 0 63 -43v-11
q0 -26 -18 -34q-19 -8 -80 -8h-74q-11 0 -11 -9v-48q0 -9 9 -11q56 -10 120 -10q82 0 113 24t31 89v12q0 75 -52 85q52 16 52 87v8q0 67 -32 90q-32 24 -112 24z" />
    <glyph glyph-name="uni2779" unicode="&#x2779;" horiz-adv-x="800" 
d="M400 710q168 0 254 -86t86 -254t-86 -254t-254 -86q-167 0 -255 86q-86 86 -86 254t86.5 254t254.5 86zM375 572h-67q-12 0 -14 -8l-67 -249q-4 -11 -4 -20v-31q0 -13 11 -13h179v-80q0 -12 12 -12h67q11 0 11 12v80h61q13 0 13 12v55q0 12 -13 12h-61v130q0 13 -14 8
l-67 -25q-9 -3 -9 -15v-98h-92l62 228q3 14 -8 14z" />
    <glyph glyph-name="uni277A" unicode="&#x277a;" horiz-adv-x="800" 
d="M400 710q168 0 254 -86t86 -254t-86 -254t-254 -86q-167 0 -255 86q-86 86 -86 254t86.5 254t254.5 86zM531 572h-261q-8 0 -8 -8l-11 -155v-54q0 -9 15 -9h108q49 0 66.5 -10.5t17.5 -42.5v-11q0 -30 -16 -39t-68 -9h-112q-11 0 -11 -7v-53q0 -8 8 -10q50 -8 111 -8
q63 2 96 7t52.5 21.5t24 38t5.5 64.5v4q0 78 -32 105q-31 28 -129 28q-25 0 -48 -4l6 74h186q11 0 11 12v54q0 12 -11 12z" />
    <glyph glyph-name="uni277B" unicode="&#x277b;" horiz-adv-x="800" 
d="M400 710q168 0 254 -86t86 -254t-86 -254t-254 -86q-167 0 -255 86q-86 86 -86 254t86.5 254t254.5 86zM449 572h-74q-9 0 -14 -8l-101 -205q-11 -26 -13 -62v-20q3 -63 39 -92t114 -29q80 0 116 27t36 82v38q0 53 -36 81.5t-97 28.5q-2 0 -32 -3l70 147q6 15 -8 15z
M463 293v-9q0 -28 -14 -39t-49 -11t-49 11t-14 39v9q0 28 13.5 38t49.5 10t49.5 -10t13.5 -38z" />
    <glyph glyph-name="uni277C" unicode="&#x277c;" horiz-adv-x="800" 
d="M400 710q168 0 254 -86t86 -254t-86 -254t-254 -86q-167 0 -255 86q-86 86 -86 254t86.5 254t254.5 86zM541 572h-281q-13 0 -13 -12v-56q0 -10 13 -10h182l-167 -321q-6 -14 8 -14h77q11 0 14 8l173 335q5 8 5 18v40q0 12 -11 12z" />
    <glyph glyph-name="uni277D" unicode="&#x277d;" horiz-adv-x="800" 
d="M400 710q168 0 254 -86t86 -254t-86 -254t-254 -86q-167 0 -255 86q-86 86 -86 254t86.5 254t254.5 86zM406 575h-9q-137 0 -137 -114q0 -75 54 -93q-69 -30 -69 -99q0 -113 150 -113h10q77 0 113 28.5t36 87.5q0 71 -64 93q29 18 41 39t12 59q0 112 -137 112zM393 497
h10q46 0 46 -44q0 -36 -31 -52l-31 7q-36 12 -36 45q0 44 42 44zM383 334l39 -10q40 -10 40 -47q0 -43 -58 -43h-8q-58 0 -58 46q0 38 45 54z" />
    <glyph glyph-name="uni277E" unicode="&#x277e;" horiz-adv-x="800" 
d="M400 710q168 0 254 -86t86 -254t-86 -254t-254 -86q-167 0 -255 86q-86 86 -86 254t86.5 254t254.5 86zM399 575q-80 0 -116 -27t-36 -82v-38q0 -53 35.5 -81t97.5 -28q17 0 32 3l-69 -148q-7 -15 8 -15h73q9 0 14 8l101 206q11 24 13 61v20q-2 63 -38.5 92t-114.5 29z
M463 448v-10q0 -27 -14 -37.5t-49 -10.5q-36 0 -49.5 10t-13.5 38v10q0 28 14 38.5t49 10.5t49 -10.5t14 -38.5z" />
    <glyph glyph-name="uniF8FF" unicode="&#xf8ff;" horiz-adv-x="921" 
d="M871 20h-821v700h821v-700zM491 387q12 0 16 7h1l2 -6h8v73h-11v-19q0 -6 1 -9h-1q-5 8 -15 8t-16 -7q-13 -20 0 -40q6 -7 15 -7zM644 449q1 -1 5 -1t5 1q2 5 0 10q-1 1 -5 1t-5 -1q-2 -5 0 -10zM161 388h10l20 57h1q0 -6 -1 -10v-47h11v69h-16l-20 -55l-19 55h-16v-69
h10v33q0 19 -1 25h1zM351 396q-3 0 -5 2t-2 6v28h15v8h-15v12h-7l-4 -11l-8 -4v-5h8v-29q0 -16 15 -16h6q3 0 5 2v8q-1 -1 -8 -1zM261 434q-6 7 -18 7t-19 -7q-6 -7 -6 -20q0 -8 3 -14q3 -7 9 -10q4 -3 13 -3q12 0 18 7q15 20 0 40zM318 403q0 1 -1 3t-1 3l-4 5l-10 4l-10 5
q-2 2 -2 4q0 5 9 5q5 0 14 -3l4 8q-20 9 -33 0q-5 -3 -5 -10q0 -6 3 -9q3 -4 12 -7l8 -4q3 0 3 -2q2 -2 2 -4q0 -6 -11 -6q-6 0 -17 4v-9q6 -3 17 -3t16 4q6 5 6 12zM405 388h7v35q0 9 -5 14q-4 4 -15 4q-7 0 -9 -1t-5.5 -2.5t-4.5 -1.5l4 -8q3 3 7 3q2 1 8 1q5 0 7 -2t2 -8
v-2l-9 -1q-14 0 -18 -4q-6 -5 -6 -12q0 -11 9.5 -15t16.5 0q2 1 8 7zM461 430l1 11h-5q-6 0 -9 -3q-6 -4 -7 -7h-1l-1 9h-9v-52h11v27q0 6 4 11q5 5 11 5q4 0 5 -1zM559 387h10l8 3v9l-9 -3h-3q-3 -1 -5 -1q-8 0 -11 5q-4 3 -4 11h35v6q0 16 -14.5 22.5t-25.5 -5.5
q-7 -7 -7 -21q0 -26 26 -26zM629 403q0 6 -5 11l-10 4l-10 5q-2 2 -2 4q0 5 9 5q5 0 14 -3l4 8q-20 9 -33 0q-5 -3 -5 -10q0 -6 3 -9q3 -4 12 -7l8 -4q3 0 3 -2q1 -1 1 -4q0 -6 -10 -6q-6 0 -17 4v-9q11 -5 26 -1.5t12 14.5zM717 434v6h-18h-1q-1 1 -3 1h-5q-10 0 -15 -5
q-6 -5 -6 -13q0 -6 3 -9q3 -5 7 -6q-1 0 -5 -4q-2 -2 -2 -5l1 -4q1 -3 4 -3q-5 -2 -8 -5t-3 -8q0 -6 5 -11q7 -4 17 -4q13 0 21 5q7 4 7 14q0 7 -4 11q-4 3 -14 3h-9q-3 0 -4 1h-2q-2 2 -2 3q0 4 4 5h5q11 0 15 4q6 4 6 13q0 2 -1 3v2q-1 1 -2 4zM763 388h12v34q0 19 -19 19
q-2 0 -10 -2q-4 -1 -7 -6l-2 7h-9v-52h12v26q0 18 13 18q5 0 8 -3q2 -2 2 -9v-32zM655 388v52h-12v-52h12zM683 431q1 3 7 3t7 -3q3 -3 3 -8q0 -10 -10 -10q-1 0 -7 2q-8 8 0 16zM569 419h-24q0 7 4 10q5 6 12.5 3t7.5 -13zM229 414q0 9 4 13q3 5 10 5q13 0 13 -18t-13 -18
q-14 0 -14 18zM494 396q-6 0 -9 4q-3 5 -3 14t3 13q3 5 9 5q7 0 10 -4q4 -4 4 -14v-2q0 -9 -4 -12q-3 -4 -10 -4zM388 395q-4 0 -6 2t-2 6t3 7q8 2 12 2l6 1v-5q0 -6 -3 -9q-4 -4 -10 -4zM676 379q0 5 2 7q6 2 8 2h8q7 0 9 -2q3 -2 3 -5q0 -4 -5 -6q-5 -3 -13 -3q-3 0 -9 2
q-3 2 -3 5zM664 278h1l2 -7h8v74h-11v-19v-4q1 -3 1 -5q-6 7 -16 7t-16 -7q-13 -20 0 -40q6 -7 16 -7t15 8zM155 271v60h21v9h-52v-9h20v-60h11zM401 271v29h26v9h-26v22h28v9h-39v-69h11zM179 324l21 -53l-2 -5q-3 -9 -11 -9h-6v-8q2 -1 7 -1q15 0 21 16l22 60h-12
q-3 -10 -6 -18.5t-4.5 -12t-1.5 -5.5q-1 -1 -1 -6h-1q0 6 -3 12l-11 30h-12zM268 270q8 0 15 7q6 7 6 20q0 14 -6 20q-4 7 -15 7t-16 -8l-2 8h-9v-76h11v29q6 -7 16 -7zM327 270q7 0 9 1q5 0 8 3v9q-4 -3 -8 -3q-2 -1 -9 -1t-11 4q-4 5 -4 12h35v6q0 23 -22 23
q-16 0 -22.5 -17t4.5 -30q7 -7 20 -7zM482 317q-6 7 -18 7t-18 -7q-7 -6 -7 -20q0 -8 3 -14q4 -6 9 -10q6 -3 13 -3q16 -3 23 16t-5 31zM541 271h8v53h-11v-27q0 -9 -3 -14q-4 -4 -10 -4q-11 0 -11 12v33h-11v-35q0 -19 19 -19q2 0 10 2l7 6zM602 271h11v34q0 19 -18 19
q-6 0 -10 -2t-7 -5l-2 7h-9v-53h11v26q0 9 4 14q3 4 10 4q5 0 8 -3q2 -6 2 -9v-32zM724 314l1 10h-5q-10 0 -16 -10l-2 10h-9v-53h11v27q0 7 5 12q3 4 10 4h5zM729 324l21 -53l-2 -5q-3 -9 -11 -9h-6v-8q2 -1 7 -1q15 0 21 16l22 60h-12q-3 -10 -6 -18.5t-4.5 -12t-1.5 -5.5
q-1 -1 -1 -6h-1q0 6 -3 12l-11 30h-12zM325 316q5 0 8 -3q3 -5 3 -10h-24q1 2 2.5 5.5t1.5 4.5q3 3 9 3zM265 315q6 0 9 -4q3 -5 3 -14t-3 -13q-3 -5 -9 -5q-7 0 -10 5q-3 3 -3 13v2q0 9 3 12q3 4 10 4zM451 297q0 9 3 14q3 4 10 4q13 0 13 -18t-13 -18t-13 18zM652 279
q-9 0 -12.5 11t2.5 21q4 4 9 4q7 0 11 -4q3 -5 3 -14v-1q0 -8 -3 -13q-4 -4 -10 -4z" />
    <glyph glyph-name="u1F603" unicode="&#x1f603;" horiz-adv-x="860" 
d="M426 11q-193 0 -284 92.5t-91 289.5q0 196 91 289t284 93q198 0 290.5 -92.5t92.5 -289.5t-92.5 -289.5t-290.5 -92.5zM426 72q167 0 245 77.5t78 243.5q0 165 -78.5 243t-244.5 78q-162 0 -238.5 -78t-76.5 -243t76.5 -243t238.5 -78zM212 472q0 73 72 73q73 0 73 -73
q0 -38 -17.5 -55.5t-55.5 -17.5t-55 17.5t-17 55.5zM558 399q-38 0 -55.5 17.5t-17.5 55.5t17.5 55.5t55.5 17.5q72 0 72 -73t-72 -73zM426 142q-107 0 -158.5 39.5t-50.5 116.5h407q1 -76 -48 -115.5t-150 -40.5z" />
    <glyph glyph-name="NULL" horiz-adv-x="0" 
 />
    <glyph glyph-name="CR" horiz-adv-x="333" 
 />
    <glyph glyph-name="Q.salt" horiz-adv-x="751" 
d="M579 31l97 -42q14 -6 6 -21l-66 -113q-6 -14 -20 -5l-245 145q-180 5 -244 88q-65 86 -65 308q0 121 15.5 194t53.5 119q39 47 100.5 66t163.5 19q195 0 264 -84q70 -82 70 -314q0 -154 -29 -239q-28 -83 -101 -121zM229 391q0 -136 29 -186q28 -49 117 -49t117 49
q29 50 29 186q0 137 -29 187t-117 50t-117 -50t-29 -187z" />
    <glyph glyph-name="i.locl" horiz-adv-x="283" 
d="M142 798q45 0 68.5 -21.5t23.5 -61.5q0 -85 -92 -85q-94 0 -94 85q0 40 24 61.5t70 21.5zM69 567h145q15 0 15 -16v-535q0 -16 -15 -16h-145q-15 0 -15 16v535q0 16 15 16z" />
    <glyph glyph-name="g.salt" horiz-adv-x="610" 
d="M524 612l68 -67q10 -11 -1 -22l-46 -47q14 -42 14 -114q-2 -50 -9 -81t-22 -54t-46.5 -34.5t-74 -17t-111.5 -7.5q-49 0 -62 1l-5 -14q-5 -15 1 -21t32 -8l191 -18q65 -6 88 -42t23 -107v-16q0 -87 -63 -117q-61 -30 -197 -30q-107 0 -240 10q-14 2 -14 14v96q0 16 18 16
h275q30 0 40 4t10 17v4q0 19 -36 20l-199 18q-112 10 -73 130l23 68q-41 18 -57.5 57t-16.5 112q2 56 9 89t22 58t46 37t73 18t112 8q100 0 154 -14l53 54q11 10 21 0zM383 361q0 39 -17.5 53t-69.5 14t-69.5 -14t-17.5 -53q0 -40 18 -55t69 -15t69 15t18 55z" />
    <glyph glyph-name="hungarumlaut.salt" horiz-adv-x="611" 
d="M119 779q-3 16 14 16h71q12 0 17 -12q12 -27 30.5 -37.5t52.5 -10.5q35 0 53 10.5t30 37.5q5 12 17 12h71q17 0 14 -15q-10 -80 -51 -112t-134 -32t-134 31.5t-51 111.5zM525 612l68 -67q11 -11 -1 -22l-46 -47q14 -42 14 -114q-2 -65 -11.5 -100t-40 -58.5t-77.5 -30.5
t-134 -9q-49 0 -87 3l-3 -7q-5 -14 1.5 -20.5t30.5 -9.5l215 -18q73 -6 93 -53q18 -37 18 -99v-17q0 -87 -63 -117q-62 -30 -197 -30q-107 0 -240 10q-14 2 -14 14v96q0 16 18 16h275q30 0 40 4t10 17v5q0 22 -36 24l-206 18q-41 4 -63 24.5t-21.5 48t11.5 58.5l25 61
q-38 20 -53.5 59t-15.5 111q2 56 9 89t22 58t46 37t73 18t112 8q100 0 154 -14l53 54q10 10 21 0zM384 361q0 40 -17.5 54.5t-69.5 14.5t-69.5 -14.5t-17.5 -54.5q0 -42 18 -57t69 -15t69 15t18 57z" />
    </font>
</defs>
</svg>
